Filmek VII -Itt nem kérünk!

papadi

Állandó Tag
Állandó Tag


Szoba kilátással
(A Room with a View)
Angol romantikus thriller (1985)
Főszereplők: Maggie Smith, Denholm Elliot, Judi Dench, Helena Bonham-Carter, Julian Sands, Daniel Day-Lewis
Rendezte: James Ivory
Hang: magyar, angol
Felirat: nincs

A jó házból való angol lány Firenzébe érkezik. Új ismerőse, George társaságában tanúja lesz egy utcai késelésnek, és a látványtól meg szédülve hamarosan a fiú karjaiban találja magát.
A festői Toscana szépsége hamarosan rabul ejti, és elragadja őt a szenvedély és a szerelem...
James Ivory 3 Oscar-díjas filmje!
(a borítóról)

Extrák:
Előzetesek
Szoba kilátással
Gyilkos mezők
A Misszió
Amerika fegyverben
Űrkamionosok

Szereplők (csak a dvd-n)

Média információ:
Video:
Kodek: MPEG-1/2 Video (mpgv)
Felbontás: 704x576
Képkockasebesség: 25
Hang:
Kodek: A52 Audio (aka AC3) (a52)
Csatornák: Sztereó
Mintavételi frekvencia: 48000 Hz
Bitsebesség: 192 kb/mp
Formátum: iso
Méret: 6,94 GB
Műsoridő: 1:51:56 (2:01:55)
(prémium)
[HIDE-THANKS]
Kód:
https://data.hu/get/11440993/D0034i.part1.rar
https://data.hu/get/11440995/D0034i.part2.rar
https://data.hu/get/11440991/D0034i.part3.rar
https://data.hu/get/11440994/D0034i.part4.rar
https://data.hu/get/11440992/D0034i.part5.rar
https://data.hu/get/11440990/D0034i.part6.rar
https://data.hu/get/11440996/D0034i.part7.rar
[/HIDE-THANKS]



Formátum: dvdrip/avi
Méret: 1,58 GB
Felbontás: 720x544
Mintavételi frekvencia: 48000 Hz
Bitsebesség: 115/117 kbps
Műsoridő: 1:51:56 (2:01:55)
Részletes média információ:
I:\0000\Szoba kilátással.avi
General
Complete name : I:\0000\Szoba kilátással.avi
Format : AVI
Format/Info : Audio Video Interleave
File size : 1.58 GiB
Duration : 2 h 1 min
Overall bit rate mode : Variable
Overall bit rate : 1 857 kb/s
Writing application : VirtualDubMod 1.5.4.1 (build 2178/release)
Writing library : VirtualDubMod build 2178/release
Video #0
ID : 0
Format : MPEG-4 Visual
Format profile : Advanced [email protected]
Format settings, BVOP : 1
Format settings, QPel : No
Format settings, GMC : No warppoints
Format settings, Matrix : Custom
Codec ID : XVID
Codec ID/Hint : XviD
Duration : 2 h 1 min
Bit rate : 1 605 kb/s
Width : 720 pixels
Height : 544 pixels
Display aspect ratio : 4:3
Frame rate : 25.000 FPS
Color space : YUV
Chroma subsampling : 4:2:0
Bit depth : 8 bits
Scan type : Progressive
Compression mode : Lossy
Bits/(Pixel*Frame) : 0.164
Stream size : 1.37 GiB (86%)
Writing library : XviD 1.2.1 (UTC 2008-12-04)
Audio #1
ID : 1
Format : MPEG Audio
Format version : Version 1
Format profile : Layer 3
Mode : Joint stereo
Codec ID : 55
Codec ID/Hint : MP3
Duration : 2 h 1 min
Bit rate mode : Variable
Bit rate : 115 kb/s
Nominal bit rate : 128 kb/s
Channel(s) : 2 channels
Sampling rate : 48.0 kHz
Compression mode : Lossy
Stream size : 99.9 MiB (6%)
Alignment : Aligned on interleaves
Interleave, duration : 24 ms (0.60 video frame)
Interleave, preload duration : 539 ms
Writing library : LAME3.98r
Encoding settings : -m j -V 4 -q 2 -lowpass 17 --abr 128
Audio #2
ID : 2
Format : MPEG Audio
Format version : Version 1
Format profile : Layer 3
Mode : Joint stereo
Codec ID : 55
Codec ID/Hint : MP3
Duration : 2 h 1 min
Bit rate mode : Variable
Bit rate : 117 kb/s
Nominal bit rate : 128 kb/s
Channel(s) : 2 channels
Sampling rate : 48.0 kHz
Compression mode : Lossy
Stream size : 102 MiB (6%)
Alignment : Aligned on interleaves
Interleave, duration : 24 ms (0.60 video frame)
Interleave, preload duration : 559 ms
Writing library : LAME3.98r
Encoding settings : -m j -V 4 -q 2 -lowpass 17 --abr 128
[HIDE-THANKS]
Kód:
https://data.hu/get/11440058/D0034a.part1.rar
https://data.hu/get/11440060/D0034a.part2.rar
[/HIDE-THANKS]
vagy free
[HIDE-THANKS]
Kód:
https://data.hu/get/11440051/D0034av.part01.rar
https://data.hu/get/11440056/D0034av.part02.rar
https://data.hu/get/11440053/D0034av.part03.rar
https://data.hu/get/11440057/D0034av.part04.rar
https://data.hu/get/11440052/D0034av.part05.rar
https://data.hu/get/11440059/D0034av.part06.rar
https://data.hu/get/11440061/D0034av.part07.rar
https://data.hu/get/11440054/D0034av.part08.rar
https://data.hu/get/11440055/D0034av.part09.rar
[/HIDE-THANKS]
 

papadi

Állandó Tag
Állandó Tag


Született gyilkosok rendezői változat
(Natural Born Killers)
Amerikai film (1994/2003)
Főszereplők: Woody Harrelson, Juliette Lewis, Robert Downey Jr., Tommy Lee Jones, Tom Sizemore
Rendezte: Oliver Stone
Hang: magyar, angol
Felirat: magyar

Lehet-e hős két ámokfutó sorozatgyilkosból? Ha a közönség úgy akarja, a média szentté avatja őket.
Mickey és Mallory a szerelmespár Amerika útjait járja, nyomukat holttestek mutatják. Ok nélkül, puszta felindulásból, vagy csak saját örömükre ölnek és élvezik, hogy a lapok a címlapon számolnak be legújabb rémtetteikről. Persze az ámokfutásnak egyszer vége szakad és elkapják őket.
Az ítélet nem lehet kétséges: halál. A siralomház előtt azonban még egy utolsó tévéfellépés vár rájuk: egy szenzációhajhász riporter élő műsorban szeretne beszélgetni a két kegyetlen gyilkossal. A riport alatt börtönlázadás tör ki - Mickey és Mallory túszul ejtve a riportert, legyilkolva a börtönőröket kiszabadul és újra elszabadul...


Extrák (csak a dvd-n):
Filmelőzetes (0:55)
Fotógaléria
Oliver Stone az eredeti filmzenéről (1:20)
Beszélgetés az alkotókkal - a film körüli vihar (26:41)
Hozzáadott (kivágott) jelenetek
Sivatag (3:17)
Tárgyalóterem (9:47)
Autósmozi (3:16)
Steven Wright (2:09)
Hun testvérek (3:15)
Denis Leary (1:55)

Alternativ befejezés (4:52)

Média információ:

Video:
Kodek: MPEG-1/2 Video (mpgv)
Felbontás: 720x576
Képkockasebesség: 25

Hang:
Kodek: A52 Audio (aka AC3) (a52)
Csatornák: Sztereó
Mintavételi frekvencia: 48000 Hz
Bitsebesség: 224 kb/mp

Formátum: iso
Méret: 7,77 GB
Műsoridő: 1:57:06 (3:01:37)
(prémium)
[HIDE-THANKS]
Kód:
https://data.hu/get/11442015/D0146i.part01.rar
https://data.hu/get/11442012/D0146i.part02.rar
https://data.hu/get/11442013/D0146i.part03.rar
https://data.hu/get/11442016/D0146i.part04.rar
https://data.hu/get/11442014/D0146i.part05.rar
https://data.hu/get/11442017/D0146i.part06.rar
https://data.hu/get/11442018/D0146i.part07.rar
https://data.hu/get/11442010/D0146i.part08.rar
[/HIDE-THANKS]



Formátum: dvdrip/avi
Méret: 1,71 GB
Felbontás: 720x416
Mintavételi frekvencia: 48000 Hz
Bitsebesség: 1116/114 kbps
Műsoridő: 1:57:06
Részletes média információ:
I:\0000\Született gyilkosok.avi
General
Complete name : I:\0000\Született gyilkosok.avi
Format : AVI
Format/Info : Audio Video Interleave
File size : 1.72 GiB
Duration : 1 h 57 min
Overall bit rate mode : Variable
Overall bit rate : 2 097 kb/s
Writing application : VirtualDubMod 1.5.4.1 (build 2178/release)
Writing library : VirtualDubMod build 2178/release
Video #0
ID : 0
Format : MPEG-4 Visual
Format profile : Advanced [email protected]
Format settings, BVOP : 1
Format settings, QPel : No
Format settings, GMC : No warppoints
Format settings, Matrix : Custom
Codec ID : XVID
Codec ID/Hint : XviD
Duration : 1 h 57 min
Bit rate : 1 847 kb/s
Width : 720 pixels
Height : 416 pixels
Display aspect ratio : 1.731
Frame rate : 25.000 FPS
Color space : YUV
Chroma subsampling : 4:2:0
Bit depth : 8 bits
Scan type : Progressive
Compression mode : Lossy
Bits/(Pixel*Frame) : 0.247
Stream size : 1.51 GiB (88%)
Writing library : XviD 1.2.1 (UTC 2008-12-04)
Audio #1
ID : 1
Format : MPEG Audio
Format version : Version 1
Format profile : Layer 3
Mode : Joint stereo
Mode extension : MS Stereo
Codec ID : 55
Codec ID/Hint : MP3
Duration : 1 h 56 min
Bit rate mode : Variable
Bit rate : 116 kb/s
Nominal bit rate : 128 kb/s
Channel(s) : 2 channels
Sampling rate : 48.0 kHz
Compression mode : Lossy
Stream size : 97.0 MiB (6%)
Alignment : Aligned on interleaves
Interleave, duration : 24 ms (0.60 video frame)
Interleave, preload duration : 159 ms
Writing library : LAME3.98r
Encoding settings : -m j -V 4 -q 2 -lowpass 17 --abr 128
Audio #2
ID : 2
Format : MPEG Audio
Format version : Version 1
Format profile : Layer 3
Mode : Joint stereo
Codec ID : 55
Codec ID/Hint : MP3
Duration : 1 h 56 min
Bit rate mode : Variable
Bit rate : 114 kb/s
Nominal bit rate : 128 kb/s
Channel(s) : 2 channels
Sampling rate : 48.0 kHz
Compression mode : Lossy
Stream size : 95.4 MiB (5%)
Alignment : Aligned on interleaves
Interleave, duration : 24 ms (0.60 video frame)
Interleave, preload duration : 518 ms
Writing library : LAME3.98r
Encoding settings : -m j -V 4 -q 2 -lowpass 17 --abr 128
[HIDE-THANKS]
Kód:
https://data.hu/get/11441941/D0146a.part1.rar
https://data.hu/get/11441938/D0146a.part2.rar
[/HIDE-THANKS]
vagy free
[HIDE-THANKS]
Kód:
https://data.hu/get/11441947/D0146av.part01.rar
https://data.hu/get/11441940/D0146av.part02.rar
https://data.hu/get/11441948/D0146av.part03.rar
https://data.hu/get/11441944/D0146av.part04.rar
https://data.hu/get/11441943/D0146av.part05.rar
https://data.hu/get/11441945/D0146av.part06.rar
https://data.hu/get/11441942/D0146av.part07.rar
https://data.hu/get/11441939/D0146av.part08.rar
https://data.hu/get/11441946/D0146av.part09.rar
https://data.hu/get/11441949/D0146av.part10.rar
[/HIDE-THANKS]
 

Moebius

Állandó Tag
Állandó Tag
Peppermint: A bosszú angyala /Peppermint/
amerikai akcióthriller, dráma, 101 perc, 2018 mozis,magyar

[HIDE-THANKS]https://openload.co/f/NivgXIFg9xc/Peppermint.-A.Bosszu.Angyala.2018.HDTS.HUN.cinema.zsozso.avi.mp4#
[/HIDE-THANKS]


Riley North (Jennifer Garner), szerető anya és feleség élete egy pillanat alatt összeomlik, mikor férjét és kislányát egy brutális támadásban megölik. A kómából felébredt nő igazságot akar, de az elkövetőket – egy befolyásos kartell tagjait – a korrupt bíróság felmenti.
Riley nem nyugszik, amíg le nem számol a tettesekkel: vérbeli harcossá képezi ki magát, hogy egytől-egyig kiiktassa a családja haláláért felelős bűnözőket. A mindenre elszánt magányos harcosnak nem csak az alvilág felbőszült embereit, de a rendőrséget, és az FBI ügynökeit is ki kell játszania, hogy kíméletlen bosszúhadjáratát beteljesítse.
 
Utoljára módosítva a moderátor által:

papadi

Állandó Tag
Állandó Tag


Get Carter - Az igazság fáj
(Get Carter)
Amerikai thriller (2000)
Főszereplők: Sylvester Stallone, Miranda Richardson, Rachael Leigh Cook, Rhona Mitra, Johnny Strong, John C. McGinley, Alan Cumming, Mickey Rourke, Michael Caine
Rendezte: Stephen T. Kay
Hang: magyar, angol
Felirat: magyar

A maffia erős embereként Las Vegasban tevékenykedő Jack Carter hosszú idő után visszatér szülővárosába, Seattle-be. A família azonban nem ünnepelni gyűlik össze: mindannyian Jack testvérének temetésére érkeznek. A szertartás alatt azonban Carternek gyanús sejtése támad: öccse nem baleset, hanem gyilkosság következtében vesztette életét. A családi kötelék és az alvilág mélyére ásva hősünk újabb nyomokra akad - és a tettek mezejére lép. hogy megbosszúlja a gyilkosságot. (a borítóról)

Extrák:
(A oldal):
Filmográfiák és érdekességek
(B-oldal - csak eredeti nyelven):
Eredeti filmelőzetes (2:25)
A forgatásról (12:52)
Kimaradt jelenetek (7:00)
Előzetesek
Warner Home Video (27 film - 51:05)
Budapest Film (3 film - 4:38)
Jupiter Film (3 film - 9:04)


Média információ:
Video:
Kodek: MPEG-1/2 Video (mpgv)
Felbontás: 720x576
Képkockasebesség: 25
Hang:
Kodek: A52 Audio (aka AC3) (a52)
Csatornák: Sztereó
Mintavételi frekvencia: 48000 Hz
Bitsebesség: 192 kb/mp
Formátum: iso
Méret: 7,80 GB
Műsoridő: A: 1:37:32 B: 1:29:50 Összesen: 3:07:22
(prémium)
[HIDE-THANKS]
Kód:
https://data.hu/get/11443002/D0035i.part01.rar
https://data.hu/get/11443000/D0035i.part02.rar
https://data.hu/get/11443005/D0035i.part03.rar
https://data.hu/get/11443006/D0035i.part04.rar
https://data.hu/get/11443003/D0035i.part05.rar
https://data.hu/get/11442998/D0035i.part06.rar
https://data.hu/get/11443004/D0035i.part07.rar
https://data.hu/get/11442999/D0035i.part08.rar
[/HIDE-THANKS]
 

papadi

Állandó Tag
Állandó Tag


Get Carter - Az igazság fáj
(Get Carter)
Amerikai thriller (2000)
Főszereplők: Sylvester Stallone, Miranda Richardson, Rachael Leigh Cook, Rhona Mitra, Johnny Strong, John C. McGinley, Alan Cumming, Mickey Rourke, Michael Caine
Rendezte: Stephen T. Kay
Hang: magyar, angol
Felirat: magyar

A maffia erős embereként Las Vegasban tevékenykedő Jack Carter hosszú idő után visszatér szülővárosába, Seattle-be. A família azonban nem ünnepelni gyűlik össze: mindannyian Jack testvérének temetésére érkeznek. A szertartás alatt azonban Carternek gyanús sejtése támad: öccse nem baleset, hanem gyilkosság következtében vesztette életét. A családi kötelék és az alvilág mélyére ásva hősünk újabb nyomokra akad - és a tettek mezejére lép. hogy megbosszúlja a gyilkosságot. (a borítóról)

Extrák (a kétoldalas lemez B-oldaláról, eredetei hanggal):
Eredeti filmelőzetes (2:25)
A forgatásról (12:52)
Kimaradt jelenetek (7:00)



Formátum: dvdrip/avi
Méret: 1,60 GB
Felbontás: 720x304
Mintavételi frekvencia: 48000 Hz
Bitsebesség: 116 kbps
Műsoridő: 1:37:32 (1:59:49)
Részletes média információ:
I:\0000\1 - Get Carter.avi
General
Complete name : I:\0000\1 - Get Carter.avi
Format : AVI
Format/Info : Audio Video Interleave
File size : 1.27 GiB
Duration : 1 h 37 min
Overall bit rate mode : Variable
Overall bit rate : 1 861 kb/s
Writing application : VirtualDubMod 1.5.4.1 (build 2178/release)
Writing library : VirtualDubMod build 2178/release
Video #0
ID : 0
Format : MPEG-4 Visual
Format profile : Advanced [email protected]
Format settings, BVOP : No
Format settings, QPel : No
Format settings, GMC : No warppoints
Format settings, Matrix : Custom
Codec ID : XVID
Codec ID/Hint : XviD
Duration : 1 h 37 min
Bit rate : 1 608 kb/s
Width : 720 pixels
Height : 304 pixels
Display aspect ratio : 2.35:1
Frame rate : 25.000 FPS
Color space : YUV
Chroma subsampling : 4:2:0
Bit depth : 8 bits
Scan type : Progressive
Compression mode : Lossy
Bits/(Pixel*Frame) : 0.294
Stream size : 1.10 GiB (86%)
Writing library : XviD 1.2.1 (UTC 2008-12-04)
Audio #1
ID : 1
Format : MPEG Audio
Format version : Version 1
Format profile : Layer 3
Mode : Joint stereo
Mode extension : MS Stereo
Codec ID : 55
Codec ID/Hint : MP3
Duration : 1 h 37 min
Bit rate mode : Variable
Bit rate : 116 kb/s
Nominal bit rate : 128 kb/s
Channel(s) : 2 channels
Sampling rate : 48.0 kHz
Compression mode : Lossy
Stream size : 80.6 MiB (6%)
Alignment : Aligned on interleaves
Interleave, duration : 24 ms (0.60 video frame)
Interleave, preload duration : 535 ms
Writing library : LAME3.98r
Encoding settings : -m j -V 4 -q 2 -lowpass 17 --abr 128
Audio #2
ID : 2
Format : MPEG Audio
Format version : Version 1
Format profile : Layer 3
Mode : Joint stereo
Mode extension : MS Stereo
Codec ID : 55
Codec ID/Hint : MP3
Duration : 1 h 37 min
Bit rate mode : Variable
Bit rate : 116 kb/s
Nominal bit rate : 128 kb/s
Channel(s) : 2 channels
Sampling rate : 48.0 kHz
Compression mode : Lossy
Stream size : 80.9 MiB (6%)
Alignment : Aligned on interleaves
Interleave, duration : 24 ms (0.60 video frame)
Interleave, preload duration : 210 ms
Writing library : LAME3.98r
Encoding settings : -m j -V 4 -q 2 -lowpass 17 --abr 128
[HIDE-THANKS]
Kód:
https://data.hu/get/11442340/D0035a.part1.rar
https://data.hu/get/11442336/D0035a.part2.rar
[/HIDE-THANKS]
vagy free
[HIDE-THANKS]
Kód:
https://data.hu/get/11442333/D0035av.part01.rar
https://data.hu/get/11442339/D0035av.part02.rar
https://data.hu/get/11442337/D0035av.part03.rar
https://data.hu/get/11442334/D0035av.part04.rar
https://data.hu/get/11442335/D0035av.part05.rar
https://data.hu/get/11442330/D0035av.part06.rar
https://data.hu/get/11442332/D0035av.part07.rar
https://data.hu/get/11442338/D0035av.part08.rar
https://data.hu/get/11442331/D0035av.part09.rar
[/HIDE-THANKS]
 

papadi

Állandó Tag
Állandó Tag
és bónuszként a film eredetije:


Öld meg Cartert!
(Get Carter)
angol akcióthriller (1971)
Főszereplők: Michael Caine, Britt Ekland, Ian Hendry, John Osborne
Rendezte: Mike Hodges
Hang: magyar, angol
Felirat: magyar

Jack Carter elszánt. Jack Carter hajthatatlan és Jack Carter még türelmes is. Egészen addig, amíg fel nem idegesítik. Márpedig Newcastle-ben ez gyakran megesik. Nem mindenkinek tetszik ugyanis, hogy Carter ki akarja deríteni, mi is okozta bátyja halálát. Jobban örülnének, ha szépen elhúzná a csíkot. És ezt lépten-nyomon a tudtára is adják. Csakhogy Carternak más tervei vannak. Ki akarja deríteni az igazságot. Méghozzá bármi áron. És ebben senki sem akadályozhatja meg. Mert lehet, hogy az igazság keserű, de a bosszúnál nincs édesebb. (a borítóról)



Formátum: dvdrip/avi
Méret: 1,04 GB
Felbontás: 720x406
Mintavételi frekvencia: 48000 Hz
Bitsebesség: 128 kbps
Műsoridő: 1:51:42
Részletes média információ:
I:\0000\Öld meg Cartert! (1971).avi
General
Complete name : I:\0000\Öld meg Cartert! (1971).avi
Format : AVI
Format/Info : Audio Video Interleave
Format profile : OpenDML
File size : 1.04 GiB
Duration : 1 h 51 min
Overall bit rate : 1 337 kb/s
Movie name : Old.meg.Cartert.1971.HUN.ENG.CUSTOM.720p.BluRay.x264-PLAN9
Writing application : Lavf58.17.100
Video #0
ID : 0
Format : MPEG-4 Visual
Format profile : Advanced [email protected]
Format settings, BVOP : 3
Format settings, QPel : No
Format settings, GMC : No warppoints
Format settings, Matrix : Default (H.263)
Codec ID : DIVX
Codec ID/Info : Project Mayo
Codec ID/Hint : DivX 4
Duration : 1 h 51 min
Bit rate : 1 054 kb/s
Width : 720 pixels
Height : 406 pixels
Display aspect ratio : 16:9
Original display aspect ratio : 16:9
Frame rate : 23.976 FPS
Color space : YUV
Chroma subsampling : 4:2:0
Bit depth : 8 bits
Scan type : Interlaced
Original scan type : Progressive
Scan order : Bottom Field First
Compression mode : Lossy
Bits/(Pixel*Frame) : 0.150
Stream size : 842 MiB (79%)
Writing library : Lavc58.19.104
Audio #1
ID : 1
Format : MPEG Audio
Format version : Version 1
Format profile : Layer 3
Codec ID : 55
Codec ID/Hint : MP3
Duration : 1 h 51 min
Bit rate mode : Constant
Bit rate : 128 kb/s
Channel(s) : 1 channel
Sampling rate : 48.0 kHz
Compression mode : Lossy
Stream size : 102 MiB (10%)
Alignment : Aligned on interleaves
Interleave, duration : 24 ms (0.58 video frame)
Title : Magyar
Audio #2
ID : 2
Format : MPEG Audio
Format version : Version 1
Format profile : Layer 3
Codec ID : 55
Codec ID/Hint : MP3
Duration : 1 h 51 min
Bit rate mode : Constant
Bit rate : 128 kb/s
Channel(s) : 1 channel
Sampling rate : 48.0 kHz
Compression mode : Lossy
Stream size : 102 MiB (10%)
Alignment : Aligned on interleaves
Interleave, duration : 24 ms (0.58 video frame)
[HIDE-THANKS]
Kód:
https://data.hu/get/11443065/D3125a.part1.rar
https://data.hu/get/11443061/D3125a.part2.rar
[/HIDE-THANKS]
vagy free
[HIDE-THANKS]
Kód:
https://data.hu/get/11443066/D3125av.part1.rar
https://data.hu/get/11443063/D3125av.part2.rar
https://data.hu/get/11443062/D3125av.part3.rar
https://data.hu/get/11443059/D3125av.part4.rar
https://data.hu/get/11443064/D3125av.part5.rar
https://data.hu/get/11443060/D3125av.part6.rar
[/HIDE-THANKS]
Megjegyzés: nem saját rip, ismét köszönet érte.
 

papadi

Állandó Tag
Állandó Tag


Édes élet
(La dolce vita)
Olasz - francia fekete-fehér filmdráma (1960)
Főszereplők: Marcello Mastroianni, Anita Ekberg, Anouk Aiméen, Yvonne Furneaux
Rendezte: Federico Fellini
Computer Panoráma 2004/06
Hang: magyar, olasz
Felirat: magyar

Marcello valaha komoly írói ambíciókkal érkezett Rómába, ahol most egy bulvárlap munkatársa, a Via Venetóval jelképezett fényűző, hazug és cinikus társasági élet ismert figurája. S noha a hamis csillogású filmipar képviselőinek orgiáin, a letűnt arisztokrácia, az értéktávolságba került értelmiség, a szenzáció- és pénzhajhász tömegkommunikáció szánalmas vagy kegyetlen szertartásain egyaránt teljes erkölcsi és érzelmi kiüresedést tapasztal, végül mégis ennek a világnak adja el magát.

Média információ:

Video:
Kodek: MPEG-1/2 Video (mpgv)
Felbontás: 720x576
Képkockasebesség: 25

Hang:
Kodek: A52 Audio (aka AC3) (a52)
Csatornák: Sztereó
Mintavételi frekvencia: 48000 Hz
Bitsebesség: 192 kb/mp

Formátum: dvd
Méret: 6,03 GB
Műsoridő: 2:46:52
(prémium)
[HIDE-THANKS]
Kód:
https://data.hu/get/11449080/D0246d.part1.rar
https://data.hu/get/11449085/D0246d.part2.rar
https://data.hu/get/11449105/D0246d.part3.rar
https://data.hu/get/11449087/D0246d.part4.rar
https://data.hu/get/11449090/D0246d.part5.rar
https://data.hu/get/11449096/D0246d.part6.rar
[/HIDE-THANKS]



Formátum: dvdrip/avi
Méret: 1,62 GB
Felbontás: 720x386
Mintavételi frekvencia: 48000 Hz
Bitsebesség: 128 kbps
Műsoridő: 2:46:52
Részletes média információ:
J:\0246 - Édes élet\avi\Édes élet.avi
General
Complete name : J:\0246 - Édes élet\avi\Édes élet.avi
Format : AVI
Format/Info : Audio Video Interleave
File size : 1.63 GiB
Duration : 2 h 46 min
Overall bit rate : 1 395 kb/s
Writing application : VirtualDubMod 1.5.4.1 (build 2178/release)
Writing library : VirtualDubMod build 2178/release
Video #0
ID : 0
Format : MPEG-4 Visual
Format profile : Advanced [email protected]
Format settings, BVOP : 1
Format settings, QPel : No
Format settings, GMC : No warppoints
Format settings, Matrix : Custom
Codec ID : XVID
Codec ID/Hint : XviD
Duration : 2 h 46 min
Bit rate : 1 129 kb/s
Width : 720 pixels
Height : 336 pixels
Display aspect ratio : 2.143
Frame rate : 25.000 FPS
Color space : YUV
Chroma subsampling : 4:2:0
Bit depth : 8 bits
Scan type : Progressive
Compression mode : Lossy
Bits/(Pixel*Frame) : 0.187
Stream size : 1.32 GiB (81%)
Writing library : XviD 1.2.1 (UTC 2008-12-04)
Audio #1
ID : 1
Format : MPEG Audio
Format version : Version 1
Format profile : Layer 3
Mode : Joint stereo
Mode extension : MS Stereo
Codec ID : 55
Codec ID/Hint : MP3
Duration : 2 h 46 min
Bit rate mode : Constant
Bit rate : 128 kb/s
Channel(s) : 2 channels
Sampling rate : 48.0 kHz
Compression mode : Lossy
Stream size : 153 MiB (9%)
Alignment : Aligned on interleaves
Interleave, duration : 80 ms (2.00 video frames)
Interleave, preload duration : 504 ms
Writing library : LAME3.98r
Encoding settings : -m j -V 4 -q 2 -lowpass 17 -b 128
Audio #2
ID : 2
Format : MPEG Audio
Format version : Version 1
Format profile : Layer 3
Mode : Joint stereo
Mode extension : MS Stereo
Codec ID : 55
Codec ID/Hint : MP3
Duration : 2 h 46 min
Bit rate mode : Constant
Bit rate : 128 kb/s
Channel(s) : 2 channels
Sampling rate : 48.0 kHz
Compression mode : Lossy
Stream size : 153 MiB (9%)
Alignment : Aligned on interleaves
Interleave, duration : 80 ms (2.00 video frames)
Interleave, preload duration : 504 ms
Writing library : LAME3.98r
Encoding settings : -m j -V 4 -q 2 -lowpass 17 -b 128
[HIDE-THANKS]
Kód:
https://data.hu/get/11449099/D0246a.part1.rar
https://data.hu/get/11449067/D0246a.part2.rar
[/HIDE-THANKS]
vagy free
[HIDE-THANKS]
Kód:
https://data.hu/get/11449075/D0246av.part01.rar
https://data.hu/get/11449092/D0246av.part02.rar
https://data.hu/get/11449072/D0246av.part03.rar
https://data.hu/get/11449095/D0246av.part04.rar
https://data.hu/get/11449069/D0246av.part05.rar
https://data.hu/get/11449097/D0246av.part06.rar
https://data.hu/get/11449077/D0246av.part07.rar
https://data.hu/get/11449078/D0246av.part08.rar
https://data.hu/get/11449068/D0246av.part09.rar
[/HIDE-THANKS]
 

papadi

Állandó Tag
Állandó Tag


Félelem a város felett
(Peur sur la ville)
Francia - olasz krimi (1975)
Főszereplők: Jean-Paul Belmondo, Adalberto-Maria Merli, Charles Denner, Rosy Varte, Roland Dubillard, Jean Martin, Lea Massari
Rendezte: Henri Verneuil
COMSER, 2003 / Computer Panoráma 2005/01
Hang: magyar, francia
Felirat: magyar

Jean Letelier felügyelőnek sok dolga akad. Egyszerre két ügyben kell nyomoznia. Miközben azt keresi, ki lehet az a titokzatos őrült, aki a szexuális fertő elleni harc nevében a szó szoros értelmében halálra rémíti a nőket, megtudja, hogy hosszú évek rejtőzködése után ismét a városba érkezett Marcucci, a felügyelő régi ellenfele, akivel akad egy kis elszámolnivalója...

Extrák (magyar felirattal - csak a dvd-n):
Így készült a film (4:02)
Eredeti mozielőzetes (3:54)
Filmográfiák
Jean-Paul Belmondo
Henri Verneuil
Fotógaléria (1:14)
Előzetesek
Szárnyát vagy combját?
A nagy ábránd
Cartouche

Média információ:

Video:
Kodek: MPEG-1/2 Video (mpgv)
Felbontás: 720x576
Képkockasebesség: 25

Hang:
Kodek: A52 Audio (aka AC3) (a52)
Csatornák: Sztereó
Mintavételi frekvencia: 48000 Hz
Bitsebesség: 192 kb/mp

Formátum: iso
Méret: 7,90 GB
Műsoridő: 2:00:32 (2:20:53)
(prémium)
[HIDE-THANKS]
Kód:
https://data.hu/get/11449949/D0258i.part01.rar
https://data.hu/get/11449940/D0258i.part02.rar
https://data.hu/get/11449952/D0258i.part03.rar
https://data.hu/get/11449948/D0258i.part04.rar
https://data.hu/get/11449941/D0258i.part05.rar
https://data.hu/get/11449947/D0258i.part06.rar
https://data.hu/get/11449950/D0258i.part07.rar
https://data.hu/get/11449944/D0258i.part08.rar
[/HIDE-THANKS]



Formátum: dvdrip/avi
Méret: 1,17 GB
Felbontás: 720x448
Mintavételi frekvencia: 48000 Hz
Bitsebesség: 128 kbps
Műsoridő: 2:00:32
Részletes média információ:
J:\0396 - Félelem a város felett (CP)\avi\Félelem a város felett.avi
General
Complete name : J:\0396 - Félelem a város felett (CP)\avi\Félelem a város felett.avi
Format : AVI
Format/Info : Audio Video Interleave
File size : 1.17 GiB
Duration : 2 h 0 min
Overall bit rate : 1 396 kb/s
Writing application : VirtualDubMod 1.5.4.1 (build 2178/release)
Writing library : VirtualDubMod build 2178/release
Video #0
ID : 0
Format : MPEG-4 Visual
Format profile : Advanced [email protected]
Format settings, BVOP : 1
Format settings, QPel : No
Format settings, GMC : No warppoints
Format settings, Matrix : Custom
Codec ID : XVID
Codec ID/Hint : XviD
Duration : 2 h 0 min
Bit rate : 1 130 kb/s
Width : 720 pixels
Height : 448 pixels
Display aspect ratio : 16:10
Frame rate : 25.000 FPS
Color space : YUV
Chroma subsampling : 4:2:0
Bit depth : 8 bits
Scan type : Progressive
Compression mode : Lossy
Bits/(Pixel*Frame) : 0.140
Stream size : 974 MiB (81%)
Writing library : XviD 1.2.1 (UTC 2008-12-04)
Audio #1
ID : 1
Format : MPEG Audio
Format version : Version 1
Format profile : Layer 3
Mode : Joint stereo
Mode extension : MS Stereo
Codec ID : 55
Codec ID/Hint : MP3
Duration : 2 h 0 min
Bit rate mode : Constant
Bit rate : 128 kb/s
Channel(s) : 2 channels
Sampling rate : 48.0 kHz
Compression mode : Lossy
Stream size : 110 MiB (9%)
Alignment : Aligned on interleaves
Interleave, duration : 80 ms (2.00 video frames)
Interleave, preload duration : 504 ms
Writing library : LAME3.98r
Encoding settings : -m j -V 4 -q 2 -lowpass 17 -b 128
Audio #2
ID : 2
Format : MPEG Audio
Format version : Version 1
Format profile : Layer 3
Mode : Joint stereo
Mode extension : MS Stereo
Codec ID : 55
Codec ID/Hint : MP3
Duration : 2 h 0 min
Bit rate mode : Constant
Bit rate : 128 kb/s
Channel(s) : 2 channels
Sampling rate : 48.0 kHz
Compression mode : Lossy
Stream size : 110 MiB (9%)
Alignment : Aligned on interleaves
Interleave, duration : 80 ms (2.00 video frames)
Interleave, preload duration : 504 ms
Writing library : LAME3.98r
Encoding settings : -m j -V 4 -q 2 -lowpass 17 -b 128
[HIDE-THANKS]
Kód:
https://data.hu/get/11449946/D0396a.part1.rar
https://data.hu/get/11449942/D0396a.part2.rar
[/HIDE-THANKS]
vagy free
[HIDE-THANKS]
Kód:
https://data.hu/get/11449943/D0396av.part1.rar
https://data.hu/get/11449945/D0396av.part2.rar
https://data.hu/get/11449936/D0396av.part3.rar
https://data.hu/get/11449939/D0396av.part4.rar
https://data.hu/get/11449951/D0396av.part5.rar
https://data.hu/get/11449937/D0396av.part6.rar
https://data.hu/get/11449938/D0396av.part7.rar
[/HIDE-THANKS]
 

papadi

Állandó Tag
Állandó Tag


Egy bűntény
(Un crime)
Francia bűnügyi film (1993)
Főszereplők: Alain Delon, Manuel Blanc, Sophie Broustal, Francine Bergé, Maxime Leroux
Rendezte: Jacques Deray
Computer Panoráma 2004/07
Hang: magyar, francia
Felirat: magyar

Charles Dunand védőügyvéd (Alain Delon) még sosem veszített pert. Most is felmentette a bíróság brutális kettős gyilkossággal vádolt védencét, Frédéric Chapelin-Tourvelt (Manuel Blanc), pedig minden bizonyíték ellene szólt. Az ügyvédet, aki egészen az ítélet kihirdetéséig szilárdan hitt védence ártatlanságában, a tárgyalás után szörnyű kétségek kezdik gyötörni. Még aznap éjszaka találkozik a fiúval. És egyetlen éjszaka alatt megoldódik a rejtély...

Média információ:

Video:
Kodek: MPEG-1/2 Video (mpgv)
Felbontás: 720x576
Képkockasebesség: 25

Hang:
Kodek: A52 Audio (aka AC3) (a52)
Csatornák: Sztereó
Mintavételi frekvencia: 48000 Hz
Bitsebesség: 192 kb/mp

Formátum: dvd
Méret: 3,84 GB
Műsoridő: 1:23:05
(prémium)
[HIDE-THANKS]
Kód:
https://data.hu/get/11450532/D0266d.part1.rar
https://data.hu/get/11450536/D0266d.part2.rar
https://data.hu/get/11450542/D0266d.part3.rar
https://data.hu/get/11450541/D0266d.part4.rar
[/HIDE-THANKS]



Formátum: dvdrip/avi
Méret: 832 MB
Felbontás: 720x400
Mintavételi frekvencia: 48000 Hz
Bitsebesség: 128 kbps
Műsoridő: 1:23:05
Részletes média információ:
J:\0266 - Egy büntény\avi\Egy büntény.avi
General
Complete name : J:\0266 - Egy büntény\avi\Egy büntény.avi
Format : AVI
Format/Info : Audio Video Interleave
File size : 831 MiB
Duration : 1 h 23 min
Overall bit rate : 1 398 kb/s
Writing application : VirtualDubMod 1.5.4.1 (build 2178/release)
Writing library : VirtualDubMod build 2178/release
Video #0
ID : 0
Format : MPEG-4 Visual
Format profile : Advanced [email protected]
Format settings, BVOP : 1
Format settings, QPel : No
Format settings, GMC : No warppoints
Format settings, Matrix : Custom
Codec ID : XVID
Codec ID/Hint : XviD
Duration : 1 h 23 min
Bit rate : 1 132 kb/s
Width : 720 pixels
Height : 400 pixels
Display aspect ratio : 16:9
Frame rate : 25.000 FPS
Color space : YUV
Chroma subsampling : 4:2:0
Bit depth : 8 bits
Scan type : Progressive
Compression mode : Lossy
Bits/(Pixel*Frame) : 0.157
Stream size : 673 MiB (81%)
Writing library : XviD 1.2.1 (UTC 2008-12-04)
Audio #1
ID : 1
Format : MPEG Audio
Format version : Version 1
Format profile : Layer 3
Mode : Joint stereo
Mode extension : MS Stereo
Codec ID : 55
Codec ID/Hint : MP3
Duration : 1 h 23 min
Bit rate mode : Constant
Bit rate : 128 kb/s
Channel(s) : 2 channels
Sampling rate : 48.0 kHz
Compression mode : Lossy
Stream size : 76.1 MiB (9%)
Alignment : Aligned on interleaves
Interleave, duration : 80 ms (2.00 video frames)
Interleave, preload duration : 504 ms
Writing library : LAME3.98r
Encoding settings : -m j -V 4 -q 2 -lowpass 17 -b 128
Audio #2
ID : 2
Format : MPEG Audio
Format version : Version 1
Format profile : Layer 3
Mode : Joint stereo
Mode extension : MS Stereo
Codec ID : 55
Codec ID/Hint : MP3
Duration : 1 h 23 min
Bit rate mode : Constant
Bit rate : 128 kb/s
Channel(s) : 2 channels
Sampling rate : 48.0 kHz
Compression mode : Lossy
Stream size : 76.1 MiB (9%)
Alignment : Aligned on interleaves
Interleave, duration : 80 ms (2.00 video frames)
Interleave, preload duration : 504 ms
Writing library : LAME3.98r
Encoding settings : -m j -V 4 -q 2 -lowpass 17 -b 128
[HIDE-THANKS]
Kód:
https://data.hu/get/11450540/D0266a.rar
[/HIDE-THANKS]
vagy free
[HIDE-THANKS]
Kód:
https://data.hu/get/11450535/D0266av.part1.rar
https://data.hu/get/11450533/D0266av.part2.rar
https://data.hu/get/11450534/D0266av.part3.rar
https://data.hu/get/11450537/D0266av.part4.rar
https://data.hu/get/11450538/D0266av.part5.rar
[/HIDE-THANKS]
 

papadi

Állandó Tag
Állandó Tag


Szárnyát vagy combját?
(L'aile ou la cuisse)
Francia vígjáték (1976)
Főszereplők: Louis de Funes, Coluche, Ann Zacharias, Julien Guiomar, Claude Gensac, Georges Chamarat, Jean Martin, Raymond Bussiéres, Philippe Bouvard, Marcel Dalio, Vittorio Caprioli
Rendezte: Claude Zidi
Computer Panoráma 2004/08
Hang: magyar, francia
Felirat: magyar

Charles Duchemin 60 éves korában ér el karrierje csúcsára. A kitűnő éttermi kritikust tagjai közé fogadja a Francia Akadémia, a kiváló intellektusok legendás köre, megjelenésre vár legújabb éttermi kalauza, tehát az élet gyönyörű. Pontosabban gyönyörű lehetne, ha nem áskálódna folyton-folyvást Duchemin legádázabb ellensége, Trigatel, aki mindent megtenne azért, hogy megszabaduljon vetélytársától, és újabb éttermek tucatjait csatlakoztassa gyorsétkeztető birodalmához. Ducheminnek ebben a helyzetben égető szüksége van a fia segítségére. Az ifjú Gérard-nak, aki titokban bohócként lép fel a társaival alakított vándorcirkuszban, válságos pillanatban kell helyettesítenie az apját. A Trigatellel folytatandó televíziós vitaműsor előtt ugyanis Charles Duchemin ételmérgezést kap, így fiának kell helyettesíteni őt.

Média információ:

Video:
Kodek: MPEG-1/2 Video (mpgv)
Felbontás: 720x576
Képkockasebesség: 25

Hang:
Kodek: A52 Audio (aka AC3) (a52)
Csatornák: Sztereó
Mintavételi frekvencia: 48000 Hz
Bitsebesség: 192 kb/mp

Formátum:dvd
Méret: 4,68 GB
Műsoridő: 1:40:37
(prémium)
[HIDE-THANKS]
Kód:
https://data.hu/get/11451022/D0281d.part1.rar
https://data.hu/get/11451031/D0281d.part2.rar
https://data.hu/get/11451028/D0281d.part3.rar
https://data.hu/get/11451036/D0281d.part4.rar
https://data.hu/get/11451023/D0281d.part5.rar
[/HIDE-THANKS]



Formátum: dvdrip/avi
Méret: 0,98 GB
Felbontás: 720x512
Mintavételi frekvencia: 48000 Hz
Bitsebesség: 128 kbps
Műsoridő: 1:40:37
Részletes média információ:
J:\0281 - Szárnyát vagy combját\avi\Szárnyát vagy combját.avi
General
Complete name : J:\0281 - Szárnyát vagy combját\avi\Szárnyát vagy combját.avi
Format : AVI
Format/Info : Audio Video Interleave
File size : 1 005 MiB
Duration : 1 h 40 min
Overall bit rate : 1 397 kb/s
Writing application : VirtualDubMod 1.5.4.1 (build 2178/release)
Writing library : VirtualDubMod build 2178/release
Video #0
ID : 0
Format : MPEG-4 Visual
Format profile : Advanced [email protected]
Format settings, BVOP : 1
Format settings, QPel : No
Format settings, GMC : No warppoints
Format settings, Matrix : Custom
Codec ID : XVID
Codec ID/Hint : XviD
Duration : 1 h 40 min
Bit rate : 1 131 kb/s
Width : 720 pixels
Height : 320 pixels
Display aspect ratio : 2.25:1
Frame rate : 25.000 FPS
Color space : YUV
Chroma subsampling : 4:2:0
Bit depth : 8 bits
Scan type : Progressive
Compression mode : Lossy
Bits/(Pixel*Frame) : 0.196
Stream size : 814 MiB (81%)
Writing library : XviD 1.2.1 (UTC 2008-12-04)
Audio #1
ID : 1
Format : MPEG Audio
Format version : Version 1
Format profile : Layer 3
Mode : Joint stereo
Mode extension : MS Stereo
Codec ID : 55
Codec ID/Hint : MP3
Duration : 1 h 40 min
Bit rate mode : Constant
Bit rate : 128 kb/s
Channel(s) : 2 channels
Sampling rate : 48.0 kHz
Compression mode : Lossy
Stream size : 92.1 MiB (9%)
Alignment : Aligned on interleaves
Interleave, duration : 80 ms (2.00 video frames)
Interleave, preload duration : 504 ms
Writing library : LAME3.98r
Encoding settings : -m j -V 4 -q 2 -lowpass 17 -b 128
Audio #2
ID : 2
Format : MPEG Audio
Format version : Version 1
Format profile : Layer 3
Mode : Joint stereo
Mode extension : MS Stereo
Codec ID : 55
Codec ID/Hint : MP3
Duration : 1 h 40 min
Bit rate mode : Constant
Bit rate : 128 kb/s
Channel(s) : 2 channels
Sampling rate : 48.0 kHz
Compression mode : Lossy
Stream size : 92.1 MiB (9%)
Alignment : Aligned on interleaves
Interleave, duration : 80 ms (2.00 video frames)
Interleave, preload duration : 504 ms
Writing library : LAME3.98r
Encoding settings : -m j -V 4 -q 2 -lowpass 17 -b 128
[HIDE-THANKS]
Kód:
https://data.hu/get/11451025/D0281a.part1.rar
https://data.hu/get/11451024/D0281a.part2.rar
[/HIDE-THANKS]
vagy free
[HIDE-THANKS]
Kód:
https://data.hu/get/11451034/D0281av.part1.rar
https://data.hu/get/11451033/D0281av.part2.rar
https://data.hu/get/11451029/D0281av.part3.rar
https://data.hu/get/11451020/D0281av.part4.rar
https://data.hu/get/11451021/D0281av.part5.rar
https://data.hu/get/11451032/D0281av.part6.rar
[/HIDE-THANKS]
 

papadi

Állandó Tag
Állandó Tag


Zsarolók városa
(Keys to Tulsa)
Amerikai krimi (1997)
Főszereplők: Cameron Diaz, Deborah Kara Unger, Eric Stoltz, James Coburn, James Spader, Joanna Going, Mary Tyler Moore, Michael Rooker
Rendezte: Leslie Greif
Computer Panoráma 2004/09
Hang: magyar, angol
Felirat: magyar

Richter Boudreau egy igazi balek. Nem éppen anyja kedvence, mivel az utált és réges régen távozó apára emlékezteti. A nőkkel nincs sikere, legnagyobb szerelme is a legjobb barátjához megy férjhez. Nincs egy árva vasa sem, és most zsarolási ügybe is keveredik, amelynek hátterében ráadásul egy titokzatos kéjgyilkosság áll...

Média információ:

Video:
Kodek: MPEG-1/2 Video (mpgv)
Felbontás: 720x576
Képkockasebesség: 25

Hang:
Kodek: A52 Audio (aka AC3) (a52)
Csatornák: Sztereó
Mintavételi frekvencia: 48000 Hz
Bitsebesség: 192 kb/mp

Formátum: dvd
Méret: 5,97 GB
Műsoridő: 1:49:06
(prémium)
[HIDE-THANKS]
Kód:
https://data.hu/get/11451320/D0294d.part1.rar
https://data.hu/get/11451330/D0294d.part2.rar
https://data.hu/get/11451332/D0294d.part3.rar
https://data.hu/get/11451328/D0294d.part4.rar
https://data.hu/get/11451322/D0294d.part5.rar
https://data.hu/get/11451324/D0294d.part6.rar
[/HIDE-THANKS]



Formátum: dvdrip/avi
Méret: 1,06 GB
Felbontás: 720x416
Mintavételi frekvencia: 48000 Hz
Bitsebesség: 128 kbps
Műsoridő: 1:49:06
Részletes média információ:
J:\0294 - Zsarolók városa\avi\Zsarolók városa.avi
General
Complete name : J:\0294 - Zsarolók városa\avi\Zsarolók városa.avi
Format : AVI
Format/Info : Audio Video Interleave
File size : 1.07 GiB
Duration : 1 h 49 min
Overall bit rate : 1 398 kb/s
Writing application : VirtualDubMod 1.5.4.1 (build 2178/release)
Writing library : VirtualDubMod build 2178/release
Video #0
ID : 0
Format : MPEG-4 Visual
Format profile : Advanced [email protected]
Format settings, BVOP : 1
Format settings, QPel : No
Format settings, GMC : No warppoints
Format settings, Matrix : Custom
Codec ID : XVID
Codec ID/Hint : XviD
Duration : 1 h 49 min
Bit rate : 1 002 kb/s
Width : 720 pixels
Height : 416 pixels
Display aspect ratio : 1.731
Frame rate : 25.000 FPS
Color space : YUV
Chroma subsampling : 4:2:0
Bit depth : 8 bits
Scan type : Progressive
Compression mode : Lossy
Bits/(Pixel*Frame) : 0.134
Stream size : 782 MiB (72%)
Writing library : XviD 1.2.1 (UTC 2008-12-04)
Audio #1
ID : 1
Format : MPEG Audio
Format version : Version 1
Format profile : Layer 3
Mode : Joint stereo
Mode extension : MS Stereo
Codec ID : 55
Codec ID/Hint : MP3
Duration : 1 h 49 min
Bit rate mode : Constant
Bit rate : 128 kb/s
Channel(s) : 2 channels
Sampling rate : 48.0 kHz
Compression mode : Lossy
Stream size : 99.9 MiB (9%)
Alignment : Aligned on interleaves
Interleave, duration : 80 ms (2.00 video frames)
Interleave, preload duration : 504 ms
Writing library : LAME3.98r
Encoding settings : -m j -V 4 -q 2 -lowpass 17 -b 128
Audio #2
ID : 2
Format : MPEG Audio
Format version : Version 1
Format profile : Layer 3
Mode : Joint stereo
Codec ID : 55
Codec ID/Hint : MP3
Duration : 1 h 49 min
Bit rate mode : Constant
Bit rate : 128 kb/s
Channel(s) : 2 channels
Sampling rate : 48.0 kHz
Compression mode : Lossy
Stream size : 99.9 MiB (9%)
Alignment : Aligned on interleaves
Interleave, duration : 80 ms (2.00 video frames)
Interleave, preload duration : 504 ms
Writing library : LAME3.98r
Encoding settings : -m j -V 4 -q 2 -lowpass 17 -b 128
Audio #3
ID : 3
Format : MPEG Audio
Format version : Version 1
Format profile : Layer 3
Mode : Joint stereo
Mode extension : MS Stereo
Codec ID : 55
Codec ID/Hint : MP3
Duration : 1 h 49 min
Bit rate mode : Constant
Bit rate : 128 kb/s
Channel(s) : 2 channels
Sampling rate : 48.0 kHz
Compression mode : Lossy
Stream size : 99.9 MiB (9%)
Alignment : Aligned on interleaves
Interleave, duration : 80 ms (2.00 video frames)
Interleave, preload duration : 504 ms
Writing library : LAME3.98r
Encoding settings : -m j -V 4 -q 2 -lowpass 17 -b 128
[HIDE-THANKS]
Kód:
https://data.hu/get/11451323/D0294a.part1.rar
https://data.hu/get/11451331/D0294a.part2.rar
[/HIDE-THANKS]
vagy free
[HIDE-THANKS]
Kód:
https://data.hu/get/11451319/D0294av.part1.rar
https://data.hu/get/11451329/D0294av.part2.rar
https://data.hu/get/11451325/D0294av.part3.rar
https://data.hu/get/11451326/D0294av.part4.rar
https://data.hu/get/11451327/D0294av.part5.rar
https://data.hu/get/11451321/D0294av.part6.rar
[/HIDE-THANKS]
 

papadi

Állandó Tag
Állandó Tag


A negyedik záradék
(The Fourth Protocol)
Angol thriller (1987)
Főszereplők: Michael Caine, Pierce Brosnan, Ned Beatty, Joanna Cassidy, Julian Glover
Rendezte: John Mackenzie
Computer Panoráma 2004/10
Hang: magyar, angol
Felirat: magyar, angol (utóbbi csak a dvd-n)

1968 júliusában a Szovjetunió és az Egyesült Államok szerződést kötöttek arról, hogy megállítják a nukleáris fegyverek használatának terjedését. A nagyhatalmak négy titkos záradékot is fűztek az okmányhoz, melyek közül a legtitkosabb és legveszélyesebb az utolsó. Közben Moszkvában a KGB irányítója, Govershin tábornok Auróra néven tervet dolgoz ki az utolsó cikkely megszegésére és a titkos fegyverek összeállítására. Az akcióról tudomást szerez a másik oldal is, és Angliában John Prestont, a neves kémelhárítót állítják rá az ügyre...

Média információ:

Video:
Kodek: MPEG-1/2 Video (mpgv)
Felbontás: 720x576
Képkockasebesség: 25

Hang:
Kodek: A52 Audio (aka AC3) (a52)
Csatornák: Sztereó
Mintavételi frekvencia: 48000 Hz
Bitsebesség: 192 kb/mp

Formátum: dvd
Méret: 5,87 GB
Műsoridő: 1:54:11
(prémium)
[HIDE-THANKS]
Kód:
https://data.hu/get/11451470/D0307d.part1.rar
https://data.hu/get/11451467/D0307d.part2.rar
https://data.hu/get/11451469/D0307d.part3.rar
https://data.hu/get/11451466/D0307d.part4.rar
https://data.hu/get/11451464/D0307d.part5.rar
https://data.hu/get/11451460/D0307d.part6.rar
[/HIDE-THANKS]



Formátum: dvdrip/avi
Méret: 1,11 GB
Felbontás: 720x304
Mintavételi frekvencia: 48000 Hz
Bitsebesség: 128 kbps
Műsoridő: 1:54:11
Részletes média információ:
J:\0307 - A negyedik záradék\avi\A negyedik záradék.avi
General
Complete name : J:\0307 - A negyedik záradék\avi\A negyedik záradék.avi
Format : AVI
Format/Info : Audio Video Interleave
File size : 1.12 GiB
Duration : 1 h 54 min
Overall bit rate : 1 399 kb/s
Writing application : VirtualDubMod 1.5.4.1 (build 2178/release)
Writing library : VirtualDubMod build 2178/release
Video #0
ID : 0
Format : MPEG-4 Visual
Format profile : Advanced [email protected]
Format settings, BVOP : 1
Format settings, QPel : No
Format settings, GMC : No warppoints
Format settings, Matrix : Custom
Codec ID : XVID
Codec ID/Hint : XviD
Duration : 1 h 54 min
Bit rate : 1 133 kb/s
Width : 720 pixels
Height : 304 pixels
Display aspect ratio : 2.35:1
Frame rate : 25.000 FPS
Color space : YUV
Chroma subsampling : 4:2:0
Bit depth : 8 bits
Scan type : Progressive
Compression mode : Lossy
Bits/(Pixel*Frame) : 0.207
Stream size : 925 MiB (81%)
Writing library : XviD 1.2.1 (UTC 2008-12-04)
Audio #1
ID : 1
Format : MPEG Audio
Format version : Version 1
Format profile : Layer 3
Mode : Joint stereo
Mode extension : MS Stereo
Codec ID : 55
Codec ID/Hint : MP3
Duration : 1 h 54 min
Bit rate mode : Constant
Bit rate : 128 kb/s
Channel(s) : 2 channels
Sampling rate : 48.0 kHz
Compression mode : Lossy
Stream size : 105 MiB (9%)
Alignment : Aligned on interleaves
Interleave, duration : 80 ms (2.00 video frames)
Interleave, preload duration : 504 ms
Writing library : LAME3.98r
Encoding settings : -m j -V 4 -q 2 -lowpass 17 -b 128
Audio #2
ID : 2
Format : MPEG Audio
Format version : Version 1
Format profile : Layer 3
Mode : Joint stereo
Mode extension : MS Stereo
Codec ID : 55
Codec ID/Hint : MP3
Duration : 1 h 54 min
Bit rate mode : Constant
Bit rate : 128 kb/s
Channel(s) : 2 channels
Sampling rate : 48.0 kHz
Compression mode : Lossy
Stream size : 105 MiB (9%)
Alignment : Aligned on interleaves
Interleave, duration : 80 ms (2.00 video frames)
Interleave, preload duration : 504 ms
Writing library : LAME3.98r
Encoding settings : -m j -V 4 -q 2 -lowpass 17 -b 128
[HIDE-THANKS]
Kód:
https://data.hu/get/11451473/D0307a.part1.rar
https://data.hu/get/11451461/D0307a.part2.rar
[/HIDE-THANKS]
vagy free
[HIDE-THANKS]
Kód:
https://data.hu/get/11451472/D0307av.part1.rar
https://data.hu/get/11451468/D0307av.part2.rar
https://data.hu/get/11451474/D0307av.part3.rar
https://data.hu/get/11451471/D0307av.part4.rar
https://data.hu/get/11451462/D0307av.part5.rar
https://data.hu/get/11451463/D0307av.part6.rar
[/HIDE-THANKS]
 

papadi

Állandó Tag
Állandó Tag


Bőség
(Plenty)
Angol - amerikai dráma (1985)
Főszereplők: Meryl Streep, Tracey Ullman, Sting, Sam Neill, John Gielgud, Charles Dance, Ian McKellen
Rendezte: Fred Schepisi
Computer Panoráma 2004/11
Hang: magyar, angol
Felirat: magyar

Susan Traherne (Mery Streep), a fiatal angol nő Franciaországban él a II. világháború idején. Részt vesz az ellenállásban, élete állandó veszélyben forog, hiszen angol ejtőernyősöket kell eligazítania a francia határvidéken. A háború végezetével azonban már nincsenek ellenségek, csak nagy és be nem váltott ígéretek. Saját tehetetlensége folytán Susan állandóan újabb feladatokba és szerelmi ügyekbe bonyolódik.

Média információ:

Video:
Kodek: MPEG-1/2 Video (mpgv)
Felbontás: 720x576
Képkockasebesség: 25

Hang:
Kodek: A52 Audio (aka AC3) (a52)
Csatornák: Sztereó
Mintavételi frekvencia: 48000 Hz
Bitsebesség: 192 kb/mp

Formátum: dvd
Méret: 5,20 GB
Műsoridő: 1:59:23
(prémium)
[HIDE-THANKS]
Kód:
https://data.hu/get/11451837/D0339d.part1.rar
https://data.hu/get/11451830/D0339d.part2.rar
https://data.hu/get/11451823/D0339d.part3.rar
https://data.hu/get/11451825/D0339d.part4.rar
https://data.hu/get/11451827/D0339d.part5.rar
https://data.hu/get/11451836/D0339d.part6.rar
[/HIDE-THANKS]



Formátum: dvdrip/avi
Méret: 1,16 GB
Felbontás: 720x304
Mintavételi frekvencia: 48000 Hz
Bitsebesség: 128 kbps
Műsoridő: 1:59:23
Részletes média információ:
J:\0339 - Böség\avi\Böség.avi
General
Complete name : J:\0339 - Böség\avi\Böség.avi
Format : AVI
Format/Info : Audio Video Interleave
File size : 1.17 GiB
Duration : 1 h 59 min
Overall bit rate : 1 400 kb/s
Writing application : VirtualDubMod 1.5.4.1 (build 2178/release)
Writing library : VirtualDubMod build 2178/release
Video #0
ID : 0
Format : MPEG-4 Visual
Format profile : Advanced [email protected]
Format settings, BVOP : No
Format settings, QPel : No
Format settings, GMC : No warppoints
Format settings, Matrix : Custom
Codec ID : XVID
Codec ID/Hint : XviD
Duration : 1 h 59 min
Bit rate : 1 134 kb/s
Width : 720 pixels
Height : 304 pixels
Display aspect ratio : 2.35:1
Frame rate : 25.000 FPS
Color space : YUV
Chroma subsampling : 4:2:0
Bit depth : 8 bits
Scan type : Progressive
Compression mode : Lossy
Bits/(Pixel*Frame) : 0.207
Stream size : 968 MiB (81%)
Writing library : XviD 1.2.1 (UTC 2008-12-04)
Audio #1
ID : 1
Format : MPEG Audio
Format version : Version 1
Format profile : Layer 3
Mode : Joint stereo
Codec ID : 55
Codec ID/Hint : MP3
Duration : 1 h 59 min
Bit rate mode : Constant
Bit rate : 128 kb/s
Channel(s) : 2 channels
Sampling rate : 48.0 kHz
Compression mode : Lossy
Stream size : 109 MiB (9%)
Alignment : Aligned on interleaves
Interleave, duration : 80 ms (2.00 video frames)
Interleave, preload duration : 504 ms
Writing library : LAME3.98r
Encoding settings : -m j -V 4 -q 2 -lowpass 17 -b 128
Audio #2
ID : 2
Format : MPEG Audio
Format version : Version 1
Format profile : Layer 3
Mode : Joint stereo
Mode extension : MS Stereo
Codec ID : 55
Codec ID/Hint : MP3
Duration : 1 h 59 min
Bit rate mode : Constant
Bit rate : 128 kb/s
Channel(s) : 2 channels
Sampling rate : 48.0 kHz
Compression mode : Lossy
Stream size : 109 MiB (9%)
Alignment : Aligned on interleaves
Interleave, duration : 80 ms (2.00 video frames)
Interleave, preload duration : 504 ms
Writing library : LAME3.98r
Encoding settings : -m j -V 4 -q 2 -lowpass 17 -b 128
[HIDE-THANKS]
Kód:
https://data.hu/get/11451833/D0339a.part1.rar
https://data.hu/get/11451839/D0339a.part2.rar
[/HIDE-THANKS]
vagy free
[HIDE-THANKS]
Kód:
https://data.hu/get/11451832/D0339av.part1.rar
https://data.hu/get/11451828/D0339av.part2.rar
https://data.hu/get/11451829/D0339av.part3.rar
https://data.hu/get/11451834/D0339av.part4.rar
https://data.hu/get/11451824/D0339av.part5.rar
https://data.hu/get/11451835/D0339av.part6.rar
https://data.hu/get/11451831/D0339av.part7.rar
[/HIDE-THANKS]
 

papadi

Állandó Tag
Állandó Tag


Monte Cristo grófja (Gróf Monte Cristo)
(The Count of Monte-Cristo)
Angol - olasz kalandfilm (1975)
Főszereplők: Richard Chamberlain, Trevor Howard, Louis Jourdan, Donald Pleasence, Tony Curtis, Kate Nelligan, Taryn Power
Rendezte: David Greene
Computer Panoráma 2004/12
Hang: magyar, angol
Felirat: magyar

Edmond Dantes egyszerű, tudatlan tengerész, aki egy véletlen folytán egy összeesküvés közvetett szereplőjévé válik. Legjobb barátja, Fernand Mondego azonban feladja a hatóságoknak, akik If börtönszigetére száműzik Dantes-t. A szigeten találkozik a hasonló sirsú szerzetessel, aki pártfogásába veszi az ifjút, és megtanítja írni, olvasni, párbajozni. Együtt készítik elő a szökést, amelyet azonban a szerzetes már nem él meg. Dantes kisebb kaland kíséretében végül hazajut, ahol szövevényes bosszút készít elő az időközben egykori kedvesét feleségül vevő Mondego ellen.

Média információ:

Video:
Kodek: MPEG-1/2 Video (mpgv)
Felbontás: 720x576
Képkockasebesség: 25

Hang:
Kodek: A52 Audio (aka AC3) (a52)
Csatornák: Sztereó
Mintavételi frekvencia: 48000 Hz
Bitsebesség: 192 kb/mp

Formátum: dvd
Méret: 4,04 GB
Műsoridő: 1:37:36
(prémium)
[HIDE-THANKS]
Kód:
https://data.hu/get/11452277/D0360d.part1.rar
https://data.hu/get/11452276/D0360d.part2.rar
https://data.hu/get/11452271/D0360d.part3.rar
https://data.hu/get/11452269/D0360d.part4.rar
https://data.hu/get/11452275/D0360d.part5.rar
[/HIDE-THANKS]



Formátum: dvdrip/avi
Méret: 977 MB
Felbontás: 720x416
Mintavételi frekvencia: 48000 Hz
Bitsebesség: 128 kbps
Műsoridő: 1:37:36
Részletes média információ:
J:\0360 - Monte Cristo grófja\avi\Monte Cristo grófja.avi
General
Complete name : J:\0360 - Monte Cristo grófja\avi\Monte Cristo grófja.avi
Format : AVI
Format/Info : Audio Video Interleave
File size : 975 MiB
Duration : 1 h 37 min
Overall bit rate : 1 397 kb/s
Writing application : VirtualDubMod 1.5.4.1 (build 2178/release)
Writing library : VirtualDubMod build 2178/release
Video #0
ID : 0
Format : MPEG-4 Visual
Format profile : Advanced [email protected]
Format settings, BVOP : 1
Format settings, QPel : No
Format settings, GMC : No warppoints
Format settings, Matrix : Custom
Codec ID : XVID
Codec ID/Hint : XviD
Duration : 1 h 37 min
Bit rate : 1 131 kb/s
Width : 720 pixels
Height : 416 pixels
Display aspect ratio : 1.731
Frame rate : 25.000 FPS
Color space : YUV
Chroma subsampling : 4:2:0
Bit depth : 8 bits
Scan type : Progressive
Compression mode : Lossy
Bits/(Pixel*Frame) : 0.151
Stream size : 790 MiB (81%)
Writing library : XviD 1.2.1 (UTC 2008-12-04)
Audio #1
ID : 1
Format : MPEG Audio
Format version : Version 1
Format profile : Layer 3
Mode : Joint stereo
Mode extension : MS Stereo
Codec ID : 55
Codec ID/Hint : MP3
Duration : 1 h 37 min
Bit rate mode : Constant
Bit rate : 128 kb/s
Channel(s) : 2 channels
Sampling rate : 48.0 kHz
Compression mode : Lossy
Stream size : 89.4 MiB (9%)
Alignment : Aligned on interleaves
Interleave, duration : 80 ms (2.00 video frames)
Interleave, preload duration : 504 ms
Writing library : LAME3.98r
Encoding settings : -m j -V 4 -q 2 -lowpass 17 -b 128
Audio #2
ID : 2
Format : MPEG Audio
Format version : Version 1
Format profile : Layer 3
Mode : Joint stereo
Mode extension : MS Stereo
Codec ID : 55
Codec ID/Hint : MP3
Duration : 1 h 37 min
Bit rate mode : Constant
Bit rate : 128 kb/s
Channel(s) : 2 channels
Sampling rate : 48.0 kHz
Compression mode : Lossy
Stream size : 89.4 MiB (9%)
Alignment : Aligned on interleaves
Interleave, duration : 80 ms (2.00 video frames)
Interleave, preload duration : 504 ms
Writing library : LAME3.98r
Encoding settings : -m j -V 4 -q 2 -lowpass 17 -b 128
[HIDE-THANKS]
Kód:
https://data.hu/get/11452270/D0360a.rar
[/HIDE-THANKS]
vagy free
[HIDE-THANKS]
Kód:
https://data.hu/get/11452281/D0360av.part1.rar
https://data.hu/get/11452273/D0360av.part2.rar
https://data.hu/get/11452280/D0360av.part3.rar
https://data.hu/get/11452274/D0360av.part4.rar
https://data.hu/get/11452272/D0360av.part5.rar
https://data.hu/get/11452278/D0360av.part6.rar
[/HIDE-THANKS]
 

papadi

Állandó Tag
Állandó Tag


Szomszéd szeretők
(La Femme d'á coté)
Francia dráma (1981)
Főszereplők: Gerard Depardieu, Fanny Ardant, Michéle Baumgartner, Henri Garcin, Philippe Morier-Genoud, Véronique Silver, Roger Van Hool
Rendezte: Francois Truffaut
Computer Panoráma - 2004. karácsony
Hang: magyar, francia
Felirat: magyar

Truffaut filmjében a Nő (Fanny Ardant) kapcsolatuk után évekkel is vágyakozik a Férfiért (Gérard Depardieu), aki már másnak a férje és „elfelejtette” szenvedélyes kapcsolatukat.
Nem volnának költők és nem volna költészet, ha a szerelem, legyen az akár beteljesületlen, tragikus szerelem is, nem volna kivételes ajándék; ha a szenvedély és a szenvedés nem volna szédületes boldogság. Truffaut, aki valahol minden filmjében a szerelem rejtélyét kutatja, ezzel a gyönyörű melodrámával ismét igazolta, hogy nagy rendező és meghatóan érzelmes ember. Filmjének hősei hétköznapi emberek, akiket a véletlen szomszédság kerget a szerelembe. Amit átélnek, abban nagyon sok a fájdalom, a vívódás, a gyötrődés. Soha nem ugyanakkor, soha nem ugyanúgy szeretik egymást. De szeretik. És kikerülhetetlenül sodródnak végzetük felé. Irigylésre méltó a bátorságuk, hogy merészelnek úgy érezni, ahogy a mindennapi életben nem szokás.


Média információ:

Video:
Kodek: MPEG-1/2 Video (mpgv)
Felbontás: 720x576
Képkockasebesség: 25

Hang:
Kodek: A52 Audio (aka AC3) (a52)
Csatornák: Sztereó
Mintavételi frekvencia: 48000 Hz
Bitsebesség: 192 kb/mp

Formátum: dvd
Méret: 5,61 GB
Műsoridő: 1:40:40
(prémium)
[HIDE-THANKS]
Kód:
https://data.hu/get/11452645/D0375d.part1.rar
https://data.hu/get/11452639/D0375d.part2.rar
https://data.hu/get/11452657/D0375d.part3.rar
https://data.hu/get/11452649/D0375d.part4.rar
https://data.hu/get/11452641/D0375d.part5.rar
https://data.hu/get/11452644/D0375d.part6.rar
[/HIDE-THANKS]



Formátum: dvdrip/avi
Méret: 0,98 GB
Felbontás: 720x448
Mintavételi frekvencia: 48000 Hz
Bitsebesség: 128 kbps
Műsoridő: 1:40:40
Részletes média információ:
J:\0375 - Szomszéd szeretök\avi\Szomszéd szeretök.avi
General
Complete name : J:\0375 - Szomszéd szeretök\avi\Szomszéd szeretök.avi
Format : AVI
Format/Info : Audio Video Interleave
File size : 1 008 MiB
Duration : 1 h 40 min
Overall bit rate : 1 399 kb/s
Writing application : VirtualDubMod 1.5.4.1 (build 2178/release)
Writing library : VirtualDubMod build 2178/release
Video #0
ID : 0
Format : MPEG-4 Visual
Format profile : Advanced [email protected]
Format settings, BVOP : 1
Format settings, QPel : No
Format settings, GMC : No warppoints
Format settings, Matrix : Custom
Codec ID : XVID
Codec ID/Hint : XviD
Duration : 1 h 40 min
Bit rate : 1 134 kb/s
Width : 720 pixels
Height : 448 pixels
Display aspect ratio : 16:10
Frame rate : 25.000 FPS
Color space : YUV
Chroma subsampling : 4:2:0
Bit depth : 8 bits
Scan type : Progressive
Compression mode : Lossy
Bits/(Pixel*Frame) : 0.141
Stream size : 816 MiB (81%)
Writing library : XviD 1.2.1 (UTC 2008-12-04)
Audio #1
ID : 1
Format : MPEG Audio
Format version : Version 1
Format profile : Layer 3
Mode : Joint stereo
Mode extension : MS Stereo
Codec ID : 55
Codec ID/Hint : MP3
Duration : 1 h 40 min
Bit rate mode : Constant
Bit rate : 128 kb/s
Channel(s) : 2 channels
Sampling rate : 48.0 kHz
Compression mode : Lossy
Stream size : 92.2 MiB (9%)
Alignment : Aligned on interleaves
Interleave, duration : 80 ms (2.00 video frames)
Interleave, preload duration : 504 ms
Writing library : LAME3.98r
Encoding settings : -m j -V 4 -q 2 -lowpass 17 -b 128
Audio #2
ID : 2
Format : MPEG Audio
Format version : Version 1
Format profile : Layer 3
Mode : Joint stereo
Mode extension : MS Stereo
Codec ID : 55
Codec ID/Hint : MP3
Duration : 1 h 40 min
Bit rate mode : Constant
Bit rate : 128 kb/s
Channel(s) : 2 channels
Sampling rate : 48.0 kHz
Compression mode : Lossy
Stream size : 92.2 MiB (9%)
Alignment : Aligned on interleaves
Interleave, duration : 80 ms (2.00 video frames)
Interleave, preload duration : 504 ms
Writing library : LAME3.98r
Encoding settings : -m j -V 4 -q 2 -lowpass 17 -b 128
Kód:
[HIDE-THANKS]https://data.hu/get/11452642/D0375a.part1.rar
https://data.hu/get/11452643/D0375a.part2.rar
[/HIDE-THANKS]
vagy free
[HIDE-THANKS]
Kód:
https://data.hu/get/11452647/D0375av.part1.rar
https://data.hu/get/11452651/D0375av.part2.rar
https://data.hu/get/11452664/D0375av.part3.rar
https://data.hu/get/11452638/D0375av.part4.rar
https://data.hu/get/11452637/D0375av.part5.rar
https://data.hu/get/11452648/D0375av.part6.rar
[/HIDE-THANKS]
 

papadi

Állandó Tag
Állandó Tag


Majd' megdöglik érte
(To Die For)
Angol-amerikai film (1995/2002)
Főszereplők: Nicole Kidman, Matt Dillon, Joaquin Phoenix, Casey Affleck, Illeana Douglas, Alison Folland, Dan Hedaya, Kurtwood Smith
Rendezte: Gus Van Sant

"Suzanne gyakran mondogatta, hogy senki sem vagy Amerikában, ha nem szerepelsz a tévében. Különben is, mi értelme van bármit is csinálni, ha senki se nézi." (Lydia)
Isten hozott az igazi Amerikában, ahol a bűnözők ünnepelt sztárok lehetnek és a hírességek megúszhatják az emberölést! Andy Warhol híres mondása szerint "a jövőben bárki híres lehet 15 másodpercig".
Suzanne Maretto (NICOLE KIDMAN) a nagyravágyó és naiv vidéki lány rögeszméjévé vált, hogy képernyőre kerülhessen és híres sztár legyen. De neki 15 perc nem elég. Céljainak elérése érdekében még gyilkolni is képes…
Gus Van Sant (Good Will Hunting, Otthonom Idaho) gyilkos humorú fekete komédiájában Nicole Kidman pályája egyik legnagyobb alakítását nyújtja, melyet Golden Globe-díjjal tüntettek ki és Oscar-díjra is jelöltek.
(a borítóról)

Extrák (magyar felirattal):
Werkfilm - A forgatásról (8:18)
Interjúk (15:52)
Nicole Kidman
Matt Dillon
Illeana Douglas
Allison Folland
Dan Hedaya
Kurtwood Smith
Maria Tucci
Gus Van Sant
Laura Ziskin
Buck Henry

Előzetesek (csak a dvd-n)
A remény rabjai
Bűvölet
Hasznos holmik
Két test egy lélek
Pillangó tánca


Média információ:

Video:
Kodek: MPEG-1/2 Video (mpgv)
Felbontás: 720x576
Képkockasebesség: 25

Hang:
Kodek: A52 Audio (aka AC3) (a52)
Csatornák: Sztereó
Mintavételi frekvencia: 48000 Hz
Bitsebesség: 192 kb/mp

Formátum: iso
Méret: 7,06 GB
Műsoridő: 1:42:19 (2:18:00)
(prémium)
[HIDE-THANKS]
Kód:
https://data.hu/get/11454337/D0037i.part1.rar
https://data.hu/get/11454336/D0037i.part2.rar
https://data.hu/get/11454339/D0037i.part3.rar
https://data.hu/get/11454342/D0037i.part4.rar
https://data.hu/get/11454340/D0037i.part5.rar
https://data.hu/get/11454335/D0037i.part6.rar
https://data.hu/get/11454344/D0037i.part7.rar
[/HIDE-THANKS]



Formátum: dvdrip/avi
Méret: 1,62 GB
Felbontás: 720x400
Mintavételi frekvencia: 48000 Hz
Bitsebesség: 128/120 kbps
Műsoridő: 1:42:19 (2:06:29)
Részletes média információ:
K:\D0037a\Majd' megdöglik érte\avi\1 - Majd' megdöglik érte.avi
General
Complete name : K:\D0037a\Majd' megdöglik érte\avi\1 - Majd' megdöglik érte.avi
Format : AVI
Format/Info : Audio Video Interleave
File size : 1.33 GiB
Duration : 1 h 42 min
Overall bit rate mode : Variable
Overall bit rate : 1 859 kb/s
Writing application : VirtualDubMod 1.5.4.1 (build 2178/release)
Writing library : VirtualDubMod build 2178/release
Video #0
ID : 0
Format : MPEG-4 Visual
Format profile : Advanced [email protected]
Format settings, BVOP : 1
Format settings, QPel : No
Format settings, GMC : No warppoints
Format settings, Matrix : Custom
Codec ID : XVID
Codec ID/Hint : XviD
Duration : 1 h 42 min
Bit rate : 1 605 kb/s
Width : 720 pixels
Height : 400 pixels
Display aspect ratio : 16:9
Frame rate : 25.000 FPS
Color space : YUV
Chroma subsampling : 4:2:0
Bit depth : 8 bits
Scan type : Progressive
Compression mode : Lossy
Bits/(Pixel*Frame) : 0.223
Stream size : 1.15 GiB (86%)
Writing library : XviD 1.2.1 (UTC 2008-12-04)
Audio #1
ID : 1
Format : MPEG Audio
Format version : Version 1
Format profile : Layer 3
Mode : Joint stereo
Mode extension : MS Stereo
Codec ID : 55
Codec ID/Hint : MP3
Duration : 1 h 42 min
Bit rate mode : Variable
Bit rate : 112 kb/s
Nominal bit rate : 128 kb/s
Channel(s) : 2 channels
Sampling rate : 48.0 kHz
Compression mode : Lossy
Stream size : 82.0 MiB (6%)
Alignment : Aligned on interleaves
Interleave, duration : 24 ms (0.60 video frame)
Interleave, preload duration : 164 ms
Writing library : LAME3.98r
Encoding settings : -m j -V 4 -q 2 -lowpass 17 --abr 128
Audio #2
ID : 2
Format : MPEG Audio
Format version : Version 1
Format profile : Layer 3
Mode : Joint stereo
Mode extension : MS Stereo
Codec ID : 55
Codec ID/Hint : MP3
Duration : 1 h 42 min
Bit rate mode : Variable
Bit rate : 121 kb/s
Nominal bit rate : 128 kb/s
Channel(s) : 2 channels
Sampling rate : 48.0 kHz
Compression mode : Lossy
Stream size : 88.4 MiB (7%)
Alignment : Aligned on interleaves
Interleave, duration : 24 ms (0.60 video frame)
Interleave, preload duration : 152 ms
Writing library : LAME3.98r
Encoding settings : -m j -V 4 -q 2 -lowpass 17 --abr 128
[HIDE-THANKS]
Kód:
https://data.hu/get/11454180/D0037a.part1.rar
https://data.hu/get/11454186/D0037a.part2.rar
[/HIDE-THANKS]
vagy free
[HIDE-THANKS]
Kód:
https://data.hu/get/11454185/D0037av.part01.rar
https://data.hu/get/11454181/D0037av.part02.rar
https://data.hu/get/11454178/D0037av.part03.rar
https://data.hu/get/11454179/D0037av.part04.rar
https://data.hu/get/11454184/D0037av.part05.rar
https://data.hu/get/11454188/D0037av.part06.rar
https://data.hu/get/11454182/D0037av.part07.rar
https://data.hu/get/11454183/D0037av.part08.rar
https://data.hu/get/11454187/D0037av.part09.rar
[/HIDE-THANKS]
 
Utoljára módosítva:

papadi

Állandó Tag
Állandó Tag
2937546-20181008-vwZBEV.jpg


Asterix a gall
(Astérix le Gaulois)
Francia - belga rajzfilm (1967)
Rendezte: Ray Goossens, René Goscinny, Albert Uderzo
Hang: magyar, német, francia
Felirat: nincs

A római légiók egész Galliát leigázták. Azaz: csaknem az egészet. Egy kicsinyke falu bátran dacol a hódítókkal. A druida, Panoramix varázsfőzetének hála, lakói emberfeletti erővel verik vissza a környező római garnizonok támadásait. A csetepatékban két harcos jár az élen: a fortélyos eszű Asterix, és a főzet nélkül is bivalyerejű Obelix. Az újra elagyabulált rómaiak - belátván, hogy erővel semmire sem jutnak - cselhez folyamodnak, hogy elcsaklizzák a varázsreceptet. Előbb kémet küldenek a faluba, majd foglyul ejtik a druidát. Csakhogy a gallokat sem ejtették a fejük lágyára, s az agyafúrt Asterix tüstént ellencsellel rukkol elő... (a borítóról)

Extrák (csak a dvd-n):
BestDVD ajánló
Asterix és a nagy csata
Lucky Luke - Megszöktek a Daltonok
Vándorló Palota
Chihiro szellemországban


Média információ:

Video:
Kodek: MPEG-1/2 Video (mpgv)
Felbontás: 720x576
Képkockasebesség: 25

Hang:
Kodek: A52 Audio (aka AC3) (a52)
Csatornák: Sztereó
Mintavételi frekvencia: 48000 Hz
Bitsebesség: 224 kb/mp

Formátum: iso
Méret: 3,86 GB
Műsoridő: 1:05:02 (1:14:27)
(prémium)
[HIDE-THANKS]
Kód:
https://data.hu/get/11456006/D1360i.part1.rar
https://data.hu/get/11456010/D1360i.part2.rar
https://data.hu/get/11456014/D1360i.part3.rar
https://data.hu/get/11456013/D1360i.part4.rar
[/HIDE-THANKS]

2937547-20181008-qUaveK.jpg

Formátum: dvdrip/avi
Méret: 810 MB
Felbontás: 720x544
Mintavételi frekvencia: 48000 Hz
Bitsebesség: 102-107 kbps
Műsoridő: 1:05:02
Részletes média információ:
K:\Asterix (1967) Asterix, a gall.avi
General
Complete name : K:\Asterix (1967) Asterix, a gall.avi
Format : AVI
Format/Info : Audio Video Interleave
File size : 808 MiB
Duration : 1 h 5 min
Overall bit rate mode : Variable
Overall bit rate : 1 738 kb/s
Writing application : VirtualDubMod 1.5.4.1 (build 2178/release)
Writing library : VirtualDubMod build 2178/release
Video #0
ID : 0
Format : MPEG-4 Visual
Format profile : Advanced [email protected]
Format settings, BVOP : 1
Format settings, QPel : No
Format settings, GMC : No warppoints
Format settings, Matrix : Custom
Codec ID : XVID
Codec ID/Hint : XviD
Duration : 1 h 5 min
Bit rate : 1 395 kb/s
Width : 720 pixels
Height : 544 pixels
Display aspect ratio : 4:3
Frame rate : 25.000 FPS
Color space : YUV
Chroma subsampling : 4:2:0
Bit depth : 8 bits
Scan type : Progressive
Compression mode : Lossy
Bits/(Pixel*Frame) : 0.142
Stream size : 649 MiB (80%)
Writing library : XviD 1.2.1 (UTC 2008-12-04)
Audio #1
ID : 1
Format : MPEG Audio
Format version : Version 1
Format profile : Layer 3
Mode : Joint stereo
Mode extension : MS Stereo
Codec ID : 55
Codec ID/Hint : MP3
Duration : 1 h 5 min
Bit rate mode : Variable
Bit rate : 107 kb/s
Nominal bit rate : 128 kb/s
Channel(s) : 2 channels
Sampling rate : 48.0 kHz
Compression mode : Lossy
Stream size : 50.0 MiB (6%)
Alignment : Aligned on interleaves
Interleave, duration : 24 ms (0.60 video frame)
Interleave, preload duration : 496 ms
Writing library : LAME3.98r
Encoding settings : -m j -V 4 -q 2 -lowpass 17 --abr 128
Audio #2
ID : 2
Format : MPEG Audio
Format version : Version 1
Format profile : Layer 3
Mode : Joint stereo
Mode extension : MS Stereo
Codec ID : 55
Codec ID/Hint : MP3
Duration : 1 h 5 min
Bit rate mode : Variable
Bit rate : 102 kb/s
Nominal bit rate : 128 kb/s
Channel(s) : 2 channels
Sampling rate : 48.0 kHz
Compression mode : Lossy
Stream size : 47.4 MiB (6%)
Alignment : Aligned on interleaves
Interleave, duration : 24 ms (0.60 video frame)
Interleave, preload duration : 180 ms
Writing library : LAME3.98r
Encoding settings : -m j -V 4 -q 2 -lowpass 17 --abr 128
Audio #3
ID : 3
Format : MPEG Audio
Format version : Version 1
Format profile : Layer 3
Mode : Joint stereo
Mode extension : MS Stereo
Codec ID : 55
Codec ID/Hint : MP3
Duration : 1 h 5 min
Bit rate mode : Variable
Bit rate : 105 kb/s
Nominal bit rate : 128 kb/s
Channel(s) : 2 channels
Sampling rate : 48.0 kHz
Compression mode : Lossy
Stream size : 48.6 MiB (6%)
Alignment : Aligned on interleaves
Interleave, duration : 24 ms (0.60 video frame)
Interleave, preload duration : 426 ms
Writing library : LAME3.98r
Encoding settings : -m j -V 4 -q 2 -lowpass 17 --abr 128
[HIDE-THANKS]
Kód:
https://data.hu/get/11456011/D1360a.rar
[/HIDE-THANKS]
vagy free
[HIDE-THANKS]
Kód:
https://data.hu/get/11456009/D1360av.part1.rar
https://data.hu/get/11456007/D1360av.part2.rar
https://data.hu/get/11456008/D1360av.part3.rar
https://data.hu/get/11456012/D1360av.part4.rar
https://data.hu/get/11456015/D1360av.part5.rar
[/HIDE-THANKS]
 

papadi

Állandó Tag
Állandó Tag
2937548-20181008-ixDmrS.jpg


Asterix és Kleopátra
(Astérix et Cléopatre)
Francia - belga rajzfilm (1968)
Rendezte: René Goscinny, Albert Uderzo, Lee Payant
Hang: magyar, német, francia
Felirat: nincs (csak a dalszövegekhez)

Kleopátra megorrol a kevély Julius Cézárra, s hogy igazolja az ősi Egyiptom fölényét a suttyó Róma fölött, hihetetlen tervet eszel ki. Egy káprázatos csodapalotát emel Alexandriában - s fővesztés terhe mellett ad három kurta hónapot szegény főépítésznek, hogy készen legyen a nagy mű. Ehhez valóban csoda kell, vagy legalábbis csodafőzet! Csak egyvalaki segíthet: Panoramix, és az ő varázslatos kotyvaléka. A druida útnak is ered a távoli Egyiptomba, s vele tart a két jó barát: Asterix és Obelix. A félelmetes gall páros móresre tanítja a kalózokat, lepofozza az áskálódó vetélytársakat, és szétcsap Cézás seregei között is. A jó öreg Juliusnak bizony leesik az álla! (a borítóról)

Extrák (csak a dvd-n):
BestDVD ajánló
Asterix és a nagy csata
Lucky Luke - Megszöktek a Daltonok
Vándorló Palota
Chihiro szellemországban


Média információ:

Video:
Kodek: MPEG-1/2 Video (mpgv)
Felbontás: 720x576
Képkockasebesség: 25

Hang:
Kodek: A52 Audio (aka AC3) (a52)
Csatornák: Sztereó
Mintavételi frekvencia: 48000 Hz
Bitsebesség: 224 kb/mp

Formátum: iso
Méret: 4,17 GB
Műsoridő: 1:09:14 (1:18:39)
(prémium)
[HIDE-THANKS]
Kód:
https://data.hu/get/11456117/D1361i.part1.rar
https://data.hu/get/11456109/D1361i.part2.rar
https://data.hu/get/11456114/D1361i.part3.rar
https://data.hu/get/11456115/D1361i.part4.rar
https://data.hu/get/11456108/D1361i.part5.rar
[/HIDE-THANKS]

2937549-20181008-PutnVj.jpg


Formátum: dvdrip/avi
Méret: 862 MB
Felbontás: 720x544
Mintavételi frekvencia: 48000 Hz
Bitsebesség: 98-104 kbps
Műsoridő: 1:09:14
Részletes média információ:
K:\Asterix (1968) Asterix és Kleopátra.avi
General
Complete name : K:\Asterix (1968) Asterix és Kleopátra.avi
Format : AVI
Format/Info : Audio Video Interleave
File size : 860 MiB
Duration : 1 h 9 min
Overall bit rate mode : Variable
Overall bit rate : 1 737 kb/s
Writing application : VirtualDubMod 1.5.4.1 (build 2178/release)
Writing library : VirtualDubMod build 2178/release
Video #0
ID : 0
Format : MPEG-4 Visual
Format profile : Advanced [email protected]
Format settings, BVOP : 1
Format settings, QPel : No
Format settings, GMC : No warppoints
Format settings, Matrix : Custom
Codec ID : XVID
Codec ID/Hint : XviD
Duration : 1 h 9 min
Bit rate : 1 402 kb/s
Width : 720 pixels
Height : 544 pixels
Display aspect ratio : 4:3
Frame rate : 25.000 FPS
Color space : YUV
Chroma subsampling : 4:2:0
Bit depth : 8 bits
Scan type : Progressive
Compression mode : Lossy
Bits/(Pixel*Frame) : 0.143
Stream size : 694 MiB (81%)
Writing library : XviD 1.2.1 (UTC 2008-12-04)
Audio #1
ID : 1
Format : MPEG Audio
Format version : Version 1
Format profile : Layer 3
Mode : Joint stereo
Mode extension : MS Stereo
Codec ID : 55
Codec ID/Hint : MP3
Duration : 1 h 9 min
Bit rate mode : Variable
Bit rate : 98.1 kb/s
Nominal bit rate : 128 kb/s
Channel(s) : 2 channels
Sampling rate : 48.0 kHz
Compression mode : Lossy
Stream size : 48.6 MiB (6%)
Alignment : Aligned on interleaves
Interleave, duration : 24 ms (0.60 video frame)
Interleave, preload duration : 497 ms
Writing library : LAME3.98r
Encoding settings : -m j -V 4 -q 2 -lowpass 17 --abr 128
Audio #2
ID : 2
Format : MPEG Audio
Format version : Version 1
Format profile : Layer 3
Mode : Joint stereo
Mode extension : MS Stereo
Codec ID : 55
Codec ID/Hint : MP3
Duration : 1 h 9 min
Bit rate mode : Variable
Bit rate : 104 kb/s
Nominal bit rate : 128 kb/s
Channel(s) : 2 channels
Sampling rate : 48.0 kHz
Compression mode : Lossy
Stream size : 51.3 MiB (6%)
Alignment : Aligned on interleaves
Interleave, duration : 24 ms (0.60 video frame)
Interleave, preload duration : 530 ms
Writing library : LAME3.98r
Encoding settings : -m j -V 4 -q 2 -lowpass 17 --abr 128
Audio #3
ID : 3
Format : MPEG Audio
Format version : Version 1
Format profile : Layer 3
Mode : Joint stereo
Mode extension : MS Stereo
Codec ID : 55
Codec ID/Hint : MP3
Duration : 1 h 9 min
Bit rate mode : Variable
Bit rate : 105 kb/s
Nominal bit rate : 128 kb/s
Channel(s) : 2 channels
Sampling rate : 48.0 kHz
Compression mode : Lossy
Stream size : 51.8 MiB (6%)
Alignment : Aligned on interleaves
Interleave, duration : 24 ms (0.60 video frame)
Interleave, preload duration : 510 ms
Writing library : LAME3.98r
Encoding settings : -m j -V 4 -q 2 -lowpass 17 --abr 128
[HIDE-THANKS]
Kód:
https://data.hu/get/11456111/D1361a.rar
[/HIDE-THANKS]
vagy free
[HIDE-THANKS]
Kód:
https://data.hu/get/11456116/D1361av.part1.rar
https://data.hu/get/11456113/D1361av.part2.rar
https://data.hu/get/11456110/D1361av.part3.rar
https://data.hu/get/11456112/D1361av.part4.rar
https://data.hu/get/11456118/D1361av.part5.rar
[/HIDE-THANKS]
 

papadi

Állandó Tag
Állandó Tag
2937550-20181008-GN82Sz.jpg


Asterix 12 próbája
(Les douze travaux d'Astérix))
Francia rajzfilm (1976)
Rendezte: René Goscinny, Albert Uderzo, Pierre Watrin
Hang: magyar, német, francia
Felirat: nincs

Julius Cézár és főtanácsadói újabb ravasz tervet sütnek ki, hogy legyűrjék a bevehetetlen gall falut. Sportversenyre hívják ki a legyőzhetetlen harcosokat, pontosabban 12 olyan veszedelmes próbára, amibe még egy kisebb istennek is beletörne a bicskája. A hősies falut képviselő Asterix és Obelix azonban játszva leküzdi a legnagyobb akadályokat is. Megmutatják, mire képesek a megzabolázhatatlan gallok - alaposan megszégyenítve a felfuvalkodott Cézárt. (a borítóról)

Extrák (csak a dvd-n):
BestDVD ajánló
Asterix és a nagy csata
Lucky Luke - Megszöktek a Daltonok
Vándorló Palota
Chihiro szellemországban


Média információ:

Video:
Kodek: MPEG-1/2 Video (mpgv)
Felbontás: 720x576
Képkockasebesség: 25

Hang:
Kodek: A52 Audio (aka AC3) (a52)
Csatornák: Sztereó
Mintavételi frekvencia: 48000 Hz
Bitsebesség: 224 kb/mp

Formátum: iso
Méret: 4,73 GB
Műsoridő: 1:18:11 (1:27:36)
(prémium)
[HIDE-THANKS]
Kód:
https://data.hu/get/11456455/D1362i.part1.rar
https://data.hu/get/11456457/D1362i.part2.rar
https://data.hu/get/11456459/D1362i.part3.rar
https://data.hu/get/11456450/D1362i.part4.rar
https://data.hu/get/11456451/D1362i.part5.rar
[/HIDE-THANKS]

2937554-20181008-GobMqN.jpg


Formátum: dvdrip/avi
Méret: 923 MB
Felbontás: 720x432
Mintavételi frekvencia: 48000 Hz
Bitsebesség: 103-105 kbps
Műsoridő: 1:18:11
Részletes média információ:
K:\Asterix (1976) Asterix 12 próbája.avi
General
Complete name : K:\Asterix (1976) Asterix 12 próbája.avi
Format : AVI
Format/Info : Audio Video Interleave
File size : 921 MiB
Duration : 1 h 18 min
Overall bit rate mode : Variable
Overall bit rate : 1 647 kb/s
Writing application : VirtualDubMod 1.5.4.1 (build 2178/release)
Writing library : VirtualDubMod build 2178/release
Video #0
ID : 0
Format : MPEG-4 Visual
Format profile : Advanced [email protected]
Format settings, BVOP : 1
Format settings, QPel : No
Format settings, GMC : No warppoints
Format settings, Matrix : Custom
Codec ID : XVID
Codec ID/Hint : XviD
Duration : 1 h 18 min
Bit rate : 1 304 kb/s
Width : 720 pixels
Height : 432 pixels
Display aspect ratio : 5:3
Frame rate : 25.000 FPS
Color space : YUV
Chroma subsampling : 4:2:0
Bit depth : 8 bits
Scan type : Progressive
Compression mode : Lossy
Bits/(Pixel*Frame) : 0.168
Stream size : 729 MiB (79%)
Writing library : XviD 1.2.1 (UTC 2008-12-04)
Audio #1
ID : 1
Format : MPEG Audio
Format version : Version 1
Format profile : Layer 3
Mode : Joint stereo
Mode extension : MS Stereo
Codec ID : 55
Codec ID/Hint : MP3
Duration : 1 h 18 min
Bit rate mode : Variable
Bit rate : 103 kb/s
Nominal bit rate : 128 kb/s
Channel(s) : 2 channels
Sampling rate : 48.0 kHz
Compression mode : Lossy
Stream size : 57.7 MiB (6%)
Alignment : Aligned on interleaves
Interleave, duration : 24 ms (0.60 video frame)
Interleave, preload duration : 584 ms
Writing library : LAME3.98r
Encoding settings : -m j -V 4 -q 2 -lowpass 17 --abr 128
Audio #2
ID : 2
Format : MPEG Audio
Format version : Version 1
Format profile : Layer 3
Mode : Joint stereo
Codec ID : 55
Codec ID/Hint : MP3
Duration : 1 h 18 min
Bit rate mode : Variable
Bit rate : 106 kb/s
Nominal bit rate : 128 kb/s
Channel(s) : 2 channels
Sampling rate : 48.0 kHz
Compression mode : Lossy
Stream size : 59.2 MiB (6%)
Alignment : Aligned on interleaves
Interleave, duration : 24 ms (0.60 video frame)
Interleave, preload duration : 566 ms
Writing library : LAME3.98r
Encoding settings : -m j -V 4 -q 2 -lowpass 17 --abr 128
Audio #3
ID : 3
Format : MPEG Audio
Format version : Version 1
Format profile : Layer 3
Mode : Joint stereo
Codec ID : 55
Codec ID/Hint : MP3
Duration : 1 h 18 min
Bit rate mode : Variable
Bit rate : 105 kb/s
Nominal bit rate : 128 kb/s
Channel(s) : 2 channels
Sampling rate : 48.0 kHz
Compression mode : Lossy
Stream size : 58.6 MiB (6%)
Alignment : Aligned on interleaves
Interleave, duration : 24 ms (0.60 video frame)
Interleave, preload duration : 564 ms
Writing library : LAME3.98r
Encoding settings : -m j -V 4 -q 2 -lowpass 17 --abr 128
[HIDE-THANKS]
Kód:
https://data.hu/get/11456458/D1362a.rar
[/HIDE-THANKS]
vagy free
[HIDE-THANKS]
Kód:
https://data.hu/get/11456453/D1362av.part1.rar
https://data.hu/get/11456460/D1362av.part2.rar
https://data.hu/get/11456454/D1362av.part3.rar
https://data.hu/get/11456456/D1362av.part4.rar
https://data.hu/get/11456452/D1362av.part5.rar
[/HIDE-THANKS]
 

papadi

Állandó Tag
Állandó Tag
2937555-20181008-Vcg80D.jpg


Asterix és Cézár ajándéka
(Astérix et la surprise de César)
Francia rajzfilm (1985)
Rendezte: Gaetan Brizzi, Paul Brizzi
Hang: magyar, francia
Felirat: magyar

Obelix elmondja Asterixnek, hogy szerelmes, de érzelmeit nem meri a lánynak bevallani, mert túlságosan szégyenlős. Miközben a jó barát megpróbál önbizalmat önteni belé, Obelix tudomására jut, hogy a hölgy mást szeret, mégpedig a jóképű Tragicomixot. Hősünk összetörik a hír hallatára, de amikor az imádott lányt és annak kedvesét a rómaiak elrabolják, eljön számára a nagy lehetőség, hogy bebizonyítsa: ki a legény a talpán. Sok vidám kaland közepette Asterix és Obelix végre megtalálja a fogságba esett párt, akiket a rómaiak épp akkor akarnak Julius Caesar születésnapi ajándékaként az arénába dobni. (a borítóról)

Extrák (csak a dvd-n):
Mozielőzetes
BestDVD ajánló
Asterix és a nagy csata
Asterix Britanniában


Média információ:

Video:
Kodek: MPEG-1/2 Video (mpgv)
Felbontás: 720x576
Képkockasebesség: 25

Hang:
Kodek: A52 Audio (aka AC3) (a52)
Csatornák: Sztereó
Mintavételi frekvencia: 48000 Hz
Bitsebesség: 224 kb/mp

Formátum: iso
Méret: 5,34 GB
Műsoridő: 1:31:41
(prémium)
[HIDE-THANKS]
Kód:
https://data.hu/get/11456762/D2390i.part1.rar
https://data.hu/get/11456768/D2390i.part2.rar
https://data.hu/get/11456766/D2390i.part3.rar
https://data.hu/get/11456757/D2390i.part4.rar
https://data.hu/get/11456761/D2390i.part5.rar
[/HIDE-THANKS]

2937556-20181008-eyZvn6.jpg


Formátum: dvdrip/avi
Méret: 925 MB
Felbontás: 720x432
Mintavételi frekvencia: 48000 Hz
Bitsebesség: 102/107 kbps
Műsoridő: 1:31:41
Részletes média információ:
K:\Asterix (1985) Asterix és Cézár ajándéka.avi
General
Complete name : K:\Asterix (1985) Asterix és Cézár ajándéka.avi
Format : AVI
Format/Info : Audio Video Interleave
File size : 922 MiB
Duration : 1 h 13 min
Overall bit rate mode : Variable
Overall bit rate : 1 750 kb/s
Writing application : VirtualDubMod 1.5.4.1 (build 2178/release)
Writing library : VirtualDubMod build 2178/release
Video #0
ID : 0
Format : MPEG-4 Visual
Format profile : Advanced [email protected]
Format settings, BVOP : 1
Format settings, QPel : No
Format settings, GMC : No warppoints
Format settings, Matrix : Custom
Codec ID : XVID
Codec ID/Hint : XviD
Duration : 1 h 13 min
Bit rate : 1 519 kb/s
Width : 720 pixels
Height : 432 pixels
Display aspect ratio : 5:3
Frame rate : 25.000 FPS
Color space : YUV
Chroma subsampling : 4:2:0
Bit depth : 8 bits
Scan type : Progressive
Compression mode : Lossy
Bits/(Pixel*Frame) : 0.195
Stream size : 801 MiB (87%)
Writing library : XviD 1.2.1 (UTC 2008-12-04)
Audio #1
ID : 1
Format : MPEG Audio
Format version : Version 1
Format profile : Layer 3
Mode : Joint stereo
Mode extension : MS Stereo
Codec ID : 55
Codec ID/Hint : MP3
Duration : 1 h 13 min
Bit rate mode : Variable
Bit rate : 107 kb/s
Nominal bit rate : 128 kb/s
Channel(s) : 2 channels
Sampling rate : 48.0 kHz
Compression mode : Lossy
Stream size : 56.7 MiB (6%)
Alignment : Aligned on interleaves
Interleave, duration : 24 ms (0.60 video frame)
Interleave, preload duration : 171 ms
Writing library : LAME3.98r
Encoding settings : -m j -V 4 -q 2 -lowpass 17 --abr 128
Audio #2
ID : 2
Format : MPEG Audio
Format version : Version 1
Format profile : Layer 3
Mode : Joint stereo
Mode extension : MS Stereo
Codec ID : 55
Codec ID/Hint : MP3
Duration : 1 h 13 min
Bit rate mode : Variable
Bit rate : 102 kb/s
Nominal bit rate : 128 kb/s
Channel(s) : 2 channels
Sampling rate : 48.0 kHz
Compression mode : Lossy
Stream size : 54.0 MiB (6%)
Alignment : Aligned on interleaves
Interleave, duration : 24 ms (0.60 video frame)
Interleave, preload duration : 179 ms
Writing library : LAME3.98r
Encoding settings : -m j -V 4 -q 2 -lowpass 17 --abr 128
[HIDE-THANKS]
Kód:
https://data.hu/get/11456764/D2390a.rar
[/HIDE-THANKS]
vagy free
[HIDE-THANKS]
Kód:
https://data.hu/get/11456763/D2390av.part1.rar
https://data.hu/get/11456759/D2390av.part2.rar
https://data.hu/get/11456765/D2390av.part3.rar
https://data.hu/get/11456769/D2390av.part4.rar
https://data.hu/get/11456758/D2390av.part5.rar
[/HIDE-THANKS]
 
Oldal tetejére