Filmek VII -Itt nem kérünk!

balboka

Állandó Tag
Állandó Tag
Mogyoróvaj Sólyom 2019 720p BluRay DD5.1 x264 Hun

mogyor10.jpg

Eredeti cím:
The Peanut Butter Falcon

Év:
2019
Játékidő:
97 perc
imdb_icon értékelés:
7.6
Kategória:
Kaland, Vígjáték, Dráma
directors:
Michael Schwartz, Tyler Nilson
Írók:
Michael Schwartz, Tyler Nilson
Szereplők:
Bruce Dern (Carl), Thomas Haden Church (Clint / The Salt Water Redneck), Thomas Haden Church (Salt Water Redneck), Wayne Dehart (Blind Jasper John), Mick Foley (Jacob), John Hawkes (Duncan), Dakota Johnson (Eleanor), Shia LaBeouf (Tyler), Jake Roberts (Sam), Lee Spencer (Glen), Bruce Henderson (Convenience Store Clerk), Raquel Aurora (Audience Member), Ann Owens (Rosemary), Jon Bernthal (Mark), Deja Dee (Janice), Tim Zajaros (Orderly), Yelawolf (Ratboy), Mark Helms (Trucker), Michael Berthold (Billy), Karen B. Greer (Bar Patron), Zack Gottsagen (Zak (as Zachary Gottsagen)), Zack Gottsagen (Zak), Jonathan D. Williams (Craig (as Jonathan Williams)), Rob Thomas (Winkie)


Leírás:
Zak megszökik a nevelőotthonból, hogy megvalósítsa álmát és profi birkózóvá váljon.

General : E:\Mogyoróvaj Sólyom.2019.720p.BluRay.DD5.1.x264.Hun.mkv
Format : Matroska at 6 808 kb/s
Length : 4.61 GiB for 1 h 36 min 57 s 109 ms

Video #0 : AVC at 6 000 kb/s
Aspect : 1280 x 536 (2.388) at 23.976 fps

Audio #0 : AAC at 178 kb/s
Infos : 2 channels, 48.0 kHz
Language : hu

Audio #1 : AC-3 at 640 kb/s
Infos : 6 channels, 48.0 kHz
Language : en

Text #0 : UTF-8
Language : hu

Text #1 : UTF-8
Language : en

Text #2 : UTF-8
Language : en

[hide]
Kód:
nézd itt
https://waaw.to/f/s8OGFZKC71gF
vagy
https://hqq.to/watch_video.php?v=s8OGFZKC71gF
vagy tölsd le itt

https://fastshare.cz/15663070/mogyorovaj-solyom.2019.720p.bluray.dd5.1.x264.hun.mkv
[/hide]
 

balboka

Állandó Tag
Állandó Tag
A titkos kert 2020 720p BluRay DD5.1 x264 Hun

thesec10.jpg

Eredeti cím:
The Secret Garden

Év:
2020
Játékidő:
99 perc
imdb_icon értékelés:
5.5
Kategória:
Dráma, Családi, Fantasy
Írók:
Frances Hodgson Burnett, Jack Thorne
Rendező:
Marc Munden
Szereplők:
Colin Firth (Archibald Craven), Colin Firth (Lord Archibald Craven), Maeve Dermody (Alice), Richard Hansell (George), Anne Lacey (Mrs. Pitcher), Jemma Powell (Grace), David Verrey (Jeremy), Julie Walters (Mrs. Medlock), Tommy Gene Surridge (Billy (as Tommy Surridge)), Fozzie (Jemima / Hector), Rupert Young (Marcus), Isis Davis (Martha), Dixie Egerickx (Mary), Edan Hayhurst (Colin), Sonia Goswami (Ayah (Flashback)), Amir Wilson (Dickon)


Leírás:
A tíz éves Mary Lennox (Dixie Egerickx) jómódú brit családban nevelkedik Indiában. Szülei nem sokat törődnek vele, a szolgálók az elkényeztetett kislány minden kívánságát lesik, azonban egy váratlan tragédia gyökeresen felforgatja Mary életét. Miután a birtokot sújtó kolerajárvány miatt árván marad, vissza kell térnie szülőhazájába, Angliába, ahogy bácsikája, Archibald Craven (Colin Firth) veszi magához. A titkokat rejtő yorkshire-i birtokon Mary megismerkedik unokatestvérével, a gerincproblémákkal küzdő, gyenge lábai miatt a napjai nagy részét tolószékben töltő Colinnal (Edan Hayhurst), akivel a birtokot járva egy varázslatos kertet fedeznek fel, mely hatalmas változást hoz mindkettőjük életébe. Colin állapota rohamosan javulni kezd, de ez csak a kezdet a mágikus események hosszú sorában... A Marc Munden rendezésében bemutatásra kerülő A titkos kert producerei korábban olyan sikerfilmekkel bűvölték el a világot, mint a Harry Potter franchise filmjei vagy a Paddington, és Frances H. Burnett 1911-es azonos című regényének adaptációjával ezúttal sem adtak alább a színvonalból.


General : E:\The.Secret.Garden.2020.720p.BluRay.DD5.1.x264.Hun-ARROW.mkv
Format : Matroska at 9 636 kb/s
Length : 6.74 GiB for 1 h 40 min 9 s 536 ms

Video #0 : AVC at 8 737 kb/s
Aspect : 1280 x 692 (1.850) at 23.976 fps

Audio #0 : AC-3 at 256 kb/s
Infos : 2 channels, 48.0 kHz
Language : hu

Audio #1 : AC-3 at 640 kb/s
Infos : 6 channels, 48.0 kHz
Language : en

Text #0 : UTF-8
Language : hu

Text #1 : UTF-8
Language : hu

Text #2 : UTF-8
Language : en


[hide]
Kód:
nézd itt
https://waaw.to/f/EIH1CQL7MO0a
vagy
https://hqq.to/watch_video.php?v=EIH1CQL7MO0a
vagy tölsd le itt
https://fastshare.cz/15663147/the.secret.garden.2020.720p.bluray.dd5.1.x264.hun-arrow.mkv
[/hide]
 

Tigris5

Állandó Tag
Állandó Tag
Indul a bakterház (1979)
Színes, magyar vígjáték

Indul.a.bakterhaz.DVDRip.Hun.avi


61d8b31dc93b5d6de38d30ed81596a08.jpg


Rendezte:
Mihályfy Sándor

Szereplők:
Olvasztó Imre (Bendegúz)
Koltai Róbert (A Bakter)
Horváth Teri (A Banya, a Bakter anyósa)
Haumann Péter (A Patás)
Bánhidi László (Konc bácsi)
Csákányi László (Buga Jóska)
Pécsi Ildikó (Csámpás Rozi)
Molnár Piroska (Anya)
Zách János (Suszter)
Szilágyi István (Piócás ember)

Tartalom:
Regös Bendegúzt anyja elszegődteti a lókupechez, de a fiú megszökik tőle. A bakterhez keveredik, ahol elvállalja a tehénpásztorkodást. A bakter és anyja, a Banya igen sanyargatja a fiút, aki elhatározza, hogy megleckézteti öket. Bendegúz barátja, Koncz bácsi jó tanácsokat ad neki arra, hogy hogyan lehet a bakter feleségének szellemével riogatni a háziakat. A fiú megfogadja a tanácsot s végül összedől a bakterház, ö pedig továbbáll.

Video:
Méret: 878,55 MiB
Hossz: 01:06:10.440
Formátum: MPEG-4 Visual
Felbontás: 720x544
Bitráta: 1 590 Kbps
Képkocka / mp: 25
Képarány: 4:3
Hangsávok száma: 2

Audio:
Hangsáv #1
Formátum: MPEG Audio
Csatornák száma: 2
Bitráta: 128 Kbps
Mintavételezési frekvencia: 48.0 KHz​
Data.hu prémium letöltőlinkek

[HIDE-THANKS]
Kód:
https://data.hu/get/12775658/Indul_a_bakterhaz.part1.rar
https://data.hu/get/12775657/Indul_a_bakterhaz.part2.rar
https://data.hu/get/12775656/Indul_a_bakterhaz.part3.rar
[/HIDE-THANKS]
A kicsomagoláshoz nem kell jelszó!
 

Tigris5

Állandó Tag
Állandó Tag
A fiatal farkasok bandája (Die Wolf-Gäng / The Magic Kids: Three Unlikely Heroes) 2020
Színes, magyarul beszélő, német családi - fantasy

A.fiatal.farkasok.bandaja.2020.BDRip.HUN-LV.mkv
Data.hu prémium letöltőlinkek


bsdBbs6.jpg


Rendezte:
Tim Trageser

Szereplők:
Christian Berkel (Louis Ziffer)
Arsseni Bultmann (Wolf)
Butz Ulrich Buse (Steuereintreiber)
Shirley Feuring (Double Faye)
Arved Friese (Michael 'Hackfresse')
Sonja Gerhardt (Frau Circemeyer)

Tartalom:
Három új tanuló érkezik a világ egyik leghíresebb varázsló iskolájába, a Bűbáj Akadémiára. Vlad, az ifjú vámpír, aki nem bírja a vért, Faye, a tündér, aki fél a repüléstől, és Wolf, a farkasember, akinek állatszőr allergiája van. A diákok által megvetett három jó barát egy sötét összeesküvés nyomára bukkan, mely szolgaságba taszítaná a világ összes lakóját. Nincs más megoldás, erőt kell venniük magukon.

Video:
Méret: 715,04 MiB
Hossz: 01:36:56.811
Formátum: AVC (Advanced Video Codec)
Felbontás: 720x300
Bitráta: 773 Kbps
Képkocka / mp: 23,976
Képarány: 2.40:1
Hangsávok száma: 1

Audio:
Hangsáv #1
Nyelv: Hungarian
Formátum: AC-3 (Audio Coding 3)
Csatornák száma: 2
Bitráta: 256 Kbps
Mintavételezési frekvencia: 48.0 KHz​

[HIDE-THANKS]
Kód:
https://data.hu/get/12777580/A.fiatal.farkasok.bandaja.2020.BDRip.HUN-LV.part1.rar
https://data.hu/get/12777582/A.fiatal.farkasok.bandaja.2020.BDRip.HUN-LV.part2.rar
https://data.hu/get/12777581/A.fiatal.farkasok.bandaja.2020.BDRip.HUN-LV.part3.rar
[/HIDE-THANKS]
A kicsomagoláshoz nem kell jelszó!
 

Tigris5

Állandó Tag
Állandó Tag
Vitathatatlan 1. (Undisputed) 2002 (5.1)
Színes, magyarul beszélő, amerikai-német akció

Vitathatatlan.1.2002.BDRip.HUN-LV.avi
Data.hu prémium letöltőlinkek


1e1532334c0aec34ae2ac806b0033a1a.jpg



Rendezte:
Walter Hill

Szereplők:
Ving Rhames (James Chambers)
Wesley Snipes (Monroe Hutchen)
Peter Falk (Emmanuel Ripstein)
Michael Rooker (A.J. Mercker)
Fisher Stevens (James Kroycek)
Jon Seda (Jesus "Chuy" Campos)
Wes Studi (Mingo Pace)
Dayton Callie (Yank Lewis)
Amy Aquino (Darlene Early)

Tartalom:
A nehézsúlyú ökölvívó világbajnokot, Iceman Chamberst (Ving Rhames) nemi erőszak vádjával börtönbe zárják. Iceman tombol, hisz profi ökölvívói karrierje csúcsán megakadályozzák abban, hogy kiélvezze és megvédje az őt vitathatatlanul megillető bajnoki státust. Ugyanabban a fegyházban, ahová Iceman kerül, tölti életfogytiglani börtönbüntetését Monroe Hutchen (Wesley Snipes), aki tíz éve a börtön koronázatlan bajnoka. A Sweetwater börtön életfogytig lakója Emmanuel Ripstein (Peter Falk) is, akit még mindig jó kapcsolatok fűznek a kormányzathoz, a maffiához és a
börtönigazgatósághoz is. A két bajnok között a börtönben óriási feszültség vibrál. Ripstein felismeri az ellentétek adta üzleti lehetőséget, s megszervezi Monroe és Iceman mérkőzését.

Video:
Méret: 1,46 GiB
Hossz: 01:33:36.861
Formátum: MPEG-4 Visual
Felbontás: 720x304
Bitráta: 1 832 Kbps
Képkocka / mp: 23,976
Képarány: 2.35:1
Hangsávok száma: 1

Audio:
Hangsáv #1
Formátum: AC-3 (Audio Coding 3)
Csatornák száma: 6
Bitráta: 384 Kbps
Mintavételezési frekvencia: 48.0 KHz​

Data.hu prémium letöltőlinkek
[HIDE-THANKS]
Kód:
https://data.hu/get/12776258/Vitathatatlan.1.2002.BDRip.HUN-LV.part1.rar
https://data.hu/get/12776260/Vitathatatlan.1.2002.BDRip.HUN-LV.part2.rar
https://data.hu/get/12776256/Vitathatatlan.1.2002.BDRip.HUN-LV.part3.rar
https://data.hu/get/12776257/Vitathatatlan.1.2002.BDRip.HUN-LV.part4.rar
https://data.hu/get/12776259/Vitathatatlan.1.2002.BDRip.HUN-LV.part5.rar
[/HIDE-THANKS]
A kicsomagoláshoz nem kell jelszó!
 

Tigris5

Állandó Tag
Állandó Tag
Vitathatatlan 2: Börtönbox (Undisputed 2: Last Man Standing) 2006 (5.1)
Színes, magyarul beszélő, amerikai-német akció

Vitathatatlan.2.2006.BDRip.HUN-LV.avi
Data.hu prémium letöltőlinkek


UEDRyWQ.jpg



Rendezte:
Isaac Florentine

Szereplők:
Michael Jai White (George)
Scott Adkins (Uri)
Ben Cross (Stevie Parker)
Eli Danker (Crot)
Velizar Binev (Kiril)

Tartalom:
George "Iceman" Chamberst, a nehézsúlyú bokszvilágbajnokot drogcsempészés vádjával egy kegyetlen orosz börtönbe zárják. Odabenn semmi joga nincs, lépten-nyomon megalázzák, és megkínozzák. Csak egy módon szabadulhat, ha megküzd a ringben a maffiavezér pártfogoltjával, a kegyetlen Boykával. Itt nincsenek szabályok, és semmit nem érnek az eddigi címek. Képes lesz-e túlélni egy orosz börtön poklát? Küzdelem életre-halálra kesztyű nélkül.

Video:
Méret: 1,09 GiB
Hossz: 01:37:35.850
Formátum: MPEG-4 Visual
Felbontás: 624x336
Bitráta: 1 142 Kbps
Képkocka / mp: 23,976
Képarány: 1.85:1
Hangsávok száma: 1

Audio:
Hangsáv #1
Formátum: AC-3 (Audio Coding 3)
Csatornák száma: 6
Bitráta: 448 Kbps
Mintavételezési frekvencia: 48.0 KHz​

Data.hu prémium letöltőlinkek
[HIDE-THANKS]
Kód:
https://data.hu/get/12776577/Vitathatatlan.2.2006.BDRip.HUN-LV.part1.rar
https://data.hu/get/12776579/Vitathatatlan.2.2006.BDRip.HUN-LV.part2.rar
https://data.hu/get/12776578/Vitathatatlan.2.2006.BDRip.HUN-LV.part3.rar
https://data.hu/get/12776580/Vitathatatlan.2.2006.BDRip.HUN-LV.part4.rar
[/HIDE-THANKS]
A kicsomagoláshoz nem kell jelszó!
 

Tigris5

Állandó Tag
Állandó Tag
Vitathatatlan 3. (Undisputed 3: Redemption) 2010 (5.1)
Színes, magyarul beszélő, amerikai-német akció

Vitathatatlan.3.2010.BDRip.HUN-LV.avi
Data.hu prémium letöltőlinkek


8te073G.jpg


Rendezte:
Isaac Florentine

Szereplők:
Scott Adkins (Yuri Boyka)
Mykel Shannon Jenkins (Turbo)
Mark Ivanir (Gaga)
Hristo Shopov (Kuss börtönigazgató)
Marko Zaror (Raul "Dolor" Quinones)
Robert Costanzo (Farnatti)
Vernon Dobtcheff (Rezo)
Anton Trendafilov (Vízhordó)

Tartalom:
Boyka orosz őrizetes rab súlyos térdsérülést szenvedett. Már nem a rettegett börtön harcos aki volt, lehanyatlott, már csak jó WC. tisztító. De amikor egy új börtön küzdelem (verseny) veszi kezdetét - egy nemzetközi ügy kapcsán ? a legjobb börtön harcosok részvételével szerte a világon, újra csábító a szabadság ígérete a győztesnek. Boyka-nak vissza kell szerezni méltóságát és helyzetét a versenyben.

Video:
Méret: 1,46 GiB
Hossz: 01:36:01.756
Formátum: MPEG-4 Visual
Felbontás: 720x400
Bitráta: 1 718 Kbps
Képkocka / mp: 23,976
Képarány: 16:9
Hangsávok száma: 1

Audio:
Hangsáv #
Formátum: AC-3 (Audio Coding 3)
Csatornák száma: 6
Bitráta: 448 Kbps
Mintavételezési frekvencia: 48.0 KHz​

Data.hu prémium letöltőlinkek
[HIDE-THANKS]
Kód:
https://data.hu/get/12777696/Vitathatatlan.3.2010.BDRip.HUN-LV.part1.rar
https://data.hu/get/12777700/Vitathatatlan.3.2010.BDRip.HUN-LV.part2.rar
https://data.hu/get/12777699/Vitathatatlan.3.2010.BDRip.HUN-LV.part3.rar
https://data.hu/get/12777697/Vitathatatlan.3.2010.BDRip.HUN-LV.part4.rar
https://data.hu/get/12777698/Vitathatatlan.3.2010.BDRip.HUN-LV.part5.rar
[/HIDE-THANKS]
A kicsomagoláshoz nem kell jelszó!
 

Tigris5

Állandó Tag
Állandó Tag
Vitathatatlan 4 (Boyka: Undisputed IV) 2016
Színes, magyarul beszélő, amerikai-bolgár akció, dráma, sport

Vitathatatlan.4.2016.BDRip.HUN-LV.mkv
Data.hu prémium letöltőlinkek


KKMh56m.jpg


Rendezte:
Todor Chapkanov

Szereplők:
Scott Adkins (Boyka)
Teodora Duhovnikova (Alma)
Alon Aboutboul (Zourab)
Julian Vergov (Slava)
Brahim Achabbakhe (Igor Kazmir)
Paul Chahidi (Kiril)
Petio Petkov (Dominik)

Tartalom:
Yuri Boyka elindul egy európai harcművész-versenyen. Amikor a kvalifikáció során a ringben megöli ellenfelét, Viktora Gregovát, vívódni kezd lelkiismeretével és megkérdőjelezi, hogy van-e értelme az egész sportnak. Amikor pedig rájön, hogy Viktora feleségét, Almát milyen bajban van, ugyanis a volt férjének elszámolatlan ügye volt a helyi maffiával, Boyka nem habozik, hogy segítsen neki. Az ügy megoldása azonban még a világ legjobb harcosának is leküzdhetetlen kihívást jelent.

Video:
Méret: 900,68 MiB
Hossz: 01:30:11.406
Formátum: AVC (Advanced Video Codec)
Felbontás: 720x390
Bitráta: 1 170 Kbps
Képkocka / mp: 23,976
Képarány: 1.85:1
Hangsávok száma: 1

Audio:
Hangsáv #1[/b]
Nyelv: Hungarian
Formátum: AC-3 (Audio Coding 3)
Csatornák száma: 2
Bitráta: 224 Kbps
Mintavételezési frekvencia: 48.0 KHz​

Data.hu prémium letöltőlinkek
[HIDE-THANKS]
Kód:
https://data.hu/get/12774429/Vitathatatlan.4.2016.BDRip.HUN-LV.part1.rar
https://data.hu/get/12774430/Vitathatatlan.4.2016.BDRip.HUN-LV.part2.rar
https://data.hu/get/12774431/Vitathatatlan.4.2016.BDRip.HUN-LV.part3.rar
[/HIDE-THANKS]
A kicsomagoláshoz nem kell jelszó!
 

balboka

Állandó Tag
Állandó Tag


Rendbontók 2020 BDRiP DD2.0 x264 Hun

tt914810.jpg

Eredeti cím:
Misbehaviour
sFilm adatlap:
sFilm
Év:
2020
Játékidő:
106 perc
imdb_icon értékelés:
6.2
Kategória:
Vígjáték, Dráma, Történelmi
Írók:
Rebecca Frayn, Gaby Chiappe
Rendező:
Philippa Lowthorpe
Szereplők:
Greg Kinnear (Bob Hope), Stephen Boxer (Professor Davidson), Keeley Hawes (Julia Morley), Rhys Ifans (Eric Morley), Keira Knightley (Sally Alexander), Justin Salinger (Bearded Marxist Professor), Daniel Tiplady (Archie), Ruby Bentall (Sarah), Ed Eales White (Journalist #1 (as Ed Eales-White)), Ed Eales White (Journalist 1 (as Ed Eales-White)), Jessie Buckley (Jo Robinson), Jo Herbert (Sheila), John Heffernan (Gareth), Lily Newmark (Jane), Kajsa Mohammar (Eva Reuber-Staier), Maya Kelly (Abi)


Leírás:
1970-ben Londonban került sor a Miss World szépségversenyre, amelynek a híres amerikai komikus, Bob Hope volt a házigazdája. Akkoriban a Miss World volt a bolygó legnézettebb tévéműsora, több mint 100 millió nézővel. Azt állítva, hogy a szépségversenyek lealacsonyítják a nőket, az újonnan megalakult Női Felszabadító Mozgalom egyik napról a másikra közismertté vált azzal, hogy betört a színpadra és megzavarta a verseny élő közvetítését. Ezen túl az eredmény is felzúdulást váltott ki: nem a svéd kedvenc, hanem Miss Grenada nyert – az első fekete nő, akit megkoronáztak a Miss Worldön. A patriarchátus nyilvános leszereplésének ténye órák alatt eljutott a bolygó minden pontjára, és ezzel a nyugati szépségideál 180 fokos fordulatot vett.


General : G:\Misbehaviour.2020.BDRiP.DD2.0.x264.Hun-ARROW.mkv
Format : Matroska at 1 586 kb/s
Length : 1.18 GiB for 1 h 46 min 21 s 312 ms

Video #0 : AVC at 1 201 kb/s
Aspect : 720 x 302 (2.384) at 24.000 fps

Audio #0 : AC-3 at 384 kb/s
Infos : 2 channels, 48.0 kHz
Language : hu

Text #0 : UTF-8
Language : hu


nézd itt
[hide]
Kód:
https://waaw.to/f/vP3MhIapXZCx
vagy
https://aparat.cam/3ftwm3sr6a37/Misbehaviour.2020.BDRiP.DD2.0.x264.Hun-ARROW.mkv.html


vagy tölsd le itt

Kód:
https://datoid.cz/iNTK4M/misbehaviour-2020-bdrip-dd2-0-x264-hun-arrow-part1-rar
https://datoid.cz/HPoTBH/misbehaviour-2020-bdrip-dd2-0-x264-hun-arrow-part2-rar

Kód:
https://fastshare.cz/15704055/misbehaviour.2020.bdrip.dd2.0.x264.hun-arrow.mkv
[hide]
 

balboka

Állandó Tag
Állandó Tag


A kém lelke (The Operative) 2019 BDRip x264 Hun




sFilm adatlap:
The Operative
sFilm
Év:
2019
Játékidő:
116 perc
imdb_icon értékelés:
5.7
Kategória:
Akció, Dráma, Misztikus, Thriller
Írók:
Yiftach R. Atir, Yuval Adler
Rendező:
Yuval Adler
Szereplők:
Cas Anvar (Farhad), Martin Freeman (Thomas), Yohanan Herson (Joe), Ohad Knoller (Stefan), Ohad Knoller (Stephen), Barnaby Metschurat (Operative #4), Doron Tsabari (Ronnie), Rita Bäde (Woman donation), Annette Atzpodien (School secretary), Mohsen Azimi (Custom offical), Mehdi Mosadekpur (Passport Offical), Diane Kruger (Rachel), Lana Ettinger (Operative #2), Bastian Volkmer (Bodyguard Röska), Yoav Levi (Operative #1), Daniel Wandelt (Max), Rotem Keinan (Daniel), Kate Nichols (Beatrice), Gal Friedman (Operative #3), Julia Schneider (Woman in line)

Leírás:
A Mossad felbérel egy nőt, hogy titkosügynökként dolgozzon Teheránban.


General : E:\the.operative.bdrip-no1.mkv
Format : Matroska at 1 685 kb/s
Length : 1.38 GiB for 1 h 56 min 57 s 10 ms

Video #0 : AVC at 1 427 kb/s
Aspect : 720 x 302 (2.384) at 23.976 fps

Audio #0 : AC-3 at 256 kb/s
Infos : 2 channels, 48.0 kHz
Language : hu

Text #0 : UTF-8
Language : hu

Text #1 : UTF-8
Language : hu



nézd itt
[hide]
Kód:
https://waaw.to/f/7njqsDESGypI
vagy
https://aparat.cam/xsgmqsmn5vry/the.operative.bdrip-no1.mkv.html

vagy tölsd le itt
Kód:
https://datoid.cz/UsewSR/the-operative-bdrip-no1-part1-rar
https://datoid.cz/pQEpvI/the-operative-bdrip-no1-part2-rar
vagy
https://fastshare.cz/15704390/the.operative.bdrip-no1.part1.rar
https://fastshare.cz/15704408/the.operative.bdrip-no1.part2.rar
[/hide]

 

papadi

Állandó Tag
Állandó Tag
Folytassa...! (Carry on...!)
10 DVD a sorozatból (dvd/iso és dvdrip)

35cde81b6c7e0e187c996f14934e26d0.jpg


Folytassa Cleo!
(Carry On Cleo)
Angol vígjáték (1964)
Főszereplők: Sid James, Kenneth Williams, Kenneth Connor, Charles Hawtrey, Joan Sims, Jim Dale, Amanda Barrie
Rendezte: Gerald Thomas
Computer Panoráma 2005/7
Hang: magyar, angol
Felirat: magyar

Caesar sebeit nyalogatja sikertelen európai hadjárata után. Elküldi legjobb barátját, Antoniust, hogy kössön stratégiai szövetséget a Ptolemaiosszal, aki Cleopátrával harcol az egyiptomi trónért. Antoniust teljesen rabul ejti az egyiptomi hercegnő szépsége és nem követi császára parancsát, sőt összeesküvést forral ellene Cleopátrával. Caesar azonban átlát a sötét terven és megparancsolja kisnövésű testőrének, Hengistnek, aki legyőzhetetlennek képzeli magát, hogy helyettesítse őt. A megrémült testőr Cleo szerelmi bájitalának köszönhetően dühöngő őrültté változik és Cleo iránti szerelmi kitörései majdnem meghiúsítják az egész tervet. Bár Caesar sorsa megpecsételődött, mégis minden jóra fordul. Antonius és Cleopátra tejben-vajban fürdőzik naphosszat, Hengist pedig magával viszi a szerelmi bájitalt szülőhazájába, Angliába…

1964/2005 - dvd - 4,64 GB - 720x576 - 32/48 kbps - 1:28:02
Kód:
https://data.hu/get/11362237/D0464d.part1.rar
https://data.hu/get/11362235/D0464d.part2.rar
https://data.hu/get/11362238/D0464d.part3.rar
https://data.hu/get/11362233/D0464d.part4.rar
https://data.hu/get/11362236/D0464d.part5.rar

40e5817bf2465c21a02d749b54ed5404.jpg


Formátum: dvdrip/avi
Méret: 880 MB
Felbontás: 720x416
Mintavételi frekvencia: 48000 Hz
Bitsebesség: 128 kbps
Műsoridő: 1:2:02

I:\0000\D0464av\D0464av\Folytassa Cleo!\avi\Folytassa Cleo!.avi
General
Complete name : I:\0000\D0464av\D0464av\Folytassa Cleo!\avi\Folytassa Cleo!.avi
Format : AVI
Format/Info : Audio Video Interleave
File size : 879 MiB
Duration : 1 h 28 min
Overall bit rate : 1 396 kb/s
Writing application : VirtualDubMod 1.5.4.1 (build 2178/release)
Writing library : VirtualDubMod build 2178/release
Video #0
ID : 0
Format : MPEG-4 Visual
Format profile : Advanced [email protected]
Format settings, BVOP : 1
Format settings, QPel : No
Format settings, GMC : No warppoints
Format settings, Matrix : Custom
Codec ID : XVID
Codec ID/Hint : XviD
Duration : 1 h 28 min
Bit rate : 1 130 kb/s
Width : 720 pixels
Height : 416 pixels
Display aspect ratio : 1.731
Frame rate : 25.000 FPS
Color space : YUV
Chroma subsampling : 4:2:0
Bit depth : 8 bits
Scan type : Progressive
Compression mode : Lossy
Bits/(Pixel*Frame) : 0.151
Stream size : 711 MiB (81%)
Writing library : XviD 1.2.1 (UTC 2008-12-04)
Audio #1
ID : 1
Format : MPEG Audio
Format version : Version 1
Format profile : Layer 3
Mode : Joint stereo
Mode extension : MS Stereo
Codec ID : 55
Codec ID/Hint : MP3
Duration : 1 h 28 min
Bit rate mode : Constant
Bit rate : 128 kb/s
Channel(s) : 2 channels
Sampling rate : 48.0 kHz
Compression mode : Lossy
Stream size : 80.6 MiB (9%)
Alignment : Aligned on interleaves
Interleave, duration : 80 ms (2.00 video frames)
Interleave, preload duration : 504 ms
Writing library : LAME3.98r
Encoding settings : -m j -V 4 -q 2 -lowpass 17 -b 128
Audio #2
ID : 2
Format : MPEG Audio
Format version : Version 1
Format profile : Layer 3
Mode : Joint stereo
Mode extension : MS Stereo
Codec ID : 55
Codec ID/Hint : MP3
Duration : 1 h 28 min
Bit rate mode : Constant
Bit rate : 128 kb/s
Channel(s) : 2 channels
Sampling rate : 48.0 kHz
Compression mode : Lossy
Stream size : 80.6 MiB (9%)
Alignment : Aligned on interleaves
Interleave, duration : 80 ms (2.00 video frames)
Interleave, preload duration : 504 ms
Writing library : LAME3.98r
Encoding settings : -m j -V 4 -q 2 -lowpass 17 -b 128

Kód:
https://data.hu/get/13006933/D0464av.part1.rar
https://data.hu/get/13006941/D0464av.part2.rar
https://data.hu/get/13006943/D0464av.part3.rar
https://data.hu/get/13006936/D0464av.part4.rar
https://data.hu/get/13006935/D0464av.part5.rar
 

papadi

Állandó Tag
Állandó Tag
14afbfd51614d3fe5a796d380df8dc47.jpg


Folytassa forradalmár avagy Ne veszítsd el a fejedet!
(Don’t Lose Your Head)
Angol vígjáték (1966)
Főszereplők: Sidney James, Jim Dale, Kenneth Williams, Charles Hawtrey, Peter Butterworth, Joan Sims, Dany Robin
Rendezte: Gerald Thomas
Computer Panoráma 2002/8
Hang: magyar, angol
Felirat: magyar

Párizs, 1789 - zajlanak a Francia Forradalom eseményei. A guillotine-os kivégzések során a leggazdagabb nemesek lesznek egy fejjel kisebbek. Két angol jampec, Sir Rodney Ffing (Sidney James) és társa Lord Darcy Pew (Jim Dale) elhatározzák, hogy elutaznak a forradalmi Franciaországba, hátha megtudnak menteni pár fejet a rojalista arisztokrata haveri körből. Ffing a titokzatos hős Fekete Köröm álruhájába bújik, aki nevét a névjegyén látható piszkos körméről kapta. Miután Köröm megmenti a prominens rojalista Duc de Pommfrit életét, Robespierre elrendeli a titkosrendőrség főnökénél, hogy Camembert és Bidet polgártárs kövesse őt Angliába és végezzen vele. Calais kikötőjében a hős Köröm találkozik Jacqueline-nel, akivel rögtön egymásba szeretnek. Felfedi neki valódi kilétét és szerelme zálogául odaadja a lányanak medalionját. Ez viszont nem volt túl szerencsés ötlet, mert a hülye Camembert azt hiszi, sikerült elkapnia az álruhás hőst és tévedésből Jacqueline-t veti a félelmetes Bastille börtönébe…

1966/2002 - dvd - 3,75 GB - 704x576 - 32/48 - 1:27:01
Kód:
https://data.hu/get/11362510/D0022d.part1.rar
https://data.hu/get/11362512/D0022d.part2.rar
https://data.hu/get/11362513/D0022d.part3.rar
https://data.hu/get/11362511/D0022d.part4.rar

0ecda678da0f885ecca6b07b8347b99f.jpg


Formátum: dvdrip/avi
Méret: 970 MB
Felbontás: 720x544
Mintavételi frekvencia: 48000 Hz
Bitsebesség: 128 kbps
Műsoridő: 1:27:01

I:\0000\D0022av\D0022av\Folytassa forradalmár\avi\Folytassa forradalmár.avi
General
Complete name : I:\0000\D0022av\D0022av\Folytassa forradalmár\avi\Folytassa forradalmár.avi
Format : AVI
Format/Info : Audio Video Interleave
File size : 968 MiB
Duration : 1 h 27 min
Overall bit rate : 1 555 kb/s
Writing application : VirtualDubMod 1.5.4.1 (build 2178/release)
Writing library : VirtualDubMod build 2178/release
Video #0
ID : 0
Format : MPEG-4 Visual
Format profile : Advanced [email protected]
Format settings, BVOP : 1
Format settings, QPel : No
Format settings, GMC : No warppoints
Format settings, Matrix : Custom
Codec ID : XVID
Codec ID/Hint : XviD
Duration : 1 h 27 min
Bit rate : 1 289 kb/s
Width : 720 pixels
Height : 544 pixels
Display aspect ratio : 4:3
Frame rate : 25.000 FPS
Color space : YUV
Chroma subsampling : 4:2:0
Bit depth : 8 bits
Scan type : Progressive
Compression mode : Lossy
Bits/(Pixel*Frame) : 0.132
Stream size : 803 MiB (83%)
Writing library : XviD 1.2.1 (UTC 2008-12-04)
Audio #1
ID : 1
Format : MPEG Audio
Format version : Version 1
Format profile : Layer 3
Mode : Joint stereo
Mode extension : MS Stereo
Codec ID : 55
Codec ID/Hint : MP3
Duration : 1 h 27 min
Bit rate mode : Constant
Bit rate : 128 kb/s
Channel(s) : 2 channels
Sampling rate : 48.0 kHz
Compression mode : Lossy
Stream size : 79.7 MiB (8%)
Alignment : Aligned on interleaves
Interleave, duration : 80 ms (2.00 video frames)
Interleave, preload duration : 504 ms
Writing library : LAME3.98r
Encoding settings : -m j -V 4 -q 2 -lowpass 17 -b 128
Audio #2
ID : 2
Format : MPEG Audio
Format version : Version 1
Format profile : Layer 3
Mode : Joint stereo
Mode extension : MS Stereo
Codec ID : 55
Codec ID/Hint : MP3
Duration : 1 h 27 min
Bit rate mode : Constant
Bit rate : 128 kb/s
Channel(s) : 2 channels
Sampling rate : 48.0 kHz
Compression mode : Lossy
Stream size : 79.7 MiB (8%)
Alignment : Aligned on interleaves
Interleave, duration : 80 ms (2.00 video frames)
Interleave, preload duration : 504 ms
Writing library : LAME3.98r
Encoding settings : -m j -V 4 -q 2 -lowpass 17 -b 128

Kód:
https://data.hu/get/11364834/D0022av.part1.rar
https://data.hu/get/11364838/D0022av.part2.rar
https://data.hu/get/11364839/D0022av.part3.rar
https://data.hu/get/11364837/D0022av.part4.rar
https://data.hu/get/11364836/D0022av.part5.rar
https://data.hu/get/11364835/D0022av.part6.rar
 

papadi

Állandó Tag
Állandó Tag
be650f3ed5c1842ded1a9219eee5dbbb.jpg


Folytassa a sivatagban! (Folytassa az idegenlégióban!)
(Follow That Camel)
Angol filmvígjáték (1967)
Főszereplők: Phil Silvers, Kenneth Williams, Jim Dale, Charles Hawtrey, Peter Butterworth, Joan Sims, Angela Douglas, Bernard Bresslaw
Rendezte: Gerald Thomas
Computer Panoráma 2002/12
Hang: magyar, angol
Felirat: magyar

Bo West, a kifogástalan modern ifjú gentleman túltengő önérzete nehezen viseli el, hogy szerelme nem viszonozza kellőképpen érzéseit, ezért az Idegenlégióba áll. Pedig a bajok valójában már a krikettpályán kezdődtek, amikor Bagshaw kapitány elhasalt egy meccslabdán. Arra már sosem derül fény, hogy ezt a szerencsétlen balesetet a cipőfűzője vagy netán Bo okozta, mindenesetre a kapitány harakirit követ el, amikor megtudja, hogy országos cimborája a légióba állt. Aggódása nem volt alaptalan, hiszen a sivatag poklában a légiósoknak iszonyatos szenvedéseket kell kiállniuk. Bo számtalan humoros kaland után Abdul sejk háremében köt ki, ahol megtalálja szerelmét, aki jelenleg a 13-as sorszámú feleség…

2002/1967 - dvd - 3,92 GB - 704x576 - 32/48 - 1:31:01
Kód:
https://data.hu/get/11362639/D0014d.part1.rar
https://data.hu/get/11362640/D0014d.part2.rar
https://data.hu/get/11362641/D0014d.part3.rar
https://data.hu/get/11362642/D0014d.part4.rar

41a98d74470cab8372f925e666b2cafb.jpg


Formátum: dvdrip/avi
Méret: 909 MB
Felbontás: 720x416
Mintavételi frekvencia: 48000 Hz
Bitsebesség: 128 kbps
Műsoridő: 1:31:01

I:\0000\D0014av\D0014av\Folytassa az idegenlégióban\avi\Folytassa az idegenlégióban.avi
General
Complete name : I:\0000\D0014av\D0014av\Folytassa az idegenlégióban\avi\Folytassa az idegenlégióban.avi
Format : AVI
Format/Info : Audio Video Interleave
File size : 907 MiB
Duration : 1 h 31 min
Overall bit rate : 1 394 kb/s
Writing application : VirtualDubMod 1.5.4.1 (build 2178/release)
Writing library : VirtualDubMod build 2178/release
Video #0
ID : 0
Format : MPEG-4 Visual
Format profile : Advanced [email protected]
Format settings, BVOP : 1
Format settings, QPel : No
Format settings, GMC : No warppoints
Format settings, Matrix : Custom
Codec ID : XVID
Codec ID/Hint : XviD
Duration : 1 h 31 min
Bit rate : 1 128 kb/s
Width : 720 pixels
Height : 416 pixels
Display aspect ratio : 1.731
Frame rate : 25.000 FPS
Color space : YUV
Chroma subsampling : 4:2:0
Bit depth : 8 bits
Scan type : Progressive
Compression mode : Lossy
Bits/(Pixel*Frame) : 0.151
Stream size : 734 MiB (81%)
Writing library : XviD 1.2.1 (UTC 2008-12-04)
Audio #1
ID : 1
Format : MPEG Audio
Format version : Version 1
Format profile : Layer 3
Mode : Joint stereo
Mode extension : MS Stereo
Codec ID : 55
Codec ID/Hint : MP3
Duration : 1 h 31 min
Bit rate mode : Constant
Bit rate : 128 kb/s
Channel(s) : 2 channels
Sampling rate : 48.0 kHz
Compression mode : Lossy
Stream size : 83.3 MiB (9%)
Alignment : Aligned on interleaves
Interleave, duration : 80 ms (2.00 video frames)
Interleave, preload duration : 504 ms
Writing library : LAME3.98r
Encoding settings : -m j -V 4 -q 2 -lowpass 17 -b 128
Audio #2
ID : 2
Format : MPEG Audio
Format version : Version 1
Format profile : Layer 3
Mode : Joint stereo
Mode extension : MS Stereo
Codec ID : 55
Codec ID/Hint : MP3
Duration : 1 h 31 min
Bit rate mode : Constant
Bit rate : 128 kb/s
Channel(s) : 2 channels
Sampling rate : 48.0 kHz
Compression mode : Lossy
Stream size : 83.3 MiB (9%)
Alignment : Aligned on interleaves
Interleave, duration : 80 ms (2.00 video frames)
Interleave, preload duration : 504 ms
Writing library : LAME3.98r
Encoding settings : -m j -V 4 -q 2 -lowpass 17 -b 128

Kód:
https://data.hu/get/11364846/D0014av.part1.rar
https://data.hu/get/11364842/D0014av.part2.rar
https://data.hu/get/11364844/D0014av.part3.rar
https://data.hu/get/11364843/D0014av.part4.rar
https://data.hu/get/11364845/D0014av.part5.rar
 

papadi

Állandó Tag
Állandó Tag
cbc1771f7a67adfdca258b726f55b0aa.jpg


Folytassa Doktor!
(Carry on Doctor)
Angol vígjáték (1967)
Főszereplők: Frankie Howard, Sidney James, Charles Hawtrey, Kenneth Williams, Jim Dale, Barbara Windsor, Joan Sims, Bernard Bresslaw, Hattie Jacques, Peter Butterworth
Rendezte: Gerald Thomas
Folytassa-sorozat
Hang: magyar, angol
Felirat: magyar

Ebben a kórházban mindenki meghal - A RÖHÖGÉSTŐL!
A Folytassa-sorozat legjobban sikerült kórházi komédiájában eszméletlenül szexi nővér, megvadult betegek, idióta orvosok és persze a kibírhatatlan matróna főnővér dolgozzák meg a rekeszizmainkat.
A Borough Megyei Kórházban a vasfegyelemhez kézzel-lábbal ragaszkodó, kérlelhetetlen szigoráról ismert Dr. Tinkle (Kenneth Williams) veszi át az irányítást. Tekintélyét alaposan megtépázza, hogy a betegek fellázadnak az újonnan bevezetett rend ellen és csak olaj a tűzre a hihetetlenül szexi nővér, Sandra May érkezése, aki a kórház teljes férfipopulációjának vérnyomását tornássza az egekig.


1967/2002 - dvd/iso - 3,91 GB - 704x576 - 32/48 - 1:30:45
Kód:
https://data.hu/get/11362861/D0033i.part1.rar
https://data.hu/get/11362865/D0033i.part2.rar
https://data.hu/get/11362864/D0033i.part3.rar
https://data.hu/get/11362862/D0033i.part4.rar

de7c2cf0f494805f41ee1d983bc6773e.jpg


Formátum: dvdrip/avi
Méret: 907 MB
Felbontás: 720x544
Mintavételi frekvencia: 48000 Hz
Bitsebesség: 128 kbps
Műsoridő: 1:30:45

I:\0000\D0033av\D0033av\Folytassa doktor!\avi\Folytassa doktor!.avi
General
Complete name : I:\0000\D0033av\D0033av\Folytassa doktor!\avi\Folytassa doktor!.avi
Format : AVI
Format/Info : Audio Video Interleave
File size : 904 MiB
Duration : 1 h 30 min
Overall bit rate : 1 393 kb/s
Writing application : VirtualDubMod 1.5.4.1 (build 2178/release)
Writing library : VirtualDubMod build 2178/release
Video #0
ID : 0
Format : MPEG-4 Visual
Format profile : Advanced [email protected]
Format settings, BVOP : 1
Format settings, QPel : No
Format settings, GMC : No warppoints
Format settings, Matrix : Custom
Codec ID : XVID
Codec ID/Hint : XviD
Duration : 1 h 30 min
Bit rate : 1 127 kb/s
Width : 720 pixels
Height : 544 pixels
Display aspect ratio : 4:3
Frame rate : 25.000 FPS
Color space : YUV
Chroma subsampling : 4:2:0
Bit depth : 8 bits
Scan type : Progressive
Compression mode : Lossy
Bits/(Pixel*Frame) : 0.115
Stream size : 732 MiB (81%)
Writing library : XviD 1.2.1 (UTC 2008-12-04)
Audio #1
ID : 1
Format : MPEG Audio
Format version : Version 1
Format profile : Layer 3
Mode : Joint stereo
Mode extension : MS Stereo
Codec ID : 55
Codec ID/Hint : MP3
Duration : 1 h 30 min
Bit rate mode : Constant
Bit rate : 128 kb/s
Channel(s) : 2 channels
Sampling rate : 48.0 kHz
Compression mode : Lossy
Stream size : 83.1 MiB (9%)
Alignment : Aligned on interleaves
Interleave, duration : 80 ms (2.00 video frames)
Interleave, preload duration : 504 ms
Writing library : LAME3.98r
Encoding settings : -m j -V 4 -q 2 -lowpass 17 -b 128
Audio #2
ID : 2
Format : MPEG Audio
Format version : Version 1
Format profile : Layer 3
Mode : Joint stereo
Mode extension : MS Stereo
Codec ID : 55
Codec ID/Hint : MP3
Duration : 1 h 30 min
Bit rate mode : Constant
Bit rate : 128 kb/s
Channel(s) : 2 channels
Sampling rate : 48.0 kHz
Compression mode : Lossy
Stream size : 83.1 MiB (9%)
Alignment : Aligned on interleaves
Interleave, duration : 80 ms (2.00 video frames)
Interleave, preload duration : 504 ms
Writing library : LAME3.98r
Encoding settings : -m j -V 4 -q 2 -lowpass 17 -b 128

Kód:
https://data.hu/get/11365102/D0033av.part1.rar
https://data.hu/get/11365082/D0033av.part2.rar
https://data.hu/get/11365107/D0033av.part3.rar
https://data.hu/get/11365100/D0033av.part4.rar
https://data.hu/get/11365088/D0033av.part5.rar
 

papadi

Állandó Tag
Állandó Tag
558948e7291a08950059663504f5c513.jpg


Folytassa újra doktor
(Carry on Again Doctor)
Angol filmvígjáték (1969)
Főszereplők: Sid James, Kenneth Williams, Charles Hawtrey, Jim Dale, Joan Sims, Barbara Windsor, Hattie Jacques
Rendezte: Gerald Thomas
Folytassa sorozat
Hang: magyar, angol
Felirat: magyar

Mi történik a Long Hampton kórházban? Vajon az, hogy a betegek sikoltoznak éjszakánként, a gyógyulás jele, vagy ez olykor a praktizáló orvosok műve is lehet? A háború mélypontja ez orvos és páciense között vagy csak a kecsegtető kezdetek korszakát éljük? Ki a jövő orvosa, pontosabban melyik orvosé a jövő? A szépségszalonokat építő sarlatán vagy a megátalkodott gyógyító? Avagy „ahol a tabletta bemegy, ott lyuknak is kell lennie” illetve sohasem tudhatjuk, hogy a tantusz hová esik be, ráadásul, ha a doktor úr azt állítja, hogy ez egy hőmérő, készséggel hihető, bár alkalmasságának helye némileg meglepő…

Megjegyzés: a boritó szerint extra a film előzetese, de a korongon nincs.


1969/2007 - dvd/iso - 4,12 GB - 720x576 - 32/48 - 1:25:32
Kód:
https://data.hu/get/11363389/D1978i.part1.rar
https://data.hu/get/11363388/D1978i.part2.rar
https://data.hu/get/11363391/D1978i.part3.rar
https://data.hu/get/11363390/D1978i.part4.rar

e4cefe03d770bae2efd686cba8bf1c31.jpg


Formátum: dvdrip/avi
Méret: 855 MB
Felbontás: 720x416
Mintavételi frekvencia: 48000 Hz
Bitsebesség: 128 kbps
Műsoridő: 1:25:32

I:\0000\D1978av\D1978av\Folytassa újra doktor\avi\Folytassa újra doktor.avi
General
Complete name : I:\0000\D1978av\D1978av\Folytassa újra doktor\avi\Folytassa újra doktor.avi
Format : AVI
Format/Info : Audio Video Interleave
File size : 854 MiB
Duration : 1 h 25 min
Overall bit rate : 1 395 kb/s
Writing application : VirtualDubMod 1.5.4.1 (build 2178/release)
Writing library : VirtualDubMod build 2178/release
Video #0
ID : 0
Format : MPEG-4 Visual
Format profile : Advanced [email protected]
Format settings, BVOP : 1
Format settings, QPel : No
Format settings, GMC : No warppoints
Format settings, Matrix : Custom
Codec ID : XVID
Codec ID/Hint : XviD
Duration : 1 h 25 min
Bit rate : 1 129 kb/s
Width : 720 pixels
Height : 416 pixels
Display aspect ratio : 1.731
Frame rate : 25.000 FPS
Color space : YUV
Chroma subsampling : 4:2:0
Bit depth : 8 bits
Scan type : Progressive
Compression mode : Lossy
Bits/(Pixel*Frame) : 0.151
Stream size : 691 MiB (81%)
Writing library : XviD 1.2.1 (UTC 2008-12-04)
Audio #1
ID : 1
Format : MPEG Audio
Format version : Version 1
Format profile : Layer 3
Mode : Joint stereo
Mode extension : MS Stereo
Codec ID : 55
Codec ID/Hint : MP3
Duration : 1 h 25 min
Bit rate mode : Constant
Bit rate : 128 kb/s
Channel(s) : 2 channels
Sampling rate : 48.0 kHz
Compression mode : Lossy
Stream size : 78.3 MiB (9%)
Alignment : Aligned on interleaves
Interleave, duration : 80 ms (2.00 video frames)
Interleave, preload duration : 504 ms
Writing library : LAME3.98r
Encoding settings : -m j -V 4 -q 2 -lowpass 17 -b 128
Audio #2
ID : 2
Format : MPEG Audio
Format version : Version 1
Format profile : Layer 3
Mode : Joint stereo
Mode extension : MS Stereo
Codec ID : 55
Codec ID/Hint : MP3
Duration : 1 h 25 min
Bit rate mode : Constant
Bit rate : 128 kb/s
Channel(s) : 2 channels
Sampling rate : 48.0 kHz
Compression mode : Lossy
Stream size : 78.3 MiB (9%)
Alignment : Aligned on interleaves
Interleave, duration : 80 ms (2.00 video frames)
Interleave, preload duration : 504 ms
Writing library : LAME3.98r
Encoding settings : -m j -V 4 -q 2 -lowpass 17 -b 128

Kód:
https://data.hu/get/11365105/D1978av.part1.rar
https://data.hu/get/11365092/D1978av.part2.rar
https://data.hu/get/11365091/D1978av.part3.rar
https://data.hu/get/11365074/D1978av.part4.rar
https://data.hu/get/11365081/D1978av.part5.rar
 

papadi

Állandó Tag
Állandó Tag
58edcb9378f4eae005e358894f977901.jpg


Folytassa a dzsungelben
(Carry on Up the Jungle)
Angol vígjáték (1970)
Főszereplők: Frankie Howerd, Sid James, Charles Hawtrey, Joan Sims, Terry Scott, Kenneth Connor, Bernard Bresslaw
Rendezte: Gerald Thomas
Hang: magyar, angol
Felirat: magyar, angol

A Folytassa-sorozat csapata majomkodik a fekete Afrika dzsungelének mélyén. Az expedíció vezetője Inigo Tinkle professzor, aki egy különleges madárfajta felkutatására válogatta össze csupa balfácánból álló csapatát. Kalandozásaik során először egy óriásgorilla támadja meg őket, majd a kannibálok próbálják elfogyasztani őket, mikor is egy férfira éhes, csupa bomba nőből álló amazoncsapat siet a segítségükre, de ekkor már a primitív állati ösztönöket egyre nehezebb kordában tartani. Mindezek tetejébe állandóan a nyakukra jár egy alulöltözött, indákon himbálódzó Tarzan, aki még nálunk is szerencsétlenebb…

Extra:
Filmelőzetes (2:40)

1970/2006 - dvd/iso - 4,16 GB - 720x576 - 32/48 - 1:26:55+2:40
Kód:
https://data.hu/get/11363505/D1059i.part1.rar
https://data.hu/get/11363498/D1059i.part2.rar
https://data.hu/get/11363499/D1059i.part3.rar
https://data.hu/get/11363503/D1059i.part4.rar

474eb4f6cd786a89a5f0c91e7d86f06c.jpg


Formátum: dvdrip/avi
Méret: 871 MB
Felbontás: 720x416
Mintavételi frekvencia: 48000 Hz
Bitsebesség: 128 kbps
Műsoridő: 1:26:54

I:\0000\D1059av\D1059av\Folytassa a dzsungelben\avi\Folytassa a dzsungelben.avi
General
Complete name : I:\0000\D1059av\D1059av\Folytassa a dzsungelben\avi\Folytassa a dzsungelben.avi
Format : AVI
Format/Info : Audio Video Interleave
File size : 870 MiB
Duration : 1 h 26 min
Overall bit rate : 1 399 kb/s
Writing application : VirtualDubMod 1.5.4.1 (build 2178/release)
Writing library : VirtualDubMod build 2178/release
Video #0
ID : 0
Format : MPEG-4 Visual
Format profile : Advanced [email protected]
Format settings, BVOP : 1
Format settings, QPel : No
Format settings, GMC : No warppoints
Format settings, Matrix : Custom
Codec ID : XVID
Codec ID/Hint : XviD
Duration : 1 h 26 min
Bit rate : 1 133 kb/s
Width : 720 pixels
Height : 416 pixels
Display aspect ratio : 1.731
Frame rate : 25.000 FPS
Color space : YUV
Chroma subsampling : 4:2:0
Bit depth : 8 bits
Scan type : Progressive
Compression mode : Lossy
Bits/(Pixel*Frame) : 0.151
Stream size : 704 MiB (81%)
Writing library : XviD 1.2.1 (UTC 2008-12-04)
Audio #1
ID : 1
Format : MPEG Audio
Format version : Version 1
Format profile : Layer 3
Mode : Joint stereo
Mode extension : MS Stereo
Codec ID : 55
Codec ID/Hint : MP3
Duration : 1 h 26 min
Bit rate mode : Constant
Bit rate : 128 kb/s
Channel(s) : 2 channels
Sampling rate : 48.0 kHz
Compression mode : Lossy
Stream size : 79.6 MiB (9%)
Alignment : Aligned on interleaves
Interleave, duration : 80 ms (2.00 video frames)
Interleave, preload duration : 504 ms
Writing library : LAME3.98r
Encoding settings : -m j -V 4 -q 2 -lowpass 17 -b 128
Audio #2
ID : 2
Format : MPEG Audio
Format version : Version 1
Format profile : Layer 3
Mode : Joint stereo
Mode extension : MS Stereo
Codec ID : 55
Codec ID/Hint : MP3
Duration : 1 h 26 min
Bit rate mode : Constant
Bit rate : 128 kb/s
Channel(s) : 2 channels
Sampling rate : 48.0 kHz
Compression mode : Lossy
Stream size : 79.6 MiB (9%)
Alignment : Aligned on interleaves
Interleave, duration : 80 ms (2.00 video frames)
Interleave, preload duration : 504 ms
Writing library : LAME3.98r
Encoding settings : -m j -V 4 -q 2 -lowpass 17 -b 128

Kód:
https://data.hu/get/11365085/D1059av.part1.rar
https://data.hu/get/11365087/D1059av.part2.rar
https://data.hu/get/11365083/D1059av.part3.rar
https://data.hu/get/11365071/D1059av.part4.rar
https://data.hu/get/11365108/D1059av.part5.rar
 

papadi

Állandó Tag
Állandó Tag
2686dee0d2c99142c8914e70a057a706.jpg


Folytassa Henrik
(Carry On Henry)
Angol filmvígjáték (1971)
Főszereplők: Sid James, Kenneth Williams, Charles Hawtrey, Joan Sims, Terry Scott, Barbara Windsor, Kenneth Connor
Rendezte: Gerald Thomas
Computer Panoráma 2003/10
Hang: magyar, angol
Felirat: magyar

A történelemtudomány már-már lezártnak tekintette VIII. Henrik angol uralkodó botrányos házassági históriáit, amikor is egy új felfedezés teljesen lázba hozta a szakmai közvéleményt: VIII. Henriknek nem hat, hanem egyenesen hét felesége volt…

Extra:
Csodálatos Görögország
2. Szantorini (32:14)
A sorozat (ajánló) (8:09)
Magyr útifilm (2003)

1971/2003 - dvd - 5,28 GB - 720x576 - 32/48 - 1:27:09+40:23
Kód:
https://data.hu/get/13006942/D0123d.part1.rar
https://data.hu/get/13006932/D0123d.part2.rar
https://data.hu/get/13006940/D0123d.part3.rar
https://data.hu/get/13006939/D0123d.part4.rar
https://data.hu/get/13006931/D0123d.part5.rar
https://data.hu/get/13006934/D0123d.part6.rar

e804945c7da67d22de6b81b1eef1259b.jpg


Formátum: dvdrip/avi
Méret: 871 MB
Felbontás: 720x416
Mintavételi frekvencia: 48000 Hz
Bitsebesség: 128 kbps
Műsoridő: 1:27:09

I:\0000\D0123av\D0123av\Folytassa Henrik\avi\Folytassa Henrik.avi
General
Complete name : I:\0000\D0123av\D0123av\Folytassa Henrik\avi\Folytassa Henrik.avi
Format : AVI
Format/Info : Audio Video Interleave
File size : 869 MiB
Duration : 1 h 27 min
Overall bit rate : 1 394 kb/s
Writing application : VirtualDubMod 1.5.4.1 (build 2178/release)
Writing library : VirtualDubMod build 2178/release
Video #0
ID : 0
Format : MPEG-4 Visual
Format profile : Advanced [email protected]
Format settings, BVOP : 1
Format settings, QPel : No
Format settings, GMC : No warppoints
Format settings, Matrix : Custom
Codec ID : XVID
Codec ID/Hint : XviD
Duration : 1 h 27 min
Bit rate : 1 129 kb/s
Width : 720 pixels
Height : 416 pixels
Display aspect ratio : 1.731
Frame rate : 25.000 FPS
Color space : YUV
Chroma subsampling : 4:2:0
Bit depth : 8 bits
Scan type : Progressive
Compression mode : Lossy
Bits/(Pixel*Frame) : 0.151
Stream size : 704 MiB (81%)
Writing library : XviD 1.2.1 (UTC 2008-12-04)
Audio #1
ID : 1
Format : MPEG Audio
Format version : Version 1
Format profile : Layer 3
Mode : Joint stereo
Mode extension : MS Stereo
Codec ID : 55
Codec ID/Hint : MP3
Duration : 1 h 26 min
Bit rate mode : Constant
Bit rate : 128 kb/s
Channel(s) : 2 channels
Sampling rate : 48.0 kHz
Compression mode : Lossy
Stream size : 79.6 MiB (9%)
Alignment : Aligned on interleaves
Interleave, duration : 80 ms (2.00 video frames)
Interleave, preload duration : 504 ms
Writing library : LAME3.98r
Encoding settings : -m j -V 4 -q 2 -lowpass 17 -b 128
Audio #2
ID : 2
Format : MPEG Audio
Format version : Version 1
Format profile : Layer 3
Mode : Joint stereo
Mode extension : MS Stereo
Codec ID : 55
Codec ID/Hint : MP3
Duration : 1 h 27 min
Bit rate mode : Constant
Bit rate : 128 kb/s
Channel(s) : 2 channels
Sampling rate : 48.0 kHz
Compression mode : Lossy
Stream size : 79.8 MiB (9%)
Alignment : Aligned on interleaves
Interleave, duration : 80 ms (2.00 video frames)
Interleave, preload duration : 504 ms
Writing library : LAME3.98r
Encoding settings : -m j -V 4 -q 2 -lowpass 17 -b 128

Kód:
https://data.hu/get/11365089/D0123av.part1.rar
https://data.hu/get/11365097/D0123av.part2.rar
https://data.hu/get/11365072/D0123av.part3.rar
https://data.hu/get/11365090/D0123av.part4.rar
https://data.hu/get/11365103/D0123av.part5.rar
 

papadi

Állandó Tag
Állandó Tag
c073579ed3a7c290daba74a4b67811c8.jpg


Folytassa, amikor önnek megfelel
(Carry on at Your Convenience)
Angol filmvígjáték (1971)
Főszereplők: Sid James, Kenneth Williams, Charles Hawtrey, Joan Sims, Hattie Jacques, Bernard Bresslaw, Kenneth Cope, Patsy Rowlands, Jacki Piper, Richard O'Callaghan
Rendezte: Gerald Thomas
Folytassa... (Carry on)
Hang: magyar, angol
Felirat: magyar

W.C. Boggs kis cége wc-csészéket gyárt, vagyis gyártana, ha nem sztrájkolna a munkaerő. Csakhogy Vic Spanner, a szakszervezetis minden alkalmat megragad, hogy kihívja a dolgozókat. Hogy a kedélyeket megnyugtassa, Sid Plummer javasol egy megoldást, valamit, ami a cég vezetőinek is jó ötletnek tűnik. A társulattól megszokott fergeteges komédiázásnak most külön ízt ad a szakszervezeteket érintő markáns irónia és a bátor kiállás az olyan fontos téma mellett, mint a mellékhelységet illető történések.

1971/2007 - dvd/iso - 4,22 GB - 720x576 - 32/48 - 1:26:10
Kód:
https://data.hu/get/11363790/D2067i.part1.rar
https://data.hu/get/11363797/D2067i.part2.rar
https://data.hu/get/11363803/D2067i.part3.rar
https://data.hu/get/11363801/D2067i.part4.rar
https://data.hu/get/11363802/D2067i.part5.rar

623322f7b57f9a61ac1b2d04b5822ace.jpg


Formátum: dvdrip/avi
Méret: 861 MB
Felbontás: 720x416
Mintavételi frekvencia: 48000 Hz
Bitsebesség: 128 kbps
Műsoridő: 1:26:10

I:\0000\D2067av\D2067av\Folytassa amikor önnek megfelel\avi\Folytassa amikor önnek megfelel.avi
General
Complete name : I:\0000\D2067av\D2067av\Folytassa amikor önnek megfelel\avi\Folytassa amikor önnek megfelel.avi
Format : AVI
Format/Info : Audio Video Interleave
File size : 859 MiB
Duration : 1 h 26 min
Overall bit rate : 1 394 kb/s
Writing application : VirtualDubMod 1.5.4.1 (build 2178/release)
Writing library : VirtualDubMod build 2178/release
Video #0
ID : 0
Format : MPEG-4 Visual
Format profile : Advanced [email protected]
Format settings, BVOP : 1
Format settings, QPel : No
Format settings, GMC : No warppoints
Format settings, Matrix : Custom
Codec ID : XVID
Codec ID/Hint : XviD
Duration : 1 h 26 min
Bit rate : 1 128 kb/s
Width : 720 pixels
Height : 416 pixels
Display aspect ratio : 1.731
Frame rate : 25.000 FPS
Color space : YUV
Chroma subsampling : 4:2:0
Bit depth : 8 bits
Scan type : Progressive
Compression mode : Lossy
Bits/(Pixel*Frame) : 0.151
Stream size : 695 MiB (81%)
Writing library : XviD 1.2.1 (UTC 2008-12-04)
Audio #1
ID : 1
Format : MPEG Audio
Format version : Version 1
Format profile : Layer 3
Mode : Joint stereo
Mode extension : MS Stereo
Codec ID : 55
Codec ID/Hint : MP3
Duration : 1 h 26 min
Bit rate mode : Constant
Bit rate : 128 kb/s
Channel(s) : 2 channels
Sampling rate : 48.0 kHz
Compression mode : Lossy
Stream size : 78.9 MiB (9%)
Alignment : Aligned on interleaves
Interleave, duration : 80 ms (2.00 video frames)
Interleave, preload duration : 504 ms
Writing library : LAME3.98r
Encoding settings : -m j -V 4 -q 2 -lowpass 17 -b 128
Audio #2
ID : 2
Format : MPEG Audio
Format version : Version 1
Format profile : Layer 3
Mode : Joint stereo
Mode extension : MS Stereo
Codec ID : 55
Codec ID/Hint : MP3
Duration : 1 h 26 min
Bit rate mode : Constant
Bit rate : 128 kb/s
Channel(s) : 2 channels
Sampling rate : 48.0 kHz
Compression mode : Lossy
Stream size : 78.9 MiB (9%)
Alignment : Aligned on interleaves
Interleave, duration : 80 ms (2.00 video frames)
Interleave, preload duration : 504 ms
Writing library : LAME3.98r
Encoding settings : -m j -V 4 -q 2 -lowpass 17 -b 128

Kód:
https://data.hu/get/11365101/D2067av.part1.rar
https://data.hu/get/11365078/D2067av.part2.rar
https://data.hu/get/11365080/D2067av.part3.rar
https://data.hu/get/11365098/D2067av.part4.rar
https://data.hu/get/11365084/D2067av.part5.rar
 

papadi

Állandó Tag
Állandó Tag
129f9303abee08732d3d36f46e4fe8b7.jpg


Folytassa főnővér
(Carry on Matron)
Angol vígjáték (1972)
Főszereplők: Sidney James, Kenneth Williams, Charles Hawtrey, Joan Sims, Hattie Jacques, Bernard Bresslaw, Kenneth Cope, Terry Scott, Barbara Windsor, Kenneth Connor
Rendezte: Gerald Thomas
Computer Panoráma 2003/7
Hang: magyar, angol
Felirat: magyar

Sid, Cyril és Ernie úgy döntenek, gyógyszert lopnak a kórházból. Cyril-t beöltöztetik nőnek, ráadásul nővérnek, hogy menjen be és kémlelje ki a lehetőségeket. Az álruhás Cyrilt a kórház orvosai összetévesztik az új nővérrel…

1972/2003 - dvd - 4,29 GB - 704x576 - 32/48 - 1:25:32
Kód:
https://data.hu/get/13006921/D0099d.part1.rar
https://data.hu/get/13006923/D0099d.part2.rar
https://data.hu/get/13006922/D0099d.part3.rar
https://data.hu/get/13006928/D0099d.part4.rar
https://data.hu/get/13006929/D0099d.part5.rar

7e19e37091b553ac6e283a6424f2865f.jpg


Formátum: dvdrip/avi
Méret: 855 MB
Felbontás: 720x400
Mintavételi frekvencia: 48000 Hz
Bitsebesség: 128 kbps
Műsoridő: 1:25:32

I:\0000\D0099av\D0099av\Folytassa fönövér\avi\Folytassa fönövér.avi
General
Complete name : I:\0000\D0099av\D0099av\Folytassa fönövér\avi\Folytassa fönövér.avi
Format : AVI
Format/Info : Audio Video Interleave
File size : 853 MiB
Duration : 1 h 25 min
Overall bit rate : 1 395 kb/s
Writing application : VirtualDubMod 1.5.4.1 (build 2178/release)
Writing library : VirtualDubMod build 2178/release
Video #0
ID : 0
Format : MPEG-4 Visual
Format profile : Advanced [email protected]
Format settings, BVOP : 1
Format settings, QPel : No
Format settings, GMC : No warppoints
Format settings, Matrix : Custom
Codec ID : XVID
Codec ID/Hint : XviD
Duration : 1 h 25 min
Bit rate : 1 129 kb/s
Width : 720 pixels
Height : 400 pixels
Display aspect ratio : 16:9
Frame rate : 25.000 FPS
Color space : YUV
Chroma subsampling : 4:2:0
Bit depth : 8 bits
Scan type : Progressive
Compression mode : Lossy
Bits/(Pixel*Frame) : 0.157
Stream size : 691 MiB (81%)
Writing library : XviD 1.2.1 (UTC 2008-12-04)
Audio #1
ID : 1
Format : MPEG Audio
Format version : Version 1
Format profile : Layer 3
Mode : Joint stereo
Mode extension : MS Stereo
Codec ID : 55
Codec ID/Hint : MP3
Duration : 1 h 25 min
Bit rate mode : Constant
Bit rate : 128 kb/s
Channel(s) : 2 channels
Sampling rate : 48.0 kHz
Compression mode : Lossy
Stream size : 78.3 MiB (9%)
Alignment : Aligned on interleaves
Interleave, duration : 80 ms (2.00 video frames)
Interleave, preload duration : 504 ms
Writing library : LAME3.98r
Encoding settings : -m j -V 4 -q 2 -lowpass 17 -b 128
Audio #2
ID : 2
Format : MPEG Audio
Format version : Version 1
Format profile : Layer 3
Mode : Joint stereo
Mode extension : MS Stereo
Codec ID : 55
Codec ID/Hint : MP3
Duration : 1 h 25 min
Bit rate mode : Constant
Bit rate : 128 kb/s
Channel(s) : 2 channels
Sampling rate : 48.0 kHz
Compression mode : Lossy
Stream size : 78.3 MiB (9%)
Alignment : Aligned on interleaves
Interleave, duration : 80 ms (2.00 video frames)
Interleave, preload duration : 504 ms
Writing library : LAME3.98r
Encoding settings : -m j -V 4 -q 2 -lowpass 17 -b 128

Kód:
https://data.hu/get/13006924/D0099av.part1.rar
https://data.hu/get/13006926/D0099av.part2.rar
https://data.hu/get/13006927/D0099av.part3.rar
https://data.hu/get/13006920/D0099av.part4.rar
https://data.hu/get/13006925/D0099av.part5.rar
 

papadi

Állandó Tag
Állandó Tag
ed6cda2e03988280adf5ff721d3e3b28.jpg


Folytassa külföldön
(Carry on Abroad)
Angol filmvígjáték (1972)
Főszereplők: Sid James, Kenneth Williams, Charles Hawtrey, Joan Sims, Bernard Bresslaw, Barbara Windsor, Kenneth Connor, Peter Buttenworth, Jimmy Logan, June Whitfield, Hattie Jacques
Rendezte: Gerald Thomas
Folytassa...
Hang: magyar, angol
Felirat: magyar

A spanyol Elsbels szigetén épült üdülő az utazási magazinban idillinek és hívogatónak tűnik a nyaraláshoz. Egészen addig nincs is semmi gond, míg a Stuart Farquhar vezette csoport oda nem utazik. Rögtön kiderül: a csodálatos hotel egy építkezési terület, semmi nem működik, hozzá képest Pearl Harbour a béke szigete. Persze a vendégek se a megszokottak: van köztük unalmas házaspár, kikapós férj, hálójukat kivető ifjú hölgyek, agglegények és papok. Lesz tehát hódítás és féltékenység, szerelmi bájital, verekedés, még börtön is. Számtalan kacagtató kaland vár a sorozat rajongóira.

1972/2007 - dvd/iso - 4,17 GB - 720x756 - 32/48 kbps - 1:25:24
Kód:
https://data.hu/get/11364296/D2032i.part1.rar
https://data.hu/get/11364297/D2032i.part2.rar
https://data.hu/get/11364295/D2032i.part3.rar
https://data.hu/get/11364299/D2032i.part4.rar
https://data.hu/get/11364298/D2032i.part5.rar

d4e57e0bf1810b32896f7bad93dfb9de.jpg


Formátum: dvdrip/avi
Méret: 854 MB
Felbontás: 720x416
Mintavételi frekvencia: 48000 Hz
Bitsebesség: 128 kbps
Műsoridő: 1:25:24

I:\0000\D2032av\D2032av\Folytassa külföldön\avi\Folytassa külföldön.avi
General
Complete name : I:\0000\D2032av\D2032av\Folytassa külföldön\avi\Folytassa külföldön.avi
Format : AVI
Format/Info : Audio Video Interleave
File size : 852 MiB
Duration : 1 h 25 min
Overall bit rate : 1 395 kb/s
Writing application : VirtualDubMod 1.5.4.1 (build 2178/release)
Writing library : VirtualDubMod build 2178/release
Video #0
ID : 0
Format : MPEG-4 Visual
Format profile : Advanced [email protected]
Format settings, BVOP : 1
Format settings, QPel : No
Format settings, GMC : No warppoints
Format settings, Matrix : Custom
Codec ID : XVID
Codec ID/Hint : XviD
Duration : 1 h 25 min
Bit rate : 1 130 kb/s
Width : 720 pixels
Height : 416 pixels
Display aspect ratio : 1.731
Frame rate : 25.000 FPS
Color space : YUV
Chroma subsampling : 4:2:0
Bit depth : 8 bits
Scan type : Progressive
Compression mode : Lossy
Bits/(Pixel*Frame) : 0.151
Stream size : 690 MiB (81%)
Writing library : XviD 1.2.1 (UTC 2008-12-04)
Audio #1
ID : 1
Format : MPEG Audio
Format version : Version 1
Format profile : Layer 3
Mode : Joint stereo
Mode extension : MS Stereo
Codec ID : 55
Codec ID/Hint : MP3
Duration : 1 h 25 min
Bit rate mode : Constant
Bit rate : 128 kb/s
Channel(s) : 2 channels
Sampling rate : 48.0 kHz
Compression mode : Lossy
Stream size : 78.2 MiB (9%)
Alignment : Aligned on interleaves
Interleave, duration : 80 ms (2.00 video frames)
Interleave, preload duration : 504 ms
Writing library : LAME3.98r
Encoding settings : -m j -V 4 -q 2 -lowpass 17 -b 128
Audio #2
ID : 2
Format : MPEG Audio
Format version : Version 1
Format profile : Layer 3
Mode : Joint stereo
Mode extension : MS Stereo
Codec ID : 55
Codec ID/Hint : MP3
Duration : 1 h 25 min
Bit rate mode : Constant
Bit rate : 128 kb/s
Channel(s) : 2 channels
Sampling rate : 48.0 kHz
Compression mode : Lossy
Stream size : 78.2 MiB (9%)
Alignment : Aligned on interleaves
Interleave, duration : 80 ms (2.00 video frames)
Interleave, preload duration : 504 ms
Writing library : LAME3.98r
Encoding settings : -m j -V 4 -q 2 -lowpass 17 -b 128

Kód:
https://data.hu/get/11365079/D2032av.part1.rar
https://data.hu/get/11365075/D2032av.part2.rar
https://data.hu/get/11365076/D2032av.part3.rar
https://data.hu/get/11365077/D2032av.part4.rar
https://data.hu/get/11365106/D2032av.part5.rar

törlődés miatt újratöltve
 
Oldal tetejére