Filmek VII -Itt nem kérünk!

papadi

Állandó Tag
Állandó Tag
Bridget Jones naplója I-II (dvd/iso)

c0b95b6792aab8e14fe3467c44cb7825.jpg


Hangoskönyv és dvd (iso) - másikat lásd a megfelelő témánál.

5146101078ef5cb17325bb80bd5c1707.jpg


Bridget Jones naplója
(Bridget Jones's Diary)
DVD 824 012 6 - Universal, 2001/2005

Hang: magyar (5.1), angol (5.1), cseh (5.1)
Felirat nyelv: magyar, angol, cseh

Szereplők: Renée Zellweger, Colin Firth, Hugh Grant, Jim Broadbent, Gemma Jones, Embeth Davidtz
Rendező: Sharon Maguire
Író: Helen Fielding
Forgatókönyv: Helen Fielding, Andrew Davies, Richard Curtis
Zene: Patrick Doyle

Helen Fielding regényklasszikusának hatalmas sikerű filmváltozata. Újév napján, másnaposan és még mindig magányosan Bridget Jones, a harmincegynéhány éves londoni hajadon úgy dönt, hogy kezébe veszi az életét, és naplóírásba kezd: „Egyes számú elhatározás: magától értetődően leadok tíz kilót. Kettes elhatározás: találok egy kedves, érzékeny barátot, és nem alakítok ki romantikus kötődést alkoholistákkal, munkaholistákkal, nagyzolókkal, kukkolókkal, érzelmi fogyatékosokkal vagy perverzekkel.”

Ám nem is olyan könnyű Bridgetnek a nagyautós-tuti-szexisten Daniel Cleaver (Hugh Grant) és a tartózkodónak-tűnő-ámde-figyelmes-érzékeny-férfiú Mark Darcy (Colin Firth) között választani...
(a borítóról)

Extrák:
- Audiókommentár - A rendező közreműködésével
- Werkfilm (így készült) - 9:39
- Videóklip - Shelby Lyanne videoklip - 3:23
- Videóklip - Gabrielle - 3:28
- Egyéb - Az eredeti Bridget Jones naplója
- Kimaradt jelenetek - 12:03

Média információ:

Video:
Kodek: MPEG-1/2 Video (mpgv)
Felbontás: 720x576
Képkockasebesség: 25
Képformátum: 2.35:1 (16:9)

Hang:
Kodek: A52 Audio (aka AC3) (a52)
Csatornák: Sztereó
Mintavételi frekvencia: 48000 Hz
Bitek mintánként: 32

Formátum: iso
Méret: 7,43 GB
Műsoridő: 1:34:01+28:33

(prémium)
Kód:
https://data.hu/get/13101805/D0781i.part1.rar
https://data.hu/get/13101802/D0781i.part2.rar
https://data.hu/get/13101800/D0781i.part3.rar
https://data.hu/get/13101804/D0781i.part4.rar
https://data.hu/get/13101798/D0781i.part5.rar
https://data.hu/get/13101803/D0781i.part6.rar
https://data.hu/get/13101801/D0781i.part7.rar
https://data.hu/get/13101799/D0781i.part8.rar


aec848d6767f04df75661cd09abadc62.jpg


Helen Fielding: Mindjárt megőrülök - Bridget Jones naplója II.
DVD 823 106 5 - Universal, 2004/2005

Hang: angol, lengyel, magyar, cseh
Feliratok: angol, lengyel, magyar, cseh, bolgár, horvát, román

Szereplők: Renée Zellweger, Gemma Jones, Jim Broadbent, Celia Imrie, Colin Firth, Hugh Grant, Shirley Henderson, Ian McNeice, Peter Gordon
Rendező: Beeban Kidron
Operatőr: Adrian Biddle
Zene: Stephen Barton, Toby Chu,
Harry Gregson-Williams

Miután végre-valahára rátalált a tökéletes férfira a káprázatos ügyvéd, Mark Darcy (Colin Firth) személyében, a harmincegynéhány éves hajdani szingli Bridget Jones (Renée Zellweger) ezúttal még nagyobb kihívással találja szemben magát... hogy meg is tartsa! Mikor újra felüti fejét az önbizalomhiánya, és még nőcsábász ex-pasija, Daniel Cleaver (Hugh Grant) is betoppan hívatlanul, Bridget egy rossz tanácsból, félreértésekből és totális katasztrófából kevert fergeteges zűrbe keveredik, olyasmibe, ami senki mással nem eshet meg, csakis vele. Kínos helyzetek és romantikus félreértések egész sorával a Bridget Jones - Mindjárt megőrülök sírnivalóan kacagtató. Tüneményes film, érdemes megnézni - újra és újra. (a borítóról)

Extrák:
Audiokommentár Beeban Kidron rendezővel
A film lejátszása vetélkedővel

Daniel Cleaver:
Egzotikus thaiföldi kalauz - 4:28
A nagy verekedés - 4:54
"A neked való pasi" - vetélkedő
Bridget Jones:
Az ausztriai miniszünidő - 3:58
Kimaradt jelenetek - 13:05
Mark Darcey:
Mark és Bridget: mindörökké? - 5:25
Colin Firth interjút ad Bridget Jonesnak - 4:57
Magányosan Londonban - 3:11

Előzetesek:
Wimbledon - Szerva itt, szerelem ott - 0:51
Vejedre ütök - 1:27

Média információ:

Video:
Kodek: MPEG-1/2 Video (mpgv)
Felbontás: 720x576
Képkockasebesség: 25
Képformátum: 2.40:1

Hang:
Kodek: A52 Audio (aka AC3) (a52)
Csatornák: Sztereó
Mintavételi frekvencia: 48000 Hz
Bitek mintánként: 32

Formátum: iso
Méret: 7,33 GB
Műsoridő: 1:43:05+42:16

(prémium)
Kód:
https://data.hu/get/13101811/D0811i.part1.rar
https://data.hu/get/13101809/D0811i.part2.rar
https://data.hu/get/13101810/D0811i.part3.rar
https://data.hu/get/13101808/D0811i.part4.rar
https://data.hu/get/13101806/D0811i.part5.rar
https://data.hu/get/13101812/D0811i.part6.rar
https://data.hu/get/13101807/D0811i.part7.rar
 

papadi

Állandó Tag
Állandó Tag
A Nagy Medve fiai és még hat Gojko Mitic indiánfilm (dvd/iso + dvdrip/avi)

41236f6ee21e7b23d9d97d1a57d8bb4f.jpg


Gojko Mitic - Hét indiános film.

707101b69e5007061cc1d69a54df27c1.jpg


A Nagy Medve fiai
(Die Söhne der großen Bärin)
NDK kalandfilm (1966)
Főszereplők: Gojko Mitic, Jiri Vrstála, Rolf Römer, Hans Hardt-Hardtloff
Rendezte: Josef Mach
Mokép Rt., 2007. február 15.

1870, Észak-Amerika, az aranyláz kora. A fehérek minél több földet próbálnak megkaparintani, csak hogy kielégítsék kapzsiságukat, ezért a kormány rendelete szerint a rézbőrűeknek az év végéig rezervátumba kell vonulniuk. Azonban a dakota Tokei-ihto törzsével együtt bátran ellenáll és felveszi a harcot a fehérek mohóságával. Személyes bosszú is fűti a fiatal indián szívét: apját megölte a kettős játékot űző Vörös Róka nevű sápadtarcú. Tokei-ihtot törzse elküldi tárgyalni a hosszű késekhez, ám a fehérek tőrbe csalják, láncra verik, míg törzsének lakóit rezervátumba viszik. Ott azonba az ígért termőföld helyett kövek és halál fogadja őket. Tokei-ihtora népe megmentésének nehéz feladata vár… (a borítóról)

Extrák:
Előzetesek

882a3fb6302eb5efc60887452196c713.jpg


Média információ:

Video:
Kodek: MPEG-1/2 Video (mpgv)
Felbontás: 720x576
Képkockasebesség: 25
Képformátum: 1.85:1 (16:9)

Hang:
Kodek: A52 Audio (aka AC3) (a52)
Csatornák: Sztereó
Mintavételi frekvencia: 48000 Hz
Bitek mintánként: 32

Formátum: iso
Méret: 4,20 GB
Műsoridő: 1:27:32

(prémium)
Kód:
https://data.hu/get/13119426/01D1553i.part1.rar
https://data.hu/get/13119421/01D1553i.part2.rar
https://data.hu/get/13119427/01D1553i.part3.rar
https://data.hu/get/13119429/01D1553i.part4.rar
https://data.hu/get/13119424/01D1553i.part5.rar

Formátum: dvdrip/avi
Méret: 872 MB
Felbontás: 640x352
Mintavételi frekvencia: 48000 Hz
Bitsebesség: 128 kbps
Műsoridő: 1:27:32

Részletes média információ:
K:\000\1553 - A Nagy Medve fiai\A Nagy Medve fiai.avi
General
Complete name : K:\000\1553 - A Nagy Medve fiai\A Nagy Medve fiai.avi
Format : AVI
Format/Info : Audio Video Interleave
File size : 870 MiB
Duration : 1 h 27 min
Overall bit rate : 1 389 kb/s
Writing application : VirtualDubMod 1.5.4.1 (build 2178/release)
Writing library : VirtualDubMod build 2178/release
Video #0
ID : 0
Format : MPEG-4 Visual
Format profile : Advanced [email protected]
Format settings, BVOP : 1
Format settings, QPel : No
Format settings, GMC : No warppoints
Format settings, Matrix : Custom
Codec ID : XVID
Codec ID/Hint : XviD
Duration : 1 h 27 min
Bit rate : 1 254 kb/s
Width : 640 pixels
Height : 352 pixels
Display aspect ratio : 16:9
Frame rate : 25.000 FPS
Color space : YUV
Chroma subsampling : 4:2:0
Bit depth : 8 bits
Scan type : Progressive
Compression mode : Lossy
Bits/(Pixel*Frame) : 0.223
Stream size : 785 MiB (90%)
Writing library : XviD 1.2.1 (UTC 2008-12-04)
Audio #1
ID : 1
Format : MPEG Audio
Format version : Version 1
Format profile : Layer 3
Mode : Joint stereo
Mode extension : MS Stereo
Codec ID : 55
Codec ID/Hint : MP3
Duration : 1 h 27 min
Bit rate mode : Constant
Bit rate : 128 kb/s
Channel(s) : 2 channels
Sampling rate : 48.0 kHz
Compression mode : Lossy
Stream size : 80.1 MiB (9%)
Alignment : Aligned on interleaves
Interleave, duration : 80 ms (2.00 video frames)
Interleave, preload duration : 504 ms
Writing library : LAME3.98r
Encoding settings : -m j -V 4 -q 2 -lowpass 17 -b 128

prémium
Kód:
https://data.hu/get/13121250/01D1553a.rar

9438e45850e840d541ecaa4309b7c64c.jpg


A Sólyom nyomában
(Spur des Falken)
NDK - szovjet kalandfilm (1968)
Fõszereplõk: Gojko Mitic, Hannjo Hasse, Barbara Brylska, Lali Meskhi, Rolf Hoppe
Rendezte: Gottfried Kolditz
Mokép Rt., 2006. május 23.

A 19. század második felében a Fekete hegyekben aranyat találtak, azon a területen, amely egy szerződés értelmében a dakota indiánokat illette meg. Ezután aranyásók, kereskedők és kalandorok lepték el a környéket. Tanglewood városa vált Sólyom harcosainak és a fehér felfedezők csatájának helyszínéül. Bátorság és cselek sokasága kellet ahhoz, hogy Sólyom harcosainak sikerüljön kiszabadítani Szürke Medvét, legyőzzék a fehér emberek seregét és újraegyesítsék a szétszóródott törzset. (a borítóról)

Extrák:
Gojko Mitic - Interjú a színésszel (magyar felirattal)
Előzetesek

3cab98f6c33d7610526b5bac8013ea15.jpg


Média információ:

Video:
Kodek: MPEG-1/2 Video (mpgv)
Felbontás: 720x576
Képkockasebesség: 25
Képformátum: 2.20:1 (16:9)

Hang:
Kodek: A52 Audio (aka AC3) (a52)
Csatornák: Sztereó
Mintavételi frekvencia: 48000 Hz
Bitek mintánként: 32

Formátum: iso
Méret: 7,68 GB
Műsoridő: 1:48:53

(prémium)
Kód:
https://data.hu/get/13119422/02D1121i.part01.rar
https://data.hu/get/13119423/02D1121i.part02.rar
https://data.hu/get/13119425/02D1121i.part03.rar
https://data.hu/get/13119428/02D1121i.part04.rar
https://data.hu/get/13119451/02D1121i.part05.rar
https://data.hu/get/13119455/02D1121i.part06.rar
https://data.hu/get/13119461/02D1121i.part07.rar
https://data.hu/get/13119453/02D1121i.part08.rar

Formátum: dvdrip/avi
Méret: 1,09 GB
Felbontás: 640x288
Mintavételi frekvencia: 48000 Hz
Bitsebesség: 128 kbps
Műsoridő: 1:48:53

Részletes média információ:
K:\000\1121 - A Sólyom nyomában\1 - A Sólyom nyomában.avi
General
Complete name : K:\000\1121 - A Sólyom nyomában\1 - A Sólyom nyomában.avi
Format : AVI
Format/Info : Audio Video Interleave
File size : 1.02 GiB
Duration : 1 h 48 min
Overall bit rate : 1 345 kb/s
Writing application : VirtualDubMod 1.5.4.1 (build 2178/release)
Writing library : VirtualDubMod build 2178/release
Video #0
ID : 0
Format : MPEG-4 Visual
Format profile : Advanced [email protected]
Format settings, BVOP : 1
Format settings, QPel : No
Format settings, GMC : No warppoints
Format settings, Matrix : Custom
Codec ID : XVID
Codec ID/Hint : XviD
Duration : 1 h 48 min
Bit rate : 1 209 kb/s
Width : 640 pixels
Height : 288 pixels
Display aspect ratio : 2.222
Frame rate : 25.000 FPS
Color space : YUV
Chroma subsampling : 4:2:0
Bit depth : 8 bits
Scan type : Progressive
Compression mode : Lossy
Bits/(Pixel*Frame) : 0.262
Stream size : 942 MiB (90%)
Writing library : XviD 1.2.1 (UTC 2008-12-04)
Audio #1
ID : 1
Format : MPEG Audio
Format version : Version 1
Format profile : Layer 3
Mode : Joint stereo
Mode extension : MS Stereo
Codec ID : 55
Codec ID/Hint : MP3
Duration : 1 h 48 min
Bit rate mode : Constant
Bit rate : 128 kb/s
Channel(s) : 2 channels
Sampling rate : 48.0 kHz
Compression mode : Lossy
Stream size : 99.7 MiB (10%)
Alignment : Aligned on interleaves
Interleave, duration : 80 ms (2.00 video frames)
Interleave, preload duration : 504 ms
Writing library : LAME3.98r
Encoding settings : -m j -V 4 -q 2 -lowpass 17 -b 128

prémium
Kód:
https://data.hu/get/13121245/02D1121a.part1.rar
https://data.hu/get/13121251/02D1121a.part2.rar

277048a675198975b516ad48f453a19b.jpg


Fehér farkasok
(Weiße Wölfe)
Jugoszláv - NDK kalandfilm (1969)
Főszereplők: Gojko Mitic, Horst Schulze, Barbara Brylska, Holger Mahlich
Rendezte: Bosko Boskovic, Konrad Petzold
Kiadó: Mokép Rt., 2007. február 15.

Az indián háborúk véget értek, a győztes fehér hódítók rezervátumokba kényszerítik a maroknyivá zsugorodott rézbőrű népet. A dakota Sólyom ősi otthona, Black Hills felé tart, ám útközben asszonyát, Kékhajút megölik a vérszomjas Bashan fehér banditái. Sólyom bosszút esküszik a gyilkosok ellen, jogos hadjáratával azonban csak felhevíti az indiánellenes indulatokat, veszélyeztetve a két közösség törékeny békéjét… (a borítóról)

Extrák:
Előzetesek

957d73d65a5f1e5e19a29b53be4c6a67.jpg


Média információ:

Video:
Kodek: MPEG-1/2 Video (mpgv)
Felbontás: 720x576
Képkockasebesség: 25
Képformátum: 1.85:1 (16:9)

Hang:
Kodek: A52 Audio (aka AC3) (a52)
Csatornák: Sztereó
Mintavételi frekvencia: 48000 Hz
Bitek mintánként: 32

Formátum: iso
Méret: 4,03 GB
Műsoridő: 1:36:44

(prémium)
Kód:
https://data.hu/get/13119459/03D1501i.part1.rar
https://data.hu/get/13119457/03D1501i.part2.rar
https://data.hu/get/13119452/03D1501i.part3.rar
https://data.hu/get/13119454/03D1501i.part4.rar

Formátum: dvdrip/avi
Méret: 962 MB
Felbontás: 640x368
Mintavételi frekvencia: 48000 Hz
Bitsebesség: 128 kbps
Műsoridő: 1:36:44

Részletes média információ:
K:\000\1501 - Fehér farkasok\Fehér farkasok.avi
General
Complete name : K:\000\1501 - Fehér farkasok\Fehér farkasok.avi
Format : AVI
Format/Info : Audio Video Interleave
File size : 960 MiB
Duration : 1 h 36 min
Overall bit rate : 1 387 kb/s
Writing application : VirtualDubMod 1.5.4.1 (build 2178/release)
Writing library : VirtualDubMod build 2178/release
Video #0
ID : 0
Format : MPEG-4 Visual
Format profile : Advanced [email protected]
Format settings, BVOP : 1
Format settings, QPel : No
Format settings, GMC : No warppoints
Format settings, Matrix : Custom
Codec ID : XVID
Codec ID/Hint : XviD
Duration : 1 h 36 min
Bit rate : 1 252 kb/s
Width : 640 pixels
Height : 368 pixels
Display aspect ratio : 1.739
Frame rate : 25.000 FPS
Color space : YUV
Chroma subsampling : 4:2:0
Bit depth : 8 bits
Scan type : Progressive
Compression mode : Lossy
Bits/(Pixel*Frame) : 0.213
Stream size : 866 MiB (90%)
Writing library : XviD 1.2.1 (UTC 2008-12-04)
Audio #1
ID : 1
Format : MPEG Audio
Format version : Version 1
Format profile : Layer 3
Mode : Joint stereo
Mode extension : MS Stereo
Codec ID : 55
Codec ID/Hint : MP3
Duration : 1 h 36 min
Bit rate mode : Constant
Bit rate : 128 kb/s
Channel(s) : 2 channels
Sampling rate : 48.0 kHz
Compression mode : Lossy
Stream size : 88.6 MiB (9%)
Alignment : Aligned on interleaves
Interleave, duration : 80 ms (2.00 video frames)
Interleave, preload duration : 504 ms
Writing library : LAME3.98r
Encoding settings : -m j -V 4 -q 2 -lowpass 17 -b 128

prémium
Kód:
https://data.hu/get/13121248/03D1501a.rar

63b08275138c46cda1fb508a573a352b.jpg


Osceola
(Osceola)
NDK - bolgár - kubai kalandfilm (1971)
Fõszereplõk: Gojko Mitic, Horst Schulze, Iurie Darie, Karin Ugowski, Kati Bus, Pepe Nikolova, Iskra Radeva
Rendezte: Konrad Petzold
Mokép Rt., 2006. június 20.

A gonosz és pénzéhes floridai ültetvényes birtokáról egyre több fekete rabszolga szökik át a szeminola indiánok földjére, melyet a fehérek nem néznek jó szemmel. A törzs egyik vezére, Osceola megpróbálja megóvni népét a fehérek egyre agresszívabb támadásaitól. Foglyul ejtett társa kiszabadítása közben véletlenül felgyullad az ültetvényes birtoka, ezzel kezdetét veszi a nagy leszámolás. (a borítóról)

Extrák:
Gojko Mitic - Interjú a színésszel 2. rész (magyar felirattal)
Ajánlók

ca0278babd0afa3fd7491d671d46f133.jpg


Média információ:

Video:
Kodek: MPEG-1/2 Video (mpgv)
Felbontás: 720x576
Képkockasebesség: 25
Képformátum: 2.00:1 (16:9)

Hang:
Kodek: A52 Audio (aka AC3) (a52)
Csatornák: Sztereó
Mintavételi frekvencia: 48000 Hz
Bitek mintánként: 32

Formátum: iso
Méret: 7,52 GB
Műsoridő: 1:43:56

(prémium)
Kód:
https://data.hu/get/13119474/04D1114i.part1.rar
https://data.hu/get/13119477/04D1114i.part2.rar
https://data.hu/get/13119478/04D1114i.part3.rar
https://data.hu/get/13119480/04D1114i.part4.rar
https://data.hu/get/13119473/04D1114i.part5.rar
https://data.hu/get/13119476/04D1114i.part6.rar
https://data.hu/get/13119479/04D1114i.part7.rar
https://data.hu/get/13119475/04D1114i.part8.rar

Formátum: dvdrip/avi
Méret: 1,11 GB
Felbontás: 640x320
Mintavételi frekvencia: 48000 Hz
Bitsebesség: 128 kbps
Műsoridő: 1:43:56

Részletes média információ:
K:\000\1114 - Osceola\1 - Osceola.avi
General
Complete name : K:\000\1114 - Osceola\1 - Osceola.avi
Format : AVI
Format/Info : Audio Video Interleave
File size : 1.02 GiB
Duration : 1 h 43 min
Overall bit rate : 1 403 kb/s
Writing application : VirtualDubMod 1.5.4.1 (build 2178/release)
Writing library : VirtualDubMod build 2178/release
Video #0
ID : 0
Format : MPEG-4 Visual
Format profile : Advanced [email protected]
Format settings, BVOP : 1
Format settings, QPel : No
Format settings, GMC : No warppoints
Format settings, Matrix : Custom
Codec ID : XVID
Codec ID/Hint : XviD
Duration : 1 h 43 min
Bit rate : 1 267 kb/s
Width : 640 pixels
Height : 320 pixels
Display aspect ratio : 2.000
Frame rate : 25.000 FPS
Color space : YUV
Chroma subsampling : 4:2:0
Bit depth : 8 bits
Scan type : Progressive
Compression mode : Lossy
Bits/(Pixel*Frame) : 0.248
Stream size : 942 MiB (90%)
Writing library : XviD 1.2.1 (UTC 2008-12-04)
Audio #1
ID : 1
Format : MPEG Audio
Format version : Version 1
Format profile : Layer 3
Mode : Joint stereo
Mode extension : MS Stereo
Codec ID : 55
Codec ID/Hint : MP3
Duration : 1 h 43 min
Bit rate mode : Constant
Bit rate : 128 kb/s
Channel(s) : 2 channels
Sampling rate : 48.0 kHz
Compression mode : Lossy
Stream size : 95.2 MiB (9%)
Alignment : Aligned on interleaves
Interleave, duration : 80 ms (2.00 video frames)
Interleave, preload duration : 504 ms
Writing library : LAME3.98r
Encoding settings : -m j -V 4 -q 2 -lowpass 17 -b 128

prémium
Kód:
https://data.hu/get/13121255/04D1114a.part1.rar
https://data.hu/get/13121246/04D1114a.part2.rar

1a61b252110431559959d8042c366bcd.jpg


Tecumseh
(Tecumseh)
NDK kalandfilm (1972)
Fõszereplõk: Gojko Mitic, Annekathrin Bürger, Rolf Römer, Leon Niemczyk
Rendezte: Hans Kratzert
Mokép Rt., 2007. február 13.

Indiana, 1805 körül. Két emberöltő óta léptek a sápadtarcúak az indiánok földjére, és nem hagynak maguk után mást csak füstöt és hamut. Az események elfajulása miatt Tecumsehnek, a fiatal rézbőrűnek rá kell ébrednie, hogy hiába próbált meg beilleszkedni a fehérek közé, hiába szeretik egymást Eileen-nel, hiába barátok Simonnal, Eileen bátyjával, a hosszú kések még mindig azon a véleményen vannak, hogy "a halott indián a jó indián." Tecumseh elhagyja szerelmét és a testvéreként szeretett Simont, nehéz feladatra vállalkozik: megpróbálja a különböző indián törzsek közötti ellentéteket felszámolni, és összefogásra bírni őket, hogy együtt vegyék fel a harcot a gyarmatosító fehérek ellen. (a borítóról)

Extrák:
Ajánlók

9df0074524f813f7d075f9bd5e7cd0a3.jpg


Média információ:

Video:
Kodek: MPEG-1/2 Video (mpgv)
Felbontás: 720x576
Képkockasebesség: 25
Képformátum: 2.35:1 (16:9)

Hang:
Kodek: A52 Audio (aka AC3) (a52)
Csatornák: Sztereó
Mintavételi frekvencia: 48000 Hz
Bitek mintánként: 32

Formátum: iso
Méret: 4,24 GB
Műsoridő: 1:42:41

(prémium)
Kód:
https://data.hu/get/13119489/05D1502i.part1.rar
https://data.hu/get/13119487/05D1502i.part2.rar
https://data.hu/get/13119496/05D1502i.part3.rar
https://data.hu/get/13119493/05D1502i.part4.rar
https://data.hu/get/13119490/05D1502i.part5.rar

Formátum: dvdrip/avi
Méret: 1,01 GB
Felbontás: 640x272
Mintavételi frekvencia: 48000 Hz
Bitsebesség: 128 kbps
Műsoridő: 1:42:41

Részletes média információ:
K:\000\1502 - Tecumseh\Tecumseh.avi
General
Complete name : K:\000\1502 - Tecumseh\Tecumseh.avi
Format : AVI
Format/Info : Audio Video Interleave
File size : 1.02 GiB
Duration : 1 h 42 min
Overall bit rate : 1 418 kb/s
Writing application : VirtualDubMod 1.5.4.1 (build 2178/release)
Writing library : VirtualDubMod build 2178/release
Video #0
ID : 0
Format : MPEG-4 Visual
Format profile : Advanced [email protected]
Format settings, BVOP : 1
Format settings, QPel : No
Format settings, GMC : No warppoints
Format settings, Matrix : Custom
Codec ID : XVID
Codec ID/Hint : XviD
Duration : 1 h 42 min
Bit rate : 1 283 kb/s
Width : 640 pixels
Height : 272 pixels
Display aspect ratio : 2.35:1
Frame rate : 25.000 FPS
Color space : YUV
Chroma subsampling : 4:2:0
Bit depth : 8 bits
Scan type : Progressive
Compression mode : Lossy
Bits/(Pixel*Frame) : 0.295
Stream size : 942 MiB (90%)
Writing library : XviD 1.2.1 (UTC 2008-12-04)
Audio #1
ID : 1
Format : MPEG Audio
Format version : Version 1
Format profile : Layer 3
Mode : Joint stereo
Mode extension : MS Stereo
Codec ID : 55
Codec ID/Hint : MP3
Duration : 1 h 42 min
Bit rate mode : Constant
Bit rate : 128 kb/s
Channel(s) : 2 channels
Sampling rate : 48.0 kHz
Compression mode : Lossy
Stream size : 94.0 MiB (9%)
Alignment : Aligned on interleaves
Interleave, duration : 80 ms (2.00 video frames)
Interleave, preload duration : 504 ms
Writing library : LAME3.98r
Encoding settings : -m j -V 4 -q 2 -lowpass 17 -b 128

prémium
Kód:
https://data.hu/get/13121249/05D1502a.part1.rar
https://data.hu/get/13121252/05D1502a.part2.rar

9348d300b2bcaa1c678f7efe16a2ff98.jpg


Apacsok
(Apachen)
NDK kalandfilm (1973)
Fõszereplõk: Gojko Mitic, Milan Beli, Colea Rautu, Gerry Wolff, Rolf Hoppe, Leon Niemczyk, Elsa Grube-Deister
Rendezte: Gottfried Kolditz
Mokép Rt., 2006. június 23.

Ulzana, a fiatal apacsvezér első ízben vesz részt Santa Ritában a fehérek által rendezett nagy ünnepségen, ahol a törzs tagjai ehetnek, ihatnak, - és cserébe a vadászterületükön levő aranybányákban végzett "rabszolgamunkáért" -, annyi lisztet vihetnek magukkal, amennyit elbírnak. Ulzana bizonytalan a fehérekkel szemben, és kiderül, neki van igaza... Ulzana bosszút esküszik… (a borítóról)

Extrák:
Gojko Mitic - Interjú a színésszel 3. rész (magyar felirattal)
Ajánlók

d3ea9ef364980b51a1397cd1232d1176.jpg


Média információ:

Video:
Kodek: MPEG-1/2 Video (mpgv)
Felbontás: 720x576
Képkockasebesség: 25
Képformátum: 2.00:1 (16:9)

Hang:
Kodek: A52 Audio (aka AC3) (a52)
Csatornák: Sztereó
Mintavételi frekvencia: 48000 Hz
Bitek mintánként: 32

Formátum: iso
Méret: 4,22 GB
Műsoridő: 1:29:54

(prémium)
Kód:
https://data.hu/get/13119488/06D1122i.part1.rar
https://data.hu/get/13119491/06D1122i.part2.rar
https://data.hu/get/13119495/06D1122i.part3.rar
https://data.hu/get/13119494/06D1122i.part4.rar
https://data.hu/get/13119492/06D1122i.part5.rar


Formátum: dvdrip/avi
Méret: 971 MB
Felbontás: 640x336
Mintavételi frekvencia: 48000 Hz
Bitsebesség: 128 kbps
Műsoridő: 1:29:54

Részletes média információ:
K:\000\1122 - Apacsok\1 - Apacsok.avi
General
Complete name : K:\000\1122 - Apacsok\1 - Apacsok.avi
Format : AVI
Format/Info : Audio Video Interleave
File size : 823 MiB
Duration : 1 h 29 min
Overall bit rate : 1 280 kb/s
Writing application : VirtualDubMod 1.5.4.1 (build 2178/release)
Writing library : VirtualDubMod build 2178/release
Video #0
ID : 0
Format : MPEG-4 Visual
Format profile : Advanced [email protected]
Format settings, BVOP : 1
Format settings, QPel : No
Format settings, GMC : No warppoints
Format settings, Matrix : Custom
Codec ID : XVID
Codec ID/Hint : XviD
Duration : 1 h 29 min
Bit rate : 1 145 kb/s
Width : 640 pixels
Height : 336 pixels
Display aspect ratio : 1.905
Frame rate : 25.000 FPS
Color space : YUV
Chroma subsampling : 4:2:0
Bit depth : 8 bits
Scan type : Progressive
Compression mode : Lossy
Bits/(Pixel*Frame) : 0.213
Stream size : 736 MiB (89%)
Writing library : XviD 1.2.1 (UTC 2008-12-04)
Audio #1
ID : 1
Format : MPEG Audio
Format version : Version 1
Format profile : Layer 3
Mode : Joint stereo
Mode extension : MS Stereo
Codec ID : 55
Codec ID/Hint : MP3
Duration : 1 h 29 min
Bit rate mode : Constant
Bit rate : 128 kb/s
Channel(s) : 2 channels
Sampling rate : 48.0 kHz
Compression mode : Lossy
Stream size : 82.3 MiB (10%)
Alignment : Aligned on interleaves
Interleave, duration : 80 ms (2.00 video frames)
Interleave, preload duration : 504 ms
Writing library : LAME3.98r
Encoding settings : -m j -V 4 -q 2 -lowpass 17 -b 128

prémium
Kód:
https://data.hu/get/13121254/06D1122a.rar

a9a8ff6eac81849757d79f9c645ae802.jpg


Ulzana
(Ulzana)
NDK - szovjet kalandfilm (1974)
Fõszereplõk: Gojko Mitic, Renate Blume, Rolf Hoppe, Colea Rautu
Rendezte: Gottfried Kolditz
Mokép Rt., 2006. szeptember 8.

A több évig tartó háborúskodás után látszólag béke és nyugalom honol az apacsok földjén. A hasznuktól elesett amerikai kereskedők bosszút állnak a katonaság segítségével a békésen gazdálkodó apacsokon. A törzsfőnök Ulzana felveszi a harcot a támadókkal szemben, felcsillantva ezzel a túlélés reményét népe számára- Ő maga nagy árat fizet a lázadásáért... (a borítóról)

Extrák:
Gojko Mitic - Interjú a színésszel 4. rész (magyar felirattal)
Ajánlók

5579ff64c7c1e63136ba2c016e2f23f3.jpg


Média információ:

Video:
Kodek: MPEG-1/2 Video (mpgv)
Felbontás: 720x576
Képkockasebesség: 25
Képformátum: 2.35:1 (16:9)

Hang:
Kodek: A52 Audio (aka AC3) (a52)
Csatornák: Sztereó
Mintavételi frekvencia: 48000 Hz
Bitek mintánként: 32

Formátum: iso
Méret: 4,16 GB
Műsoridő: 1:30:24

(prémium)
Kód:
https://data.hu/get/13120028/07D1123i.part1.rar
https://data.hu/get/13120029/07D1123i.part2.rar
https://data.hu/get/13120024/07D1123i.part3.rar
https://data.hu/get/13120026/07D1123i.part4.rar

Formátum: dvdrip/avi
Méret: 0,98 GB
Felbontás: 640x304
Mintavételi frekvencia: 48000 Hz
Bitsebesség: 128 kbps
Műsoridő: 1:30:24

Részletes média információ:
K:\000\1123 - Ulzana\1 - Ulzana.avi
General
Complete name : K:\000\1123 - Ulzana\1 - Ulzana.avi
Format : AVI
Format/Info : Audio Video Interleave
File size : 900 MiB
Duration : 1 h 30 min
Overall bit rate : 1 392 kb/s
Writing application : VirtualDubMod 1.5.4.1 (build 2178/release)
Writing library : VirtualDubMod build 2178/release
Video #0
ID : 0
Format : MPEG-4 Visual
Format profile : Advanced [email protected]
Format settings, BVOP : 1
Format settings, QPel : No
Format settings, GMC : No warppoints
Format settings, Matrix : Custom
Codec ID : XVID
Codec ID/Hint : XviD
Duration : 1 h 30 min
Bit rate : 1 257 kb/s
Width : 640 pixels
Height : 304 pixels
Display aspect ratio : 2.105
Frame rate : 25.000 FPS
Color space : YUV
Chroma subsampling : 4:2:0
Bit depth : 8 bits
Scan type : Progressive
Compression mode : Lossy
Bits/(Pixel*Frame) : 0.258
Stream size : 813 MiB (90%)
Writing library : XviD 1.2.1 (UTC 2008-12-04)
Audio #1
ID : 1
Format : MPEG Audio
Format version : Version 1
Format profile : Layer 3
Mode : Joint stereo
Mode extension : MS Stereo
Codec ID : 55
Codec ID/Hint : MP3
Duration : 1 h 30 min
Bit rate mode : Constant
Bit rate : 128 kb/s
Channel(s) : 2 channels
Sampling rate : 48.0 kHz
Compression mode : Lossy
Stream size : 82.8 MiB (9%)
Alignment : Aligned on interleaves
Interleave, duration : 80 ms (2.00 video frames)
Interleave, preload duration : 504 ms
Writing library : LAME3.98r
Encoding settings : -m j -V 4 -q 2 -lowpass 17 -b 128

prémium
Kód:
https://data.hu/get/13121253/07D1123a.part1.rar
https://data.hu/get/13121247/07D1123a.part2.rar
 

papadi

Állandó Tag
Állandó Tag
Dűne - amerikai sci-fi (1984) - iso

ae75cff3faa4a045ce5ba3df799a063c.jpg


Dűne
(Dune)
Amerikai sci-fi (1984)
Főszereplők: Kylie MacLachlan, Sting, Linda Hunt, José Ferrer, Max von Sydow, Sean Young, Patrick Stewart, Virginia Madsen, Jack Nance, Francesca Annis, Dean Stockwell
Rendezte: David Lynch
Hang: magyar, angol
Felirat: magyar

A kezdet nagyon kényes idő. A 10 191. évben járunk. Az ismert világegyetemet IV. Shaddam Padisah császár kormányozza. Ebben az időben a világegyetemben a legértékesebb anyag a fűszer-melanzs. A fűszer meghosszabbítja az életet. A fűszer kiterjeszti a tudatot. A fűszer elengedhetetlen az űrutazáshoz. Az űrliga és navigátorai, akik 4000 éve állnak már a fűszer hatása alatt, a narancsszínű fűszergázt használják, amely képessé teszi őket arra, hogy meghajlítsák a teret, azaz a világegyetem bármelyik pontjára utazzanak mozgás nélkül.
A fűszer csupán egyetlen bolygón létezik. Egy kietlen, száraz, sivatagos bolygón. A sivatag mélyén rejtőzve él a fremenek népe, akiknek hite szerint eljön majd valaki, egy Messiás, aki elvezeti őket az igaz szabadságba. Ez a bolygó az Arrakis, más néven A DŰNE.
(a borítóról)

Extrák:

Eredeti előzetes (4:36)
Szereplők, stáb (életrajz, filmográfia)
David Lynch
Dino De Laurentius - producer
Sting
Max von Sydow
Patrick Stewart
Kyle MacLachlan

Interjú
David Lynch és Frank Herbert
A verziókról
Produceri jegyzetek
Előzetesek (11:59)
Azok a csodálatos Baker fiúk
1492 - A Paradicsom meghódítása
A holtsáv
Lopakodók
Hóbortos hétvége
Szemszedett szenzáció


6c50e91d15edd444eb650a72685e037c.jpg


Média információ:

Video:
Kodek: MPEG-1/2 Video (mpgv)
Felbontás: 720x576
Képkockasebesség: 25

Hang:
Kodek: A52 Audio (aka AC3) (a52)
Csatornák: Sztereó
Mintavételi frekvencia: 48000 Hz
Bitsebesség: 192 kb/mp

Formátum: iso
Méret: 6,93 GB
Műsoridő: 2:10:55 (2:28:04)

(prémium)
Kód:
https://data.hu/get/13323802/D0029i.part1.rar
https://data.hu/get/13323804/D0029i.part2.rar
https://data.hu/get/13323800/D0029i.part3.rar
https://data.hu/get/13323801/D0029i.part4.rar
https://data.hu/get/13323806/D0029i.part5.rar
https://data.hu/get/13323805/D0029i.part6.rar
https://data.hu/get/13323803/D0029i.part7.rar
 

papadi

Állandó Tag
Állandó Tag
Folytassa...! (Carry on...!)

A törlődött linkek újratöltése:

DVD0464-Folytassa-Cleo-cimlap-350.jpg


Folytassa Cleo!
(Carry On Cleo)
Angol vígjáték (1964)
Főszereplők: Sid James, Kenneth Williams, Kenneth Connor, Charles Hawtrey, Joan Sims, Jim Dale, Amanda Barrie
Rendezte: Gerald Thomas
Computer Panoráma 2005/7
Hang: magyar, angol
Felirat: magyar

Caesar sebeit nyalogatja sikertelen európai hadjárata után. Elküldi legjobb barátját, Antoniust, hogy kössön stratégiai szövetséget a Ptolemaiosszal, aki Cleopátrával harcol az egyiptomi trónért. Antoniust teljesen rabul ejti az egyiptomi hercegnő szépsége és nem követi császára parancsát, sőt összeesküvést forral ellene Cleopátrával. Caesar azonban átlát a sötét terven és megparancsolja kisnövésű testőrének, Hengistnek, aki legyőzhetetlennek képzeli magát, hogy helyettesítse őt. A megrémült testőr Cleo szerelmi bájitalának köszönhetően dühöngő őrültté változik és Cleo iránti szerelmi kitörései majdnem meghiúsítják az egész tervet. Bár Caesar sorsa megpecsételődött, mégis minden jóra fordul. Antonius és Cleopátra tejben-vajban fürdőzik naphosszat, Hengist pedig magával viszi a szerelmi bájitalt szülőhazájába, Angliába…

Folytassa-Cleo.jpg


Média információ:

Video:
Kodek: MPEG-1/2 Video (mpgv)
Felbontás: 720x576
Képkockasebesség: 25
Képformátum: 1.33:1 (4:3)

Hang:
Kodek: A52 Audio (aka AC3) (a52)
Csatornák: Sztereó
Mintavételi frekvencia: 48000 Hz
Bitek mintánként: 32

Formátum: dvd
Méret: 4,64 GB
Műsoridő: 1:28:02

Kód:
https://data.hu/get/13441995/D0464d2.part1.rar
https://data.hu/get/13441986/D0464d2.part2.rar
https://data.hu/get/13441994/D0464d2.part3.rar
https://data.hu/get/13441987/D0464d2.part4.rar
https://data.hu/get/13441989/D0464d2.part5.rar

DVD0022-Folytassa-forradalm-r-cimlap-350.jpg


Folytassa forradalmár avagy Ne veszítsd el a fejedet!
(Don’t Lose Your Head)
Angol vígjáték (1966)
Főszereplők: Sidney James, Jim Dale, Kenneth Williams, Charles Hawtrey, Peter Butterworth, Joan Sims, Dany Robin
Rendezte: Gerald Thomas
Computer Panoráma 2002/8
Hang: magyar, angol
Felirat: magyar

Párizs, 1789 - zajlanak a Francia Forradalom eseményei. A guillotine-os kivégzések során a leggazdagabb nemesek lesznek egy fejjel kisebbek. Két angol jampec, Sir Rodney Ffing (Sidney James) és társa Lord Darcy Pew (Jim Dale) elhatározzák, hogy elutaznak a forradalmi Franciaországba, hátha megtudnak menteni pár fejet a rojalista arisztokrata haveri körből. Ffing a titokzatos hős Fekete Köröm álruhájába bújik, aki nevét a névjegyén látható piszkos körméről kapta. Miután Köröm megmenti a prominens rojalista Duc de Pommfrit életét, Robespierre elrendeli a titkosrendőrség főnökénél, hogy Camembert és Bidet polgártárs kövesse őt Angliába és végezzen vele. Calais kikötőjében a hős Köröm találkozik Jacqueline-nel, akivel rögtön egymásba szeretnek. Felfedi neki valódi kilétét és szerelme zálogául odaadja a lányanak medalionját. Ez viszont nem volt túl szerencsés ötlet, mert a hülye Camembert azt hiszi, sikerült elkapnia az álruhás hőst és tévedésből Jacqueline-t veti a félelmetes Bastille börtönébe…

Folytassa-forradalm-r.jpg


Formátum: dvdrip/avi
Méret: 970 MB
Felbontás: 720x544
Mintavételi frekvencia: 48000 Hz
Bitsebesség: 128 kbps
Műsoridő: 1:27:01

Részletes média információ:

I:\0000\D0022av\D0022av\Folytassa forradalmár\avi\Folytassa forradalmár.avi
General
Complete name : I:\0000\D0022av\D0022av\Folytassa forradalmár\avi\Folytassa forradalmár.avi
Format : AVI
Format/Info : Audio Video Interleave
File size : 968 MiB
Duration : 1 h 27 min
Overall bit rate : 1 555 kb/s
Writing application : VirtualDubMod 1.5.4.1 (build 2178/release)
Writing library : VirtualDubMod build 2178/release
Video #0
ID : 0
Format : MPEG-4 Visual
Format profile : Advanced [email protected]
Format settings, BVOP : 1
Format settings, QPel : No
Format settings, GMC : No warppoints
Format settings, Matrix : Custom
Codec ID : XVID
Codec ID/Hint : XviD
Duration : 1 h 27 min
Bit rate : 1 289 kb/s
Width : 720 pixels
Height : 544 pixels
Display aspect ratio : 4:3
Frame rate : 25.000 FPS
Color space : YUV
Chroma subsampling : 4:2:0
Bit depth : 8 bits
Scan type : Progressive
Compression mode : Lossy
Bits/(Pixel*Frame) : 0.132
Stream size : 803 MiB (83%)
Writing library : XviD 1.2.1 (UTC 2008-12-04)
Audio #1
ID : 1
Format : MPEG Audio
Format version : Version 1
Format profile : Layer 3
Mode : Joint stereo
Mode extension : MS Stereo
Codec ID : 55
Codec ID/Hint : MP3
Duration : 1 h 27 min
Bit rate mode : Constant
Bit rate : 128 kb/s
Channel(s) : 2 channels
Sampling rate : 48.0 kHz
Compression mode : Lossy
Stream size : 79.7 MiB (8%)
Alignment : Aligned on interleaves
Interleave, duration : 80 ms (2.00 video frames)
Interleave, preload duration : 504 ms
Writing library : LAME3.98r
Encoding settings : -m j -V 4 -q 2 -lowpass 17 -b 128
Audio #2
ID : 2
Format : MPEG Audio
Format version : Version 1
Format profile : Layer 3
Mode : Joint stereo
Mode extension : MS Stereo
Codec ID : 55
Codec ID/Hint : MP3
Duration : 1 h 27 min
Bit rate mode : Constant
Bit rate : 128 kb/s
Channel(s) : 2 channels
Sampling rate : 48.0 kHz
Compression mode : Lossy
Stream size : 79.7 MiB (8%)
Alignment : Aligned on interleaves
Interleave, duration : 80 ms (2.00 video frames)
Interleave, preload duration : 504 ms
Writing library : LAME3.98r
Encoding settings : -m j -V 4 -q 2 -lowpass 17 -b 128

Kód:
https://data.hu/get/13441939/D0022av2.part1.rar
https://data.hu/get/13441932/D0022av2.part2.rar
https://data.hu/get/13441934/D0022av2.part3.rar
https://data.hu/get/13441926/D0022av2.part4.rar
https://data.hu/get/13441927/D0022av2.part5.rar
https://data.hu/get/13441925/D0022av2.part6.rar

DVD0014-Folytassa-az-idegenl-gi-ban-cimlap-350.jpg


Folytassa a sivatagban! (Folytassa az idegenlégióban!)
(Follow That Camel)
Angol filmvígjáték (1967)
Főszereplők: Phil Silvers, Kenneth Williams, Jim Dale, Charles Hawtrey, Peter Butterworth, Joan Sims, Angela Douglas, Bernard Bresslaw
Rendezte: Gerald Thomas
Computer Panoráma 2002/12
Hang: magyar, angol
Felirat: magyar

Bo West, a kifogástalan modern ifjú gentleman túltengő önérzete nehezen viseli el, hogy szerelme nem viszonozza kellőképpen érzéseit, ezért az Idegenlégióba áll. Pedig a bajok valójában már a krikettpályán kezdődtek, amikor Bagshaw kapitány elhasalt egy meccslabdán. Arra már sosem derül fény, hogy ezt a szerencsétlen balesetet a cipőfűzője vagy netán Bo okozta, mindenesetre a kapitány harakirit követ el, amikor megtudja, hogy országos cimborája a légióba állt. Aggódása nem volt alaptalan, hiszen a sivatag poklában a légiósoknak iszonyatos szenvedéseket kell kiállniuk. Bo számtalan humoros kaland után Abdul sejk háremében köt ki, ahol megtalálja szerelmét, aki jelenleg a 13-as sorszámú feleség…

Folytassa-az-idegenl-gi-ban.jpg


Formátum: dvdrip/avi
Méret: 909 MB
Felbontás: 720x416
Mintavételi frekvencia: 48000 Hz
Bitsebesség: 128 kbps
Műsoridő: 1:31:01

Részletes média információ:

I:\0000\D0014av\D0014av\Folytassa az idegenlégióban\avi\Folytassa az idegenlégióban.avi
General
Complete name : I:\0000\D0014av\D0014av\Folytassa az idegenlégióban\avi\Folytassa az idegenlégióban.avi
Format : AVI
Format/Info : Audio Video Interleave
File size : 907 MiB
Duration : 1 h 31 min
Overall bit rate : 1 394 kb/s
Writing application : VirtualDubMod 1.5.4.1 (build 2178/release)
Writing library : VirtualDubMod build 2178/release
Video #0
ID : 0
Format : MPEG-4 Visual
Format profile : Advanced [email protected]
Format settings, BVOP : 1
Format settings, QPel : No
Format settings, GMC : No warppoints
Format settings, Matrix : Custom
Codec ID : XVID
Codec ID/Hint : XviD
Duration : 1 h 31 min
Bit rate : 1 128 kb/s
Width : 720 pixels
Height : 416 pixels
Display aspect ratio : 1.731
Frame rate : 25.000 FPS
Color space : YUV
Chroma subsampling : 4:2:0
Bit depth : 8 bits
Scan type : Progressive
Compression mode : Lossy
Bits/(Pixel*Frame) : 0.151
Stream size : 734 MiB (81%)
Writing library : XviD 1.2.1 (UTC 2008-12-04)
Audio #1
ID : 1
Format : MPEG Audio
Format version : Version 1
Format profile : Layer 3
Mode : Joint stereo
Mode extension : MS Stereo
Codec ID : 55
Codec ID/Hint : MP3
Duration : 1 h 31 min
Bit rate mode : Constant
Bit rate : 128 kb/s
Channel(s) : 2 channels
Sampling rate : 48.0 kHz
Compression mode : Lossy
Stream size : 83.3 MiB (9%)
Alignment : Aligned on interleaves
Interleave, duration : 80 ms (2.00 video frames)
Interleave, preload duration : 504 ms
Writing library : LAME3.98r
Encoding settings : -m j -V 4 -q 2 -lowpass 17 -b 128
Audio #2
ID : 2
Format : MPEG Audio
Format version : Version 1
Format profile : Layer 3
Mode : Joint stereo
Mode extension : MS Stereo
Codec ID : 55
Codec ID/Hint : MP3
Duration : 1 h 31 min
Bit rate mode : Constant
Bit rate : 128 kb/s
Channel(s) : 2 channels
Sampling rate : 48.0 kHz
Compression mode : Lossy
Stream size : 83.3 MiB (9%)
Alignment : Aligned on interleaves
Interleave, duration : 80 ms (2.00 video frames)
Interleave, preload duration : 504 ms
Writing library : LAME3.98r
Encoding settings : -m j -V 4 -q 2 -lowpass 17 -b 128

Kód:
https://data.hu/get/13441928/D0014av2.part1.rar
https://data.hu/get/13441941/D0014av2.part2.rar
https://data.hu/get/13441936/D0014av2.part3.rar
https://data.hu/get/13441933/D0014av2.part4.rar
https://data.hu/get/13441929/D0014av2.part5.rar

DVD1059-Folytassa-a-dzsungelben-cimlap-350.jpg


Folytassa a dzsungelben
(Carry on Up the Jungle)
Angol vígjáték (1970)
Főszereplők: Frankie Howerd, Sid James, Charles Hawtrey, Joan Sims, Terry Scott, Kenneth Connor, Bernard Bresslaw
Rendezte: Gerald Thomas
Hang: magyar, angol
Felirat: magyar, angol

A Folytassa-sorozat csapata majomkodik a fekete Afrika dzsungelének mélyén. Az expedíció vezetője Inigo Tinkle professzor, aki egy különleges madárfajta felkutatására válogatta össze csupa balfácánból álló csapatát. Kalandozásaik során először egy óriásgorilla támadja meg őket, majd a kannibálok próbálják elfogyasztani őket, mikor is egy férfira éhes, csupa bomba nőből álló amazoncsapat siet a segítségükre, de ekkor már a primitív állati ösztönöket egyre nehezebb kordában tartani. Mindezek tetejébe állandóan a nyakukra jár egy alulöltözött, indákon himbálódzó Tarzan, aki még nálunk is szerencsétlenebb…

Részletes média információ:

Folytassa-a-dzsungelben.jpg


Formátum: dvdrip/avi
Méret: 871 MB
Felbontás: 720x416
Mintavételi frekvencia: 48000 Hz
Bitsebesség: 128 kbps
Műsoridő: 1:26:54

I:\0000\D1059av\D1059av\Folytassa a dzsungelben\avi\Folytassa a dzsungelben.avi
General
Complete name : I:\0000\D1059av\D1059av\Folytassa a dzsungelben\avi\Folytassa a dzsungelben.avi
Format : AVI
Format/Info : Audio Video Interleave
File size : 870 MiB
Duration : 1 h 26 min
Overall bit rate : 1 399 kb/s
Writing application : VirtualDubMod 1.5.4.1 (build 2178/release)
Writing library : VirtualDubMod build 2178/release
Video #0
ID : 0
Format : MPEG-4 Visual
Format profile : Advanced [email protected]
Format settings, BVOP : 1
Format settings, QPel : No
Format settings, GMC : No warppoints
Format settings, Matrix : Custom
Codec ID : XVID
Codec ID/Hint : XviD
Duration : 1 h 26 min
Bit rate : 1 133 kb/s
Width : 720 pixels
Height : 416 pixels
Display aspect ratio : 1.731
Frame rate : 25.000 FPS
Color space : YUV
Chroma subsampling : 4:2:0
Bit depth : 8 bits
Scan type : Progressive
Compression mode : Lossy
Bits/(Pixel*Frame) : 0.151
Stream size : 704 MiB (81%)
Writing library : XviD 1.2.1 (UTC 2008-12-04)
Audio #1
ID : 1
Format : MPEG Audio
Format version : Version 1
Format profile : Layer 3
Mode : Joint stereo
Mode extension : MS Stereo
Codec ID : 55
Codec ID/Hint : MP3
Duration : 1 h 26 min
Bit rate mode : Constant
Bit rate : 128 kb/s
Channel(s) : 2 channels
Sampling rate : 48.0 kHz
Compression mode : Lossy
Stream size : 79.6 MiB (9%)
Alignment : Aligned on interleaves
Interleave, duration : 80 ms (2.00 video frames)
Interleave, preload duration : 504 ms
Writing library : LAME3.98r
Encoding settings : -m j -V 4 -q 2 -lowpass 17 -b 128
Audio #2
ID : 2
Format : MPEG Audio
Format version : Version 1
Format profile : Layer 3
Mode : Joint stereo
Mode extension : MS Stereo
Codec ID : 55
Codec ID/Hint : MP3
Duration : 1 h 26 min
Bit rate mode : Constant
Bit rate : 128 kb/s
Channel(s) : 2 channels
Sampling rate : 48.0 kHz
Compression mode : Lossy
Stream size : 79.6 MiB (9%)
Alignment : Aligned on interleaves
Interleave, duration : 80 ms (2.00 video frames)
Interleave, preload duration : 504 ms
Writing library : LAME3.98r
Encoding settings : -m j -V 4 -q 2 -lowpass 17 -b 128

Kód:
https://data.hu/get/13441991/D1059av2.part1.rar
https://data.hu/get/13441981/D1059av2.part2.rar
https://data.hu/get/13441990/D1059av2.part3.rar
https://data.hu/get/13441993/D1059av2.part4.rar
https://data.hu/get/13441984/D1059av2.part5.rar

DVD0123-Folytassa-Henrik-cimlap-350.jpg


Folytassa Henrik
(Carry On Henry)
Angol filmvígjáték (1971)
Főszereplők: Sid James, Kenneth Williams, Charles Hawtrey, Joan Sims, Terry Scott, Barbara Windsor, Kenneth Connor
Rendezte: Gerald Thomas
Computer Panoráma 2003/10
Hang: magyar, angol
Felirat: magyar

A történelemtudomány már-már lezártnak tekintette VIII. Henrik angol uralkodó botrányos házassági históriáit, amikor is egy új felfedezés teljesen lázba hozta a szakmai közvéleményt: VIII. Henriknek nem hat, hanem egyenesen hét felesége volt…

Extra:
Csodálatos Görögország
2. Szantorini (32:14)
A sorozat (ajánló) (8:09)
Magyr útifilm (2003)

Folytassa-Henrik.jpg


Média információ:

Video:
Kodek: MPEG-1/2 Video (mpgv)
Felbontás: 720x576
Képkockasebesség: 25
Képformátum: 1.33:1 (4:3)

Hang:
Kodek: A52 Audio (aka AC3) (a52)
Csatornák: Sztereó
Mintavételi frekvencia: 48000 Hz
Bitek mintánként: 32

Formátum: dvd
Méret: 5,28 GB
Műsoridő: 1:27:09+40:23

(prémium)
Kód:
https://data.hu/get/13441938/D0123d2.part1.rar
https://data.hu/get/13441930/D0123d2.part2.rar
https://data.hu/get/13441935/D0123d2.part3.rar
https://data.hu/get/13441940/D0123d2.part4.rar
https://data.hu/get/13441937/D0123d2.part5.rar
https://data.hu/get/13441931/D0123d2.part6.rar

DVD2067-Folytassa-amikor-nnek-megfelel-cimlap-350.jpg


Folytassa, amikor önnek megfelel
(Carry on at Your Convenience)
Angol filmvígjáték (1971)
Főszereplők: Sid James, Kenneth Williams, Charles Hawtrey, Joan Sims, Hattie Jacques, Bernard Bresslaw, Kenneth Cope, Patsy Rowlands, Jacki Piper, Richard O'Callaghan
Rendezte: Gerald Thomas
Folytassa... (Carry on)
Hang: magyar, angol
Felirat: magyar

W.C. Boggs kis cége wc-csészéket gyárt, vagyis gyártana, ha nem sztrájkolna a munkaerő. Csakhogy Vic Spanner, a szakszervezetis minden alkalmat megragad, hogy kihívja a dolgozókat. Hogy a kedélyeket megnyugtassa, Sid Plummer javasol egy megoldást, valamit, ami a cég vezetőinek is jó ötletnek tűnik. A társulattól megszokott fergeteges komédiázásnak most külön ízt ad a szakszervezeteket érintő markáns irónia és a bátor kiállás az olyan fontos téma mellett, mint a mellékhelységet illető történések.

Folytassa-amikor-nnek-megfelel.jpg


Média információ:

Video:
Kodek: MPEG-1/2 Video (mpgv)
Felbontás: 720x576
Képkockasebesség: 25
Képformátum: 1.33:1 (4:3)

Hang:
Kodek: A52 Audio (aka AC3) (a52)
Csatornák: Sztereó
Mintavételi frekvencia: 48000 Hz
Bitek mintánként: 32

Formátum: iso
Méret: 4,22 GB
Műsoridő: 1:26:10

(prémium)
Kód:
https://data.hu/get/13441988/D2067i2.part1.rar
https://data.hu/get/13441992/D2067i2.part2.rar
https://data.hu/get/13441983/D2067i2.part3.rar
https://data.hu/get/13441982/D2067i2.part4.rar
https://data.hu/get/13441985/D2067i2.part5.rar
 
Oldal tetejére