Ha sorozatot kerestek...2014 (de ne itt kérd!)

jbaj témája a 'Film, színház, tánc' fórumban , 2010 Április 11.

  1. papadi

    papadi Állandó Tag

    [​IMG]

    4. történet: Marco Polo (Marco Polo)
    (1964 - avi - színes - 704x528 px - 3:57:37)

    A filmek elvesztek, vagy annyira sérültek, hogy használhatatlanok. Szerencsére a hanganyag megmaradt. Ezt és a forgatáson készült fotókat felhasználva rekonstruálták a történetet.

    Epizódok:
    4/- (-) Bevezetés
    4/1 (14) The Roof of the World (Recon) (A világ tetején)
    4/2 (15) The Singing Sands (Recon) (Az éneklö homok)
    4/3 (16) Five Hundred Eyes (Recon) (Ötszáz szem)
    4/4 (17) The Wall of Lies (Recon) (A hazugság fala)
    4/5 (18) Rider from Shang-Tu (Recon) (A lovas Shang-Tu-ból)
    4/6 (19) Mighty Kublai Khan (Recon) (A hatalmas Kublai kán)
    4/7 (20) Assassin at Peking (Recon) (Merénylet Pekingben)
    4/- (-) Befejezés
    Hang: angol
    Felirat: magyar
    Megjegyzés: a befejezésben szereplő Marco Polo életrajzhoz nincs felirat

    Bónusz:
    Marco Polo (30-minute version) (31:25)
    (magyar felirat nincs, az előző korongról angol van)
    The Making of Marco Polo (46:54)
    (nincs felirat)

    Rejtett tartalom:
    **Rejtett tartalom: A tartalom megjelenítéséhez kattints a 'Tetszik' gombra.**
    vagy
    Rejtett tartalom:
    **Rejtett tartalom: A tartalom megjelenítéséhez kattints a 'Tetszik' gombra.**
     
    Lexis kedveli ezt.
  2. papadi

    papadi Állandó Tag

    [​IMG]

    5. történet: The Keys of Marinus (Marinus kulcsai)
    (1964 - avi - FF - 704x528 px - 2:27:38)

    Alternatív cím:
    The Sea of Death(A halál tengere)

    Epizódok:
    5/1 (21) The Sea of Death (A halál tengere)
    5/2 (22) The Velvet Web (A bársonyos háló)
    5/3 (23) The Screaming Jungle (A sikító dzsungel)
    5/4 (24) The Snows of Terror (A terror hava)
    5/5 (25) Sentence of Death (Halálra ítélve)
    5/6 (26) The Keys of Marinus (Marinus kulcsai)
    Hang: angol
    Felirat: magyar

    Bónusz:
    The Sets of Marinus (9:26)
    Doctor Who and the Daleks (Cadet Sweets) (pdf)
    Easter Egg (1:10)
    (magyar felirat nincs, angol van)

    Rejtett tartalom:
    **Rejtett tartalom: A tartalom megjelenítéséhez kattints a 'Tetszik' gombra.**
    vagy
    Rejtett tartalom:
    **Rejtett tartalom: A tartalom megjelenítéséhez kattints a 'Tetszik' gombra.**
     
    Nicola, karakas és Lexis kedveli ezt.
  3. papadi

    papadi Állandó Tag

    [​IMG]

    6. történet: The Aztecs (Az aztékok)
    (1964 - avi - FF - 704x528 px - 1:38:50)

    Epizódok:
    6/1 (27) The Temple of Evil (A gonosz temploma)
    6/2 (28) The Warriors of Death (A halál harcosai)
    6/3 (29) The Bride of Sacrifice (Az áldozat menyasszonya)
    6/4 (30) The Day of Darkness (A sötétség napja)
    Hang: angol
    Felirat: magyar

    Bónusz:
    Remembering the Aztecs (28:20)
    Designing the Aztecs (24:34)
    Cortez & Montezuzma (5:56)
    Restoring the Aztecs (8:09)
    Making Cocoa (2:30)
    TARDIS-cam No.3 (1:06)
    Intro Sequences (1:16)
    Chronicle - The Realms of Gold (49:52)
    Doctor Forever! - Celestial Toyroom (22:36)
    It’s a Square World (7:23)
    A Whole Scene Going (4:33)
    Easter Egg (0:13)
    (magyar felirat nincs, angol van)

    Rejtett tartalom:
    **Rejtett tartalom: A tartalom megjelenítéséhez kattints a 'Tetszik' gombra.**
    vagy
    Rejtett tartalom:
    **Rejtett tartalom: A tartalom megjelenítéséhez kattints a 'Tetszik' gombra.**
     
    Lexis kedveli ezt.
  4. papadi

    papadi Állandó Tag

    [​IMG]

    7. történet: The Sensorites (A szenzoriták)
    (1964 - avi - FF - 576x432 px - 2:29:37)

    Epizódok:
    7/1 (31) Strangers in Space (Idegenek az űrben)
    7/2 (32) The Unwilling Warriors (A vonakodó harcosok)
    7/3 (33) Hidden Danger (Rejtett veszély)
    7/4 (34) A Race Against Death (Versenyfutás a halállal)
    7/5 (35) Kidnap (Emberrablás)
    7/6 (36) A Desperate Venture (Kétségbeesett vállalkozás)
    Hang: angol
    Felirat: magyar

    Bónusz:
    Looking for Peter (21:19)
    Vision On (7:04)
    Secret Voices of the Sense-Sphere (2:04)
    (magyar felirat nincs, angol van)

    Rejtett tartalom:
    **Rejtett tartalom: A tartalom megjelenítéséhez kattints a 'Tetszik' gombra.**
    vagy
    Rejtett tartalom:
    **Rejtett tartalom: A tartalom megjelenítéséhez kattints a 'Tetszik' gombra.**
     
    Lexis kedveli ezt.
  5. papadi

    papadi Állandó Tag

    [​IMG]

    8. történet: The Reign of Terror (A terror uralma)
    (1964 - avi - FF - 704x528 px - 2:38:33)

    Alternatív cím:
    The French Revolution(A francia forradalom)

    A 4-5. epizód elveszett, azokat a Marco Polo-hoz hasonlóan (csak itt fekete-fehérben) rekonstruálták.

    Epizódok:
    8/- (-) Bevezetés
    8/1 (37) A Land of Fear (A félelem földje)
    8/2 (38) Guests of Madame Guillotine (Madame Guillotine vendégei)
    8/3 (39) A Change of Identity (A személyazonosság megváltoztatása)
    8/4 (40) The Tyrant of France (Recon) (Franciaország zsarnokai)
    8/5 (41) A Bargain of Necessity (Recon) (Egy szükséges alku)
    8/6 (42) Prisoners of Conciergerie (Conciergerie foglyai)
    8/- (-) Befejezés
    Hang: angol

    Felirat: magyar (a kiegészítésként hozzárakott bevezetéshez és a befejezéshez nincs)

    Bónusz:
    Don’t Lose Your Head (22:05)
    Robespierre’s Domain (2:45)
    Animation Design Gallery (3:40)
    (magyar felirat nincs, angol van)

    Rejtett tartalom:
    **Rejtett tartalom: A tartalom megjelenítéséhez kattints a 'Tetszik' gombra.**
    vagy
    Rejtett tartalom:
    **Rejtett tartalom: A tartalom megjelenítéséhez kattints a 'Tetszik' gombra.**
     
    Lexis kedveli ezt.
  6. papadi

    papadi Állandó Tag

    Ez már a második évad.

    [​IMG]

    9. történet: Planet of Giants (Az óriások bolygója)
    (1964 - avi - FF - 704x528 px - 1:13:27)

    Főszereplők:
    A Doktor: William Hartnell
    Susan Foreman: Carole Ann Ford
    Barbara Wright: Jacqueline Hill
    Ian Chesterton: William Russell

    Epizódok:
    9/1 (43) Planet of Giants (Az óriások bolygója)
    9/2 (44) Dangerous Journey (Veszélyes utazás)
    9/3 (45) Crisis (Válság)
    Hang: angol
    Felirat: magyar

    Bónusz:
    Episode 3 (Reconstruction) (28:04)
    Episode 4 (Reconstrustion) (24:34)
    Rediscovering the Urge to Live (8:30)
    Sudenly Susan (15:19)
    The Lambert Tapes (14:01)
    Prop Design Plans (PDF)
    (magyar felirat nincs, angol van)

    Végre a Földön, Angliában. Az időpont is stimmel. Csak a méret… Ráadásként egy gyilkosság!
    Eredetileg négy epizódra tervezték, de valaki megsajnálta a macskát… (lásd a bónuszok között)


    Rejtett tartalom:
    **Rejtett tartalom: A tartalom megjelenítéséhez kattints a 'Tetszik' gombra.**
    vagy
    Rejtett tartalom:
    **Rejtett tartalom: A tartalom megjelenítéséhez kattints a 'Tetszik' gombra.**
     
    Lexis kedveli ezt.
  7. papadi

    papadi Állandó Tag

    [​IMG]

    10. történet: The Dalek Invasion of Earth (A Föld Dalek-inváziója)
    (1964 - avi - FF - 704x528 px - 2:28:34)

    Főszereplők:
    A Doktor: William Hartnell
    Susan Foreman: Carole Ann Ford
    Barbara Wright: Jacqueline Hill
    Ian Chesterton: William Russell

    Epizódok:
    10/1 (46) World’s End (Világvége)
    10/2 (47) The Daleks (A dalekek)
    10/3 (48) Day of Reckoning (A leszámolás napja)
    10/4 (49) The End of Tomorrow (A holnap vége)
    10/5 (50) The Waking Ally (Az ébredő társ)
    10/6 (51) Flashpoint (Égéspont)
    Hang: angol
    Felirat: magyar

    Bónusz:
    CGI-Effects (1:13)
    Future Memories (45:22)
    Future Visions (17:48)
    Talking Daleks (10:30)
    Now and Then (6:57)
    Scricpt to Screen (6:01)
    Whatever Happened to Susan (27:53)
    Whatever Happened to Susan (mp3) (27:50)
    Rehearsal Film (1:41)
    Blue Peter (7:02)
    Sid Title (0:28)
    Sid’s Date (0:46)
    Copyright Warning (0:24)
    (magyar felirat nincs, angol van)

    A Doktor joggal büszke magára, Londonban a Temze partján materializálódik a TARDIS. Csak valami most sem stimmel. Túl nagy a csend, az egész olyan lepusztult… Hamarosan feltűnik egy Dalek is!
    Ezt a történetet dolgozták fel a második Peter Cushing-filmben, ami az évad után került a mozikba. Érdemes összehasonlítani. A sorozat szempontjából egyébként ez egy fontos történet, elérkeztünk az első búcsúhoz.


    Rejtett tartalom:
    **Rejtett tartalom: A tartalom megjelenítéséhez kattints a 'Tetszik' gombra.**
    vagy
    Rejtett tartalom:
    **Rejtett tartalom: A tartalom megjelenítéséhez kattints a 'Tetszik' gombra.**
     
    Lexis kedveli ezt.
  8. papadi

    papadi Állandó Tag

    [​IMG]

    11. történet: The Rescue (A mentöakció)
    (1965 - avi - FF - 704x528 px - 49:56)

    Főszereplők:
    A Doktor: William Hartnell
    Barbara Wright: Jacqueline Hill
    Ian Chesterton: William Russell

    Epizódok:
    11/1 (52) The Powerful Enemy (A hatalmas ellenség)
    11/2 (53) Desperate Measures (Kétségbeesett intézkedések)
    Hang: angol
    Felirat: magyar

    Bónusz:
    Mounting the Rescue (21:49)
    Desing (PDF)
    (magyar felirat nincs, angol van)

    A Dido bolygón egy szerencsétlenül járt földi űrhajó két túlélőjét rettegésben tartja Koquillion, egy szörnyszerű helybéli, aki megtámadja Barbarát, majd a két férfit is csapdába ejti. A Doktor nem érti, hiszen mikor korábban itt járt, a Dido lakói kedves és barátságos emberek voltak…

    Rejtett tartalom:
    **Rejtett tartalom: A tartalom megjelenítéséhez kattints a 'Tetszik' gombra.**
    vagy
    Rejtett tartalom:
    **Rejtett tartalom: A tartalom megjelenítéséhez kattints a 'Tetszik' gombra.**
     
    Lexis kedveli ezt.
  9. papadi

    papadi Állandó Tag

    [​IMG]

    12. történet: The Romans (A rómaiak)
    (1965 - avi - FF - 704x528 px - 1:37:09)

    Főszereplők:
    A Doktor: William Hartnell
    Barbara Wright: Jacqueline Hill
    Ian Chesterton: William Russell
    Vicki: Maoreen O'Brien

    Epizódok:
    12/1 (54) The Slave Traders (A rabszolga-kereskedök)
    12/2 (55) All Roads Lead to Rome (Minden út Rómába vezet)
    12/3 (56) Conspiracy (Összeesküvés)
    12/4 (57) Inferno (Pokol)
    Hang: angol
    Felirat: magyar

    Bónusz:
    What Has ’The Romans’ Ever Done For Us (34:00)
    Roma Parva (2:34)
    Wanna Write a Television Series (17:48)
    Girls! Girls! Girls! - The 1960s (17:41)
    Roman Banquet (7:16)
    (magyar felirat nincs, angol van)

    A Vickivel kiegészült csapat a Római Birodalomban, egy falusi villájában piheni ki az utazások fáradalmait. A fővárosba is eljutnak, ki vendég művészként, ki rabszolgaként… A végén az is kiderül, Nero miért is gyújtotta fel Rómát…

    Rejtett tartalom:
    **Rejtett tartalom: A tartalom megjelenítéséhez kattints a 'Tetszik' gombra.**
    vagy
    Rejtett tartalom:
    **Rejtett tartalom: A tartalom megjelenítéséhez kattints a 'Tetszik' gombra.**
     
    fmisi85, brunó1945 és Lexis kedveli ezt.
  10. papadi

    papadi Állandó Tag

    [​IMG]

    13. történet: The Web Planet (A hálóbolygó)
    (1965 - avi - FF - 704x528 px - 2:26:20)

    Főszereplők:
    A Doktor: William Hartnell
    Barbara Wright: Jacqueline Hill
    Ian Chesterton: William Russell
    Vicki: Maoreen O'Brien

    Epizódok:
    13/1 (58) The Web Planet (A hálóbolygó)
    13/2 (59) The Zarbi (Zarbi)
    13/3 (60) Escape to Danger (Menekülés a veszélybe)
    13/4 (61) Crater of Needles (A Tűk krátere)
    13/5 (62) Invasion (Invázió)
    13/6 (63) The Centre (A központ)
    Hang: angol
    Felirat: magyar

    Bónusz:
    Tales of Isop (37:51)
    The Lair of Zarbi Supremo (56:45)
    (az extrákhoz magyar felirat nincs, angol van)

    A római vakáció után a TARDIS-t eltéríti és a Vortis bolygóra kényszeríti valamilyen erő. Ahhoz, hogy kiszabaduljanak, meg kell találni az erő forrását és így akaratlanul is belekeverednek az erő által irányított óriáshangyák és a bolygót visszafoglalni szándékozó óriásméhek háborújába.

    Rejtett tartalom:
    **Rejtett tartalom: A tartalom megjelenítéséhez kattints a 'Tetszik' gombra.**
    vagy
    Rejtett tartalom:
    **Rejtett tartalom: A tartalom megjelenítéséhez kattints a 'Tetszik' gombra.**
     
    Lexis kedveli ezt.
  11. papadi

    papadi Állandó Tag

    Ráadás: Dr.Who - Peter Cushing - A Doctor Who (Ki vagy, Doki?) sorozat első mellékfilmjei

    Ha valaki hozzám hasonlóan csak a sorozat 2005-ös újraindításakor ismerkedett meg a Doktorral, majd érdeklődni kezdett az eredeti történetek iránt is, azt már az 1963-as első évaddal is érte meglepetés. Például, hogy a Doktornak unokája van, Susan. A második évad után bemutatott mozifilm tovább bonyolítja a családfát, itt már Barbara is unoka és Ian sem tanára Susannak, hanem Barbara udvarlója. A második filmben egy unkahúg is előkerül Louis személyében. A főszereplő sem időlord, hanem egy földi tudós. Többek között ezért nem Doctor Who, hanem Dr. Who.
    Mindkét film a sorozatban már bemutatott történetek újrafeldolgozása. (2. történet - The Daleks, I/2. rész, 5-11. epizód, illetve a 10. történet - The Dalek Invasion of Earth, II/2. rész, 46-51. epizód).
    Az első filmben, egy véletlen indítás miatt a TARDIS a Skaro bolygón landol, amelyet évszázadokkal korábban egy nukleáris háború pusztított el. Mint kiderül, mégis vannak túllélők: a Dalek-ok és a Thal-ok…
    A második film Londonban, egy ékszerüzlet kirablásával indul. Az intézkedő rendőr a TARDIS-t valódi rendőrfülkének nézi, így véletlenül ő is utassá válik, amikor Dr. Who úgy dönt, hogy megnézi Londont 2150-ben. A város romokban, az utcán fura robotszerű emberek és egy Dalek emelkedik ki a Temzéből…
    A két film egy dvd-n jelent meg, bónuszként egy közel egyórás dokumentumfilmmel egészítették ki.


    [​IMG]

    1. Dr. Who and the Daleks
    (feliratos angol sci-fi)
    Főszereplők: Peter Cushing (Dr. Who), Roy Castle (Ian Chesterton), Jennie Linden (Barbara), Roberta Tovey (Susan)
    Rendezte: Gordon Flemyng
    Bemutató: 1965. augusztus 23.
    Hang: angol
    Felirat: magyar

    Média információ:
    G:\0\Doctor Who\DW002M\Dr Who and the Daleks.avi
    General
    Complete name : G:\0\Doctor Who\DW002M\Dr Who and the Daleks.avi
    Format : AVI
    Format/Info : Audio Video Interleave
    File size : 1.07 GiB
    Duration : 1 h 19 min
    Overall bit rate mode : Variable
    Overall bit rate : 1 940 kb/s
    Movie name : Doctor Who and the Daleks (1965)
    Law rating : Unrated
    Writing application : VirtualDubMod 1.5.10.2 (build 2540/release) VirtualDubMod build 2540/release
    Video #0
    ID : 0
    Format : MPEG-4 Visual
    Format profile : Advanced [email protected]
    Format settings, BVOP : 2
    Format settings, QPel : No
    Format settings, GMC : No warppoints
    Format settings, Matrix : Default (MPEG)
    Codec ID : XVID
    Codec ID/Hint : XviD
    Duration : 1 h 19 min
    Bit rate : 1 813 kb/s
    Width : 704 pixels
    Height : 288 pixels
    Display aspect ratio : 2.40:1
    Frame rate : 25.000 FPS
    Color space : YUV
    Chroma subsampling : 4:2:0
    Bit depth : 8 bits
    Scan type : Progressive
    Compression mode : Lossy
    Bits/(Pixel*Frame) : 0.358
    Stream size : 1.00 GiB (93%)
    Writing library : XviD 1.2.1 (UTC 2008-12-04)
    Audio #1
    ID : 1
    Format : MPEG Audio
    Format version : Version 1
    Format profile : Layer 3
    Mode : Joint stereo
    Mode extension : MS Stereo
    Codec ID : 55
    Codec ID/Hint : MP3
    Duration : 1 h 19 min
    Bit rate mode : Variable
    Bit rate : 114 kb/s
    Nominal bit rate : 128 kb/s
    Channel(s) : 2 channels
    Sampling rate : 48.0 kHz
    Compression mode : Lossy
    Stream size : 64.8 MiB (6%)
    Alignment : Aligned on interleaves
    Interleave, duration : 24 ms (0.60 video frame)
    Interleave, preload duration : 510 ms
    Writing library : LAME3.98r
    Encoding settings : -m j -V 4 -q 2 -lowpass 17 --abr 128
    Language : Undefined

    [​IMG]

    (avi - 1,07 GB - 704x288 px - 1:19:15)

    Rejtett tartalom:
    **Rejtett tartalom: A tartalom megjelenítéséhez kattints a 'Tetszik' gombra.**
    vagy
    Rejtett tartalom:
    **Rejtett tartalom: A tartalom megjelenítéséhez kattints a 'Tetszik' gombra.**
     
    Lexis kedveli ezt.
  12. papadi

    papadi Állandó Tag

    [​IMG]

    2. Daleks - Invasion Earth: 2150 A.D.
    (feliratos angol sci-fi)
    Főszereplők: Peter Cushing (Dr. Who), Bernard Cibbrins (Tom Campbell), Jill Curzon (Louise), Roberta Tovey (Susan)
    Rendezte: Gordon Flemyng
    Bemutató: 1966. augusztus 5.
    Hang: angol
    Felirat: magyar

    Média információ:
    G:\0\Doctor Who\DW010M\Daleks - Invasion Earth 2150 AD.avi
    General
    Complete name : G:\0\Doctor Who\DW010M\Daleks - Invasion Earth 2150 AD.avi
    Format : AVI
    Format/Info : Audio Video Interleave
    File size : 1.07 GiB
    Duration : 1 h 20 min
    Overall bit rate mode : Variable
    Overall bit rate : 1 903 kb/s
    Movie name : Doctor Who - Daleks Invasion Earth 2150 AD (1966)
    Law rating : Unrated
    Writing application : VirtualDubMod 1.5.10.2 (build 2540/release) VirtualDubMod build 2540/release
    Video #0
    ID : 0
    Format : MPEG-4 Visual
    Format profile : Advanced [email protected]
    Format settings, BVOP : 2
    Format settings, QPel : No
    Format settings, GMC : No warppoints
    Format settings, Matrix : Default (MPEG)
    Codec ID : XVID
    Codec ID/Hint : XviD
    Duration : 1 h 20 min
    Bit rate : 1 774 kb/s
    Width : 704 pixels
    Height : 288 pixels
    Display aspect ratio : 2.40:1
    Frame rate : 25.000 FPS
    Color space : YUV
    Chroma subsampling : 4:2:0
    Bit depth : 8 bits
    Scan type : Progressive
    Compression mode : Lossy
    Bits/(Pixel*Frame) : 0.350
    Stream size : 1.00 GiB (93%)
    Writing library : XviD 1.2.1 (UTC 2008-12-04)
    Audio #1
    ID : 1
    Format : MPEG Audio
    Format version : Version 1
    Format profile : Layer 3
    Mode : Joint stereo
    Mode extension : MS Stereo
    Codec ID : 55
    Codec ID/Hint : MP3
    Duration : 1 h 20 min
    Bit rate mode : Variable
    Bit rate : 117 kb/s
    Nominal bit rate : 128 kb/s
    Channel(s) : 2 channels
    Sampling rate : 48.0 kHz
    Compression mode : Lossy
    Stream size : 67.4 MiB (6%)
    Alignment : Aligned on interleaves
    Interleave, duration : 24 ms (0.60 video frame)
    Interleave, preload duration : 158 ms
    Writing library : LAME3.98r
    Encoding settings : -m j -V 4 -q 2 -lowpass 17 --abr 128
    Language : Undefined

    [​IMG]

    (avi - 1,07 GB - 704x288 px - 1:20:45)

    Rejtett tartalom:
    **Rejtett tartalom: A tartalom megjelenítéséhez kattints a 'Tetszik' gombra.**
    vagy
    Rejtett tartalom:
    **Rejtett tartalom: A tartalom megjelenítéséhez kattints a 'Tetszik' gombra.**
     
    Lexis kedveli ezt.
  13. papadi

    papadi Állandó Tag

    [​IMG]

    3. Dalekmania (bonus)
    Angol dokumentumfilm, 1995
    Rendezte: Kevin Davies
    Hang: angol
    Felirat: nincs

    Média információ:
    G:\0\Doctor Who\DWbonus\Dr Who - Bonus - Dalekmania.avi
    General
    Complete name : G:\0\Doctor Who\DWbonus\Dr Who - Bonus - Dalekmania.avi
    Format : AVI
    Format/Info : Audio Video Interleave
    File size : 548 MiB
    Duration : 57 min
    Overall bit rate mode : Variable
    Overall bit rate : 1 340 kb/s
    Movie name : Doctor Who - Daleks Invasion Earth 2150 AD (1966) Bonus - Dalekmania
    Law rating : Unrated
    Writing application : VirtualDubMod 1.5.10.2 (build 2540/release) VirtualDubMod build 2540/release
    Video #0
    ID : 0
    Format : MPEG-4 Visual
    Format profile : Advanced [email protected]
    Format settings, BVOP : 2
    Format settings, QPel : No
    Format settings, GMC : No warppoints
    Format settings, Matrix : Default (MPEG)
    Codec ID : XVID
    Codec ID/Hint : XviD
    Duration : 57 min
    Bit rate : 1 207 kb/s
    Width : 704 pixels
    Height : 528 pixels
    Display aspect ratio : 4:3
    Frame rate : 25.000 FPS
    Color space : YUV
    Chroma subsampling : 4:2:0
    Bit depth : 8 bits
    Scan type : Progressive
    Compression mode : Lossy
    Bits/(Pixel*Frame) : 0.130
    Stream size : 494 MiB (90%)
    Writing library : XviD 1.2.1 (UTC 2008-12-04)
    Audio #1
    ID : 1
    Format : MPEG Audio
    Format version : Version 1
    Format profile : Layer 3
    Mode : Joint stereo
    Codec ID : 55
    Codec ID/Hint : MP3
    Duration : 57 min
    Bit rate mode : Variable
    Bit rate : 120 kb/s
    Nominal bit rate : 128 kb/s
    Channel(s) : 2 channels
    Sampling rate : 48.0 kHz
    Compression mode : Lossy
    Stream size : 49.3 MiB (9%)
    Alignment : Aligned on interleaves
    Interleave, duration : 24 ms (0.60 video frame)
    Interleave, preload duration : 337 ms
    Writing library : LAME3.98r
    Encoding settings : -m j -V 4 -q 2 -lowpass 17 --abr 128
    Language : Undefined

    [​IMG]

    (avi - 548 MB - 704x528 px - 57:13)

    Rejtett tartalom:
    **Rejtett tartalom: A tartalom megjelenítéséhez kattints a 'Tetszik' gombra.**
    vagy
    Rejtett tartalom:
    **Rejtett tartalom: A tartalom megjelenítéséhez kattints a 'Tetszik' gombra.**
     
    Lexis kedveli ezt.
  14. papadi

    papadi Állandó Tag

    Még egy ráadás:

    [​IMG]

    Ki vagy Doki? (Doctor Who)
    Angol sci-fi sorozat
    Az 50. évfordulós különkiadás - A Doktor napja (The Day of the Doctor)
    Főszereplők: Matt Smith (Doktor), David Tennant (Doktor), John Hurt (Doktor), Jenna Coleman (Clara), Billie Piper (Rose)
    Rendezte: Nick Hurran
    (2013 - avi - 974 MB - 720x404 px - 1:16:31 - feliratos)

    Az új sorozat 7. évadja után a szokásos karácsonyi különkiadás (The Time of the Doctor) előtt egy hónappal került adásba az 50. évfordulóra készült film (The Day of the Doctor), amely a kezdetekhez vezet vissza. Vajon 11 Doktor véget tud-e vetni az Időháborúnak úgy, hogy szülőbolygójuk megmeneküljön?

    Média információ:
    C:\Users\user\Videos\DW259\259 - 50th Anniversary Special - The Day of the Doctor (A Doktor napja).avi
    General
    Complete name : C:\Users\user\Videos\DW259\259 - 50th Anniversary Special - The Day of the Doctor (A Doktor napja).avi
    Format : AVI
    Format/Info : Audio Video Interleave
    File size : 974 MiB
    Duration : 1 h 16 min
    Overall bit rate : 1 780 kb/s
    Writing application : Lavf58.17.100
    Video #0
    ID : 0
    Format : MPEG-4 Visual
    Format profile : Advanced [email protected]
    Format settings, BVOP : 3
    Format settings, QPel : No
    Format settings, GMC : No warppoints
    Format settings, Matrix : Default (H.263)
    Codec ID : DIVX
    Codec ID/Info : Project Mayo
    Codec ID/Hint : DivX 4
    Duration : 1 h 16 min
    Bit rate : 1 640 kb/s
    Width : 720 pixels
    Height : 404 pixels
    Display aspect ratio : 16:9
    Frame rate : 25.000 FPS
    Color space : YUV
    Chroma subsampling : 4:2:0
    Bit depth : 8 bits
    Scan type : Interlaced
    Original scan type : Progressive
    Scan order : Bottom Field First
    Compression mode : Lossy
    Bits/(Pixel*Frame) : 0.225
    Stream size : 897 MiB (92%)
    Writing library : Lavc58.19.104
    Audio #1
    ID : 1
    Format : MPEG Audio
    Format version : Version 1
    Format profile : Layer 3
    Codec ID : 55
    Codec ID/Hint : MP3
    Duration : 1 h 16 min
    Bit rate mode : Constant
    Bit rate : 128 kb/s
    Channel(s) : 2 channels
    Sampling rate : 48.0 kHz
    Compression mode : Lossy
    Stream size : 70.1 MiB (7%)
    Alignment : Aligned on interleaves
    Interleave, duration : 24 ms (0.60 video frame)
    Writing library : LAME3.100ŞŞŞŞŞŞŞŞŞŞŞ

    [​IMG]

    Rejtett tartalom:
    **Rejtett tartalom: A tartalom megjelenítéséhez kattints a 'Tetszik' gombra.**
    vagy
    Rejtett tartalom:
    **Rejtett tartalom: A tartalom megjelenítéséhez kattints a 'Tetszik' gombra.**
     
    Boozoka, Zikkamak és Lexis kedveli ezt.
  15. papadi

    papadi Állandó Tag

    A Doctor Who - kezdetek a halott linkek cseréje miatt újratöltve.
     
  16. papadi

    papadi Állandó Tag

    [​IMG]

    Űrjárőrök - Az Orion űrhajó fantasztikus kalandjai
    (Raumpatrouille - Die phantastischen Abenteuer des Raumschiffes Orion)
    NSZK filmsorozat (1966)

    Az Orion személyzete:
    Cliff Allister McLane őrnagy, parancsnok - Dietmar Schönherr
    Tamara Jagellovsk hadnagy, biztonsági tiszt - Eva Pflug
    Hasso Sigbjörnsen hadnagy, gépész - Claus Holm
    Mario de Monti hadnagy, fegyverzeti tiszt - Wolfgang Völz
    Atan Shubashi hadnagy, asztrogátor ("űrnavigátor") - Friedrich G. Beckhaus
    Helga Legrelle hadnagy, űrfigyelő - Ursula Lillig

    További főbb szereplők:
    Winston Woodrov Wamsler tábornok, a Bolygóközi Haderő főparancsnoka - Benno Sterzenbach
    Henryk Villa ezredes, a Biztonsági Szolgálat főparancsnoka - Friedrich Joloff
    Lydia van Dyke tábornok, a Hydra űrcirkáló parancsnoka - Charlotte Kerr
    Rendezte: Theo Mezger, Michael Braun

    Hang: magyar, német (iso)
    Felirat: magyar (iso)

    A történet körülbelül 3000-ben játszódik, amikor a Föld lakossága már egyetlen közösséget alkot, amelyet a világkormány irányít. A bolygóközi űrflotta egyik legjobb hajója az Orion űrcirkáló, amelynek öt fős személyzete, Cliff Allister McLane parancsnok vezetésével számos bátor akciójuk ellensúlyozásaként hasonlóan számos magánakciót, szabályszegést, fegyelmezetlenséget tudhat már maga mögött. A flotta vezérkara megelégeli a dolgot, és büntetésül az Oriont három évre közönséges járőrszolgálatra osztják be. Azért, hogy a további kilengéseket megakadályozzák, a hajóra vezénylik a Biztonsági Szolgálat tisztjét, Tamara Jagello hadnagyot, és felhatalmazzák "alfa-parancs" kiadására, tehát a parancsnok utasítására is a szükséges esetekben.
    Az Orion első járőrútja során idegen lényekkel találkozik, akik megszállták az egyik előretolt űrbázist, megölve annak személyzetét, és az Oriont is megtámadják. Kialakul egy gerillaháború a veszélyes eszközökkel támadó Varangyok - ahogy az idegen lényeket elnevezték -, és a Föld között. Ebben a háborúban játszódik a sorozat összesen hét epizódja.
    (Wikipédia)

    [​IMG]

    Média információ:
    Show Spoiler

    I:\0000\160918O1\160918O1\Ürjárörök - Az Orion ürhajó fantasztikus kalandjai I\1 - Támadás az ürböl.avi
    General
    Complete name : I:\0000\160918O1\160918O1\Ürjárörök - Az Orion ürhajó fantasztikus kalandjai I\1 - Támadás az ürböl.avi
    Format : AVI
    Format/Info : Audio Video Interleave
    File size : 585 MiB
    Duration : 58 min
    Overall bit rate mode : Variable
    Overall bit rate : 1 394 kb/s
    Writing application : VirtualDubMod 1.5.4.1 (build 2178/release)
    Writing library : VirtualDubMod build 2178/release
    Video #0
    ID : 0
    Format : MPEG-4 Visual
    Format profile : Advanced [email protected]
    Format settings, BVOP : 1
    Format settings, QPel : No
    Format settings, GMC : No warppoints
    Format settings, Matrix : Custom
    Codec ID : XVID
    Codec ID/Hint : XviD
    Duration : 58 min
    Bit rate : 1 284 kb/s
    Width : 720 pixels
    Height : 544 pixels
    Display aspect ratio : 4:3
    Frame rate : 25.000 FPS
    Color space : YUV
    Chroma subsampling : 4:2:0
    Bit depth : 8 bits
    Scan type : Progressive
    Compression mode : Lossy
    Bits/(Pixel*Frame) : 0.131
    Stream size : 539 MiB (92%)
    Writing library : XviD 1.2.1 (UTC 2008-12-04)
    Audio #1
    ID : 1
    Format : MPEG Audio
    Format version : Version 1
    Format profile : Layer 3
    Mode : Joint stereo
    Mode extension : MS Stereo
    Codec ID : 55
    Codec ID/Hint : MP3
    Duration : 58 min
    Bit rate mode : Variable
    Bit rate : 97.7 kb/s
    Nominal bit rate : 128 kb/s
    Channel(s) : 2 channels
    Sampling rate : 48.0 kHz
    Compression mode : Lossy
    Stream size : 41.0 MiB (7%)
    Alignment : Aligned on interleaves
    Interleave, duration : 24 ms (0.60 video frame)
    Interleave, preload duration : 495 ms
    Writing library : LAME3.98r
    Encoding settings : -m j -V 4 -q 2 -lowpass 17 --abr 128


    [​IMG]

    Első lemez:
    1 - Támadás az űrből (58:39)
    2 - Az eltérített bolygó (55:51)
    3 - A törvény őrei (1:00:36)

    Extra (csak a dvd-n, de minek):
    a 2. és 3. dvd ajánlója (csak egy kép be nem tartott ígéretekkel)

    dvd/iso - 6,16 GB - 720x576 - 256 kbs - 2:55:46 (prémium)
    Rejtett tartalom:
    **Rejtett tartalom: A tartalom megjelenítéséhez kattints a 'Tetszik' gombra.**
    dvdrip - avi - 1,70 GB - 720x544 - 2:55:06
    Rejtett tartalom:
    **Rejtett tartalom: A tartalom megjelenítéséhez kattints a 'Tetszik' gombra.**
    vagy free
    Rejtett tartalom:
    **Rejtett tartalom: A tartalom megjelenítéséhez kattints a 'Tetszik' gombra.**
    [​IMG]

    Második lemez:
    4 - A szökevények (56:41)
    5 - Harc a Napért (58:04)

    Extra (csak a dvd-n):
    a 3. dvd ajánlója (csak egy kép be nem tartott ígéretekkel)

    dvd/iso - 4,35 GB - 720x576 - 256 kbps - 1:55:06 (prémium)
    Rejtett tartalom:
    **Rejtett tartalom: A tartalom megjelenítéséhez kattints a 'Tetszik' gombra.**
    dvdrip - avi - 1,12 GB - 720x544 - 1:54:46
    Rejtett tartalom:
    **Rejtett tartalom: A tartalom megjelenítéséhez kattints a 'Tetszik' gombra.**
    vagy free
    Rejtett tartalom:
    **Rejtett tartalom: A tartalom megjelenítéséhez kattints a 'Tetszik' gombra.**
    [​IMG]

    Harmadik lemez:
    6 - Az űrcsapda (1:00:40)
    7 - Az invázió (58:48)

    Extrák (csak a dvd-n):
    1 - Peter Thomas and The Maxwell Implosion: Warp Back to Earth (videoklip) 3:58
    2 - Gálaműsor az Orion szereplőivel (csak a bemutatkozás) (3:28)

    dvd/iso - 6,04 GB - 720x576 - 256 kbps - 1:59:48 (2:07:14) (prémium)
    Rejtett tartalom:
    **Rejtett tartalom: A tartalom megjelenítéséhez kattints a 'Tetszik' gombra.**
    dvdrip - avi - 1,16 GB - 720x544 - 1:59:28
    Rejtett tartalom:
    **Rejtett tartalom: A tartalom megjelenítéséhez kattints a 'Tetszik' gombra.**
    vagy free
    Rejtett tartalom:
    **Rejtett tartalom: A tartalom megjelenítéséhez kattints a 'Tetszik' gombra.**
    [​IMG]

    Negyedik lemez - a mozifilm:
    Orion űrhajó - A visszatérés (2003)

    [​IMG]

    Média információ:
    Show Spoiler

    C:\Users\user\Videos\D2388av\Orion ürhajó - A visszatérés\Orion ürhajó - A visszatérés.avi
    General
    Complete name : C:\Users\user\Videos\D2388av\Orion ürhajó - A visszatérés\Orion ürhajó - A visszatérés.avi
    Format : AVI
    Format/Info : Audio Video Interleave
    Format profile : OpenDML
    File size : 1.34 GiB
    Duration : 1 h 29 min
    Overall bit rate : 2 139 kb/s
    Writing application : Lavf58.17.100
    Video #0
    ID : 0
    Format : MPEG-4 Visual
    Format profile : Advanced [email protected]
    Format settings, BVOP : 3
    Format settings, QPel : No
    Format settings, GMC : No warppoints
    Format settings, Matrix : Default (H.263)
    Codec ID : DIVX
    Codec ID/Info : Project Mayo
    Codec ID/Hint : DivX 4
    Duration : 1 h 29 min
    Bit rate : 1 996 kb/s
    Width : 720 pixels
    Height : 540 pixels
    Display aspect ratio : 4:3
    Frame rate : 25.000 FPS
    Color space : YUV
    Chroma subsampling : 4:2:0
    Bit depth : 8 bits
    Scan type : Interlaced
    Original scan type : Progressive
    Scan order : Bottom Field First
    Compression mode : Lossy
    Bits/(Pixel*Frame) : 0.205
    Stream size : 1.25 GiB (93%)
    Writing library : Lavc58.19.104
    Audio #1
    ID : 1
    Format : MPEG Audio
    Format version : Version 1
    Format profile : Layer 3
    Codec ID : 55
    Codec ID/Hint : MP3
    Duration : 1 h 29 min
    Bit rate mode : Constant
    Bit rate : 128 kb/s
    Channel(s) : 2 channels
    Sampling rate : 48.0 kHz
    Compression mode : Lossy
    Stream size : 81.9 MiB (6%)
    Alignment : Aligned on interleaves
    Interleave, duration : 24 ms (0.60 video frame)


    dvdrip - avi - 1,33 GB - 720x540 - 1:29:29
    Rejtett tartalom:
    **Rejtett tartalom: A tartalom megjelenítéséhez kattints a 'Tetszik' gombra.**
    vagy free
    Rejtett tartalom:
    **Rejtett tartalom: A tartalom megjelenítéséhez kattints a 'Tetszik' gombra.**
     
    Hun_Ki és Zikkamak kedveli ezt.
  17. papadi

    papadi Állandó Tag

    [​IMG]

    Star Trek (Űrszekerek) - A rajzfilmsorozat
    (Star Trek - The Animated Series)
    Feliratos amerikai rajzfilmsorozat (1973-74)

    Első évad:
    01. 1/1. Beyond the Farthest Star (A legtávolabbi csillagokon is túl) 24:10
    02. 1/2. Yesteryear (Múltban) 24:09
    03. 1/3. One of Our Planets Is Missing (Egy bolygónk hiányzik) 24:09
    04. 1/4. The Lorelei Signal (Szirének éneke) 24:11
    05. 1/5. More Tribbles, More Troubles (Még több szőr-nyűség) 24:12
    06. 1/6. The Survivor (A túlélő) 24:08
    07. 1/7. The Infinite Vulcan (A végtelen vulkáni) 24:07
    08. 1/8. The Magiks of Megas-Tu (Megas-Tu csodái) 24:08
    09. 1/9. Once upon a Planet (Egyszer egy bolygón…) 24:07
    10. 1/10. Mudd's Passion (Mudd szenvedélye) 24:08
    11. 1/11. The Terratin Incident (A Terratin incidens) 24:09
    12. 1/12. The Time Trap (Az időcsapa) 24:08
    13. 1/13. The Ambergris Element (Az Ambergris kísérlet) 24:09
    14. 1/14. The Slaver Weapon (A Slaver fegyver) 24:08
    15. 1/15. The Eye of the Beholder (A szemlélő szem) 24:09
    16. 1/16. The Jihad (A szent háború) 24:07

    Második évad:
    17. 2/1. The Pirates of Orion (Az Orion kalózai) 23:30
    18. 2/2. Bem (Bem) 23:31
    19. 2/3. The Practical Joker (A tréfacsináló) 23:31
    20. 2/4. Albatross (Albatross) 23:31
    21. 2/5. How Sharper Than a Serpent's Tooth (Élesebb, mint a kígyó foga) 23:30
    22. 2/6. The Counter-Clock Incident (A „Fordított-idő” incidens) 23:31

    [​IMG]

    Formátum: dvdrip/avi
    Méret: 4,94 GB
    Felbontás: 720x480
    Mintavételi frekvencia: 48000 Hz
    Bitsebesség: 128 kbps
    Műsoridő: 8:47:23

    Részletes média információ:
    Show Spoiler

    I:\0000\Star Trek - TAS - 01x01 - Beyond The Farthest Star\Star_Trek_-_TAS_-_01x01_-_Beyond_The_Farthest_Star.avi
    General
    Complete name : I:\0000\Star Trek - TAS - 01x01 - Beyond The Farthest Star\Star_Trek_-_TAS_-_01x01_-_Beyond_The_Farthest_Star.avi
    Format : AVI
    Format/Info : Audio Video Interleave
    File size : 232 MiB
    Duration : 24 min
    Overall bit rate : 1 341 kb/s
    Video #0
    ID : 0
    Format : MPEG-4 Visual
    Format profile : [email protected]
    Format settings, BVOP : No
    Format settings, QPel : No
    Format settings, GMC : No warppoints
    Format settings, Matrix : Default (H.263)
    Codec ID : XVID
    Codec ID/Hint : XviD
    Duration : 24 min
    Bit rate : 1 200 kb/s
    Width : 720 pixels
    Height : 480 pixels
    Display aspect ratio : 3:2
    Frame rate : 23.976 (24000/1001) FPS
    Color space : YUV
    Chroma subsampling : 4:2:0
    Bit depth : 8 bits
    Scan type : Progressive
    Compression mode : Lossy
    Bits/(Pixel*Frame) : 0.145
    Stream size : 208 MiB (90%)
    Writing library : XviD 1.1.0 Beta2 (UTC 2005-04-04)
    Audio #1
    ID : 1
    Format : MPEG Audio
    Format version : Version 1
    Format profile : Layer 3
    Mode : Joint stereo
    Mode extension : MS Stereo
    Codec ID : 55
    Codec ID/Hint : MP3
    Duration : 24 min
    Bit rate mode : Constant
    Bit rate : 128 kb/s
    Channel(s) : 2 channels
    Sampling rate : 48.0 kHz
    Compression mode : Lossy
    Stream size : 22.1 MiB (10%)
    Alignment : Aligned on interleaves
    Interleave, duration : 24 ms (0.58 video frame)
    Writing library : LAME3.96.1

    Feloldott tartalom:
    Kód:
    https://data.hu/get/11423294/STTAS01.part1.rar
    https://data.hu/get/11423293/STTAS01.part2.rar
    https://data.hu/get/11423303/STTAS02.part1.rar
    https://data.hu/get/11423298/STTAS02.part2.rar
    https://data.hu/get/11423288/STTAS03.part1.rar
    https://data.hu/get/11423302/STTAS03.part2.rar
    https://data.hu/get/11423319/STTAS04.part1.rar
    https://data.hu/get/11423332/STTAS04.part2.rar
    https://data.hu/get/11423308/STTAS05.part1.rar
    https://data.hu/get/11423317/STTAS05.part2.rar
    https://data.hu/get/11423323/STTAS06.part1.rar
    https://data.hu/get/11423316/STTAS06.part2.rar
    https://data.hu/get/11423330/STTAS07.part1.rar
    https://data.hu/get/11423296/STTAS07.part2.rar
    https://data.hu/get/11423312/STTAS08.part1.rar
    https://data.hu/get/11423324/STTAS08.part2.rar
    https://data.hu/get/11423326/STTAS09.part1.rar
    https://data.hu/get/11423327/STTAS09.part2.rar
    https://data.hu/get/11423305/STTAS10.part1.rar
    https://data.hu/get/11423322/STTAS10.part2.rar
    https://data.hu/get/11423325/STTAS11.part1.rar
    https://data.hu/get/11423299/STTAS11.part2.rar
    https://data.hu/get/11423306/STTAS12.part1.rar
    https://data.hu/get/11423328/STTAS12.part2.rar
    https://data.hu/get/11423321/STTAS13.part1.rar
    https://data.hu/get/11423315/STTAS13.part2.rar
    https://data.hu/get/11423331/STTAS14.part1.rar
    https://data.hu/get/11423301/STTAS14.part2.rar
    https://data.hu/get/11423300/STTAS15.part1.rar
    https://data.hu/get/11423304/STTAS15.part2.rar
    https://data.hu/get/11423329/STTAS16.part1.rar
    https://data.hu/get/11423320/STTAS16.part2.rar
    https://data.hu/get/11423297/STTAS17.part1.rar
    https://data.hu/get/11423307/STTAS17.part2.rar
    https://data.hu/get/11423318/STTAS18.part1.rar
    https://data.hu/get/11423289/STTAS18.part2.rar
    https://data.hu/get/11423314/STTAS19.part1.rar
    https://data.hu/get/11423310/STTAS19.part2.rar
    https://data.hu/get/11423295/STTAS20.part1.rar
    https://data.hu/get/11423313/STTAS20.part2.rar
    https://data.hu/get/11423309/STTAS21.part1.rar
    https://data.hu/get/11423311/STTAS21.part2.rar
    https://data.hu/get/11423291/STTAS22.part1.rar
    https://data.hu/get/11423292/STTAS22.part2.rar
    
     
    Boozoka kedveli ezt.
  18. papadi

    papadi Állandó Tag

    [​IMG]

    Agatha Christie: Poirot
    (Agatha Christie's Poirot)
    angol bűnügyi filmsorozat (1989-2013)
    Hang: magyar, angol
    Felirat: magyar

    Főszereplők:
    Hercule Poirot - David Suchet (Balázs Péter, Szersén Gyula),
    Arthur Hastings - Hugh Fraser (Szacsvay László, Barbinek Péter),
    Japp főfelügyelő - Philip Jackson (Ujlaki Dénes),
    Miss Lemon - Pauline Moran (Kútvölgyi Erzsébet, Egri Márta),
    Ariadne Oliver - Zoë Wanamaker (Szabó Éva, Martin Márta, Andresz Kati),
    George - David Yelland (Hirtling István)

    A sorozat Hercule Poirot, Angliában élő, belga származású magándetektív eseteit dolgozza fel 70 részben, amely lényegében lefedi Agatha Christie e témakörben írt valamennyi regényét és novelláját. Az egyes epizódok önálló történetek, korábbi esetekre való visszahivatkozás csak elvétve fordul elő, a film készítői talán ezért nem ragaszkodtak keletkezésük sorrendjéhez, kivéve hogy a záró történet azonos.
    A sorozat első 12 évadja 47 dvd-n jelent meg. Az utolsó évad öt történetét nálunk nem adták ki, ezeket - a teljesség kedvéért - a netről származó egyéb változatokkal pótoltam.

    A rövidebb epizódok még a dvd-kiadás előtt megjelentek a már megszűnt Napi Ász című újság mellékleteként VCD formátumban. A megfelelő részekhez érdekességként csatoltam ezek eredeti és készített borítóképeit is.

    David Suchet a sorozatot megelőzően is szerepelt már Poirot filmben, az 1985-ös Tizenhárman vacsorára című Ustinov-változatban Jepp felügyelőt alakítja. (Néhány más, a sorozattól független feldolgozást külön témában találjátok).
     
    Zikkamak, nandus és Bandicoot kedveli ezt.
  19. papadi

    papadi Állandó Tag

    [​IMG]

    1-2. (első évad - 1-2.) rész

    A claphami szakácsnő esete
    (The Adventure of the Clapham Cook)
    Rendezte: Edward Bennett
    Bemutató: 1989. január 8.
    Hang: magyar, angol
    Felirat: magyar, angol

    Poirot-t bagatell üggyel akarják megbízni: egy vidéki család eltűnt szakácsnőjét kellene megtalálnia. Csakis becsületből vállalja az ügyet. Maga is ínyenc lévén tudja, hogy egy jó szakácsnő kincset ér. A nyomozás során a vidéki Anglia egyszerű és néha együgyű lakóival kell zöldágra vergődnie. A végeredmény azonban felülmúl minden várakozást. Poirot nem csak a szakácsnőt keríti elő, de néhány más, országos horderejű ügyre is fényt derít. (a borítóról)

    Gyilkosság a sikátorban
    (Murder in the Mews)
    Rendezte: Edward Bennett
    Bemutató: 1989. január 15.
    Hang: magyar, angol
    Felirat: magyar, angol

    Az ünnepi tűzijátékban gyönyörködve Poirot, Japp és Hastings arról beszélgetnek, milyen kedvező időpont lenne ez egy gyilkossághoz, hiszen a petárdák zaja elfedné a lövés dördülését. Másnap reggelre kiderül: valaki megtette azt, amiről beszélgettek. Egy csinos és jómódú ifjú hölgy halt meg, akinek életében sok rossz szándékú ismerőse is volt. Volt azonban egy igaz barátnője is, aki mindig szerette volna megvédeni őt. (a borítóról)

    Média információ:
    Video:
    Kodek: MPEG-1/2 Video (mpgv)
    Felbontás: 720x576
    Képkockasebesség: 25
    Hang:
    Kodek: A52 Audio (aka AC3) (a52)
    Csatornák: 3F2R/LFE
    Mintavételi frekvencia: 48000 Hz
    Bitsebesség: 192/448 kb/mp
    Formátum: iso
    Méret: 4,28 GB
    Műsoridő: 50:24+50:43
    (prémium)
    Rejtett tartalom:
    **Rejtett tartalom: A tartalom megjelenítéséhez kattints a 'Tetszik' gombra.**
    [​IMG]

    [​IMG]

    Formátum: dvdrip/avi
    Méret: 0,99 GB
    Felbontás: 720x544
    Mintavételi frekvencia: 48000 Hz
    Bitsebesség: 128 kbps
    Műsoridő: 50:24+50:43
    Részletes média információ:
    Show Spoiler

    J:\01 - A claphami szakácsnö esete.avi
    General
    Complete name : J:\01 - A claphami szakácsnö esete.avi
    Format : AVI
    Format/Info : Audio Video Interleave
    File size : 503 MiB
    Duration : 50 min
    Overall bit rate : 1 396 kb/s
    Writing application : VirtualDubMod 1.5.4.1 (build 2178/release)
    Writing library : VirtualDubMod build 2178/release
    Video #0
    ID : 0
    Format : MPEG-4 Visual
    Format profile : Advanced [email protected]
    Format settings, BVOP : 1
    Format settings, QPel : No
    Format settings, GMC : No warppoints
    Format settings, Matrix : Custom
    Codec ID : XVID
    Codec ID/Hint : XviD
    Duration : 50 min
    Bit rate : 1 130 kb/s
    Width : 720 pixels
    Height : 544 pixels
    Display aspect ratio : 4:3
    Frame rate : 25.000 FPS
    Color space : YUV
    Chroma subsampling : 4:2:0
    Bit depth : 8 bits
    Scan type : Progressive
    Compression mode : Lossy
    Bits/(Pixel*Frame) : 0.115
    Stream size : 407 MiB (81%)
    Writing library : XviD 1.2.1 (UTC 2008-12-04)
    Audio #1
    ID : 1
    Format : MPEG Audio
    Format version : Version 1
    Format profile : Layer 3
    Mode : Joint stereo
    Mode extension : MS Stereo
    Codec ID : 55
    Codec ID/Hint : MP3
    Duration : 50 min
    Bit rate mode : Constant
    Bit rate : 128 kb/s
    Channel(s) : 2 channels
    Sampling rate : 48.0 kHz
    Compression mode : Lossy
    Stream size : 46.1 MiB (9%)
    Alignment : Aligned on interleaves
    Interleave, duration : 80 ms (2.00 video frames)
    Interleave, preload duration : 504 ms
    Writing library : LAME3.98r
    Encoding settings : -m j -V 4 -q 2 -lowpass 17 -b 128
    Audio #2
    ID : 2
    Format : MPEG Audio
    Format version : Version 1
    Format profile : Layer 3
    Mode : Joint stereo
    Mode extension : MS Stereo
    Codec ID : 55
    Codec ID/Hint : MP3
    Duration : 50 min
    Bit rate mode : Constant
    Bit rate : 128 kb/s
    Channel(s) : 2 channels
    Sampling rate : 48.0 kHz
    Compression mode : Lossy
    Stream size : 46.1 MiB (9%)
    Alignment : Aligned on interleaves
    Interleave, duration : 80 ms (2.00 video frames)
    Interleave, preload duration : 504 ms
    Writing library : LAME3.98r
    Encoding settings : -m j -V 4 -q 2 -lowpass 17 -b 128
    J:\02 - Gyilkosság a sikátorban.avi
    General
    Complete name : J:\02 - Gyilkosság a sikátorban.avi
    Format : AVI
    Format/Info : Audio Video Interleave
    File size : 507 MiB
    Duration : 50 min
    Overall bit rate : 1 398 kb/s
    Writing application : VirtualDubMod 1.5.4.1 (build 2178/release)
    Writing library : VirtualDubMod build 2178/release
    Video #0
    ID : 0
    Format : MPEG-4 Visual
    Format profile : Advanced [email protected]
    Format settings, BVOP : 1
    Format settings, QPel : No
    Format settings, GMC : No warppoints
    Format settings, Matrix : Custom
    Codec ID : XVID
    Codec ID/Hint : XviD
    Duration : 50 min
    Bit rate : 1 132 kb/s
    Width : 720 pixels
    Height : 544 pixels
    Display aspect ratio : 4:3
    Frame rate : 25.000 FPS
    Color space : YUV
    Chroma subsampling : 4:2:0
    Bit depth : 8 bits
    Scan type : Progressive
    Compression mode : Lossy
    Bits/(Pixel*Frame) : 0.116
    Stream size : 411 MiB (81%)
    Writing library : XviD 1.2.1 (UTC 2008-12-04)
    Audio #1
    ID : 1
    Format : MPEG Audio
    Format version : Version 1
    Format profile : Layer 3
    Mode : Joint stereo
    Mode extension : MS Stereo
    Codec ID : 55
    Codec ID/Hint : MP3
    Duration : 50 min
    Bit rate mode : Constant
    Bit rate : 128 kb/s
    Channel(s) : 2 channels
    Sampling rate : 48.0 kHz
    Compression mode : Lossy
    Stream size : 46.4 MiB (9%)
    Alignment : Aligned on interleaves
    Interleave, duration : 80 ms (2.00 video frames)
    Interleave, preload duration : 504 ms
    Writing library : LAME3.98r
    Encoding settings : -m j -V 4 -q 2 -lowpass 17 -b 128
    Audio #2
    ID : 2
    Format : MPEG Audio
    Format version : Version 1
    Format profile : Layer 3
    Mode : Joint stereo
    Mode extension : MS Stereo
    Codec ID : 55
    Codec ID/Hint : MP3
    Duration : 50 min
    Bit rate mode : Constant
    Bit rate : 128 kb/s
    Channel(s) : 2 channels
    Sampling rate : 48.0 kHz
    Compression mode : Lossy
    Stream size : 46.4 MiB (9%)
    Alignment : Aligned on interleaves
    Interleave, duration : 80 ms (2.00 video frames)
    Interleave, preload duration : 504 ms
    Writing library : LAME3.98r
    Encoding settings : -m j -V 4 -q 2 -lowpass 17 -b 128

    Rejtett tartalom:
    **Rejtett tartalom: A tartalom megjelenítéséhez kattints a 'Tetszik' gombra.**
    vagy free
    Rejtett tartalom:
    **Rejtett tartalom: A tartalom megjelenítéséhez kattints a 'Tetszik' gombra.**
     
  20. papadi

    papadi Állandó Tag

    [​IMG]

    3-4. (első évad - 3-4.) rész

    Johhny Waverly esete
    (The Adventure of Johnnie Waverly)
    Rendezte: Renny Rye
    Bemutató: 1989. január 22.
    Hang: magyar, angol
    Felirat: magyar, angol

    A Waverly-házaspár aggasztó fenyegetőleveleket kapott. Valaki kisfiuk elrablásával zsarolja őket, s egyre nagyobb pénzösszeget követel. Poirot és Hastings kapitány a segítségükre siet. Miközben a gyermek védelmét biztosítják, betekintést nyernek az arisztokrata család életébe. A családi kúria rejtett építészeti megoldásaival is megismerkednek s ez döntőnek bizonyul az ügy felderítésében. (a borítóról)

    24 feketerigó
    (Four and Twenty Blackbirds)
    Rendezte: Renny Rye
    Bemutató: 1989. január 29.
    Hang: magyar, angol
    Felirat: magyar, angol

    Poirot fogorvosával vacsorázik egy kellemes londoni étteremben. A pincérnő különös vendégre hívja fel a figyelmüket. Mr Gascoigne, az idős festő étkezési szokásai drasztikusan megváltoztak az utóbbi héten. Nem sokkal később a festő meghal. Senki sem gyanakszik gyilkosságra, hiszen a művész már nagyon idős volt. Poirot azonban biztos benne, hogy bűncselekmény történt. A megoldás kulcsát pedig egy rigókról szóló gyerekvers szolgáltatja. (a borítóról)

    Média információ:
    Video:
    Kodek: MPEG-1/2 Video (mpgv)
    Felbontás: 720x576
    Képkockasebesség: 25
    Hang:
    Kodek: A52 Audio (aka AC3) (a52)
    Csatornák: 3F2R/LFE
    Mintavételi frekvencia: 48000 Hz
    Bitsebesség: 192/448 kb/mp
    Formátum: iso
    Méret: 4,23 GB
    Műsoridő: 50:03+50:42
    (prémium)
    Rejtett tartalom:
    **Rejtett tartalom: A tartalom megjelenítéséhez kattints a 'Tetszik' gombra.**
    [​IMG]

    [​IMG]

    Formátum: dvdrip/avi
    Méret: 0.98 GB
    Felbontás: 720x544
    Mintavételi frekvencia: 48000 Hz
    Bitsebesség: 128 kbps
    Műsoridő: 50:03+50:42
    Részletes média információ:
    Show Spoiler

    J:\03 - Johnny Waverly esete.avi
    General
    Complete name : J:\03 - Johnny Waverly esete.avi
    Format : AVI
    Format/Info : Audio Video Interleave
    File size : 500 MiB
    Duration : 50 min
    Overall bit rate : 1 398 kb/s
    Writing application : VirtualDubMod 1.5.4.1 (build 2178/release)
    Writing library : VirtualDubMod build 2178/release
    Video #0
    ID : 0
    Format : MPEG-4 Visual
    Format profile : Advanced [email protected]
    Format settings, BVOP : 1
    Format settings, QPel : No
    Format settings, GMC : No warppoints
    Format settings, Matrix : Custom
    Codec ID : XVID
    Codec ID/Hint : XviD
    Duration : 50 min
    Bit rate : 1 132 kb/s
    Width : 720 pixels
    Height : 544 pixels
    Display aspect ratio : 4:3
    Frame rate : 25.000 FPS
    Color space : YUV
    Chroma subsampling : 4:2:0
    Bit depth : 8 bits
    Scan type : Progressive
    Compression mode : Lossy
    Bits/(Pixel*Frame) : 0.116
    Stream size : 405 MiB (81%)
    Writing library : XviD 1.2.1 (UTC 2008-12-04)
    Audio #1
    ID : 1
    Format : MPEG Audio
    Format version : Version 1
    Format profile : Layer 3
    Mode : Joint stereo
    Mode extension : MS Stereo
    Codec ID : 55
    Codec ID/Hint : MP3
    Duration : 50 min
    Bit rate mode : Constant
    Bit rate : 128 kb/s
    Channel(s) : 2 channels
    Sampling rate : 48.0 kHz
    Compression mode : Lossy
    Stream size : 45.8 MiB (9%)
    Alignment : Aligned on interleaves
    Interleave, duration : 80 ms (2.00 video frames)
    Interleave, preload duration : 504 ms
    Writing library : LAME3.98r
    Encoding settings : -m j -V 4 -q 2 -lowpass 17 -b 128
    Audio #2
    ID : 2
    Format : MPEG Audio
    Format version : Version 1
    Format profile : Layer 3
    Mode : Joint stereo
    Mode extension : MS Stereo
    Codec ID : 55
    Codec ID/Hint : MP3
    Duration : 50 min
    Bit rate mode : Constant
    Bit rate : 128 kb/s
    Channel(s) : 2 channels
    Sampling rate : 48.0 kHz
    Compression mode : Lossy
    Stream size : 45.8 MiB (9%)
    Alignment : Aligned on interleaves
    Interleave, duration : 80 ms (2.00 video frames)
    Interleave, preload duration : 504 ms
    Writing library : LAME3.98r
    Encoding settings : -m j -V 4 -q 2 -lowpass 17 -b 128
    J:\04 - 24 feketerigó.avi
    General
    Complete name : J:\04 - 24 feketerigó.avi
    Format : AVI
    Format/Info : Audio Video Interleave
    File size : 507 MiB
    Duration : 50 min
    Overall bit rate : 1 399 kb/s
    Writing application : VirtualDubMod 1.5.4.1 (build 2178/release)
    Writing library : VirtualDubMod build 2178/release
    Video #0
    ID : 0
    Format : MPEG-4 Visual
    Format profile : Advanced [email protected]
    Format settings, BVOP : 1
    Format settings, QPel : No
    Format settings, GMC : No warppoints
    Format settings, Matrix : Custom
    Codec ID : XVID
    Codec ID/Hint : XviD
    Duration : 50 min
    Bit rate : 1 133 kb/s
    Width : 720 pixels
    Height : 544 pixels
    Display aspect ratio : 4:3
    Frame rate : 25.000 FPS
    Color space : YUV
    Chroma subsampling : 4:2:0
    Bit depth : 8 bits
    Scan type : Progressive
    Compression mode : Lossy
    Bits/(Pixel*Frame) : 0.116
    Stream size : 411 MiB (81%)
    Writing library : XviD 1.2.1 (UTC 2008-12-04)
    Audio #1
    ID : 1
    Format : MPEG Audio
    Format version : Version 1
    Format profile : Layer 3
    Mode : Joint stereo
    Mode extension : MS Stereo
    Codec ID : 55
    Codec ID/Hint : MP3
    Duration : 50 min
    Bit rate mode : Constant
    Bit rate : 128 kb/s
    Channel(s) : 2 channels
    Sampling rate : 48.0 kHz
    Compression mode : Lossy
    Stream size : 46.4 MiB (9%)
    Alignment : Aligned on interleaves
    Interleave, duration : 80 ms (2.00 video frames)
    Interleave, preload duration : 504 ms
    Writing library : LAME3.98r
    Encoding settings : -m j -V 4 -q 2 -lowpass 17 -b 128
    Audio #2
    ID : 2
    Format : MPEG Audio
    Format version : Version 1
    Format profile : Layer 3
    Mode : Joint stereo
    Mode extension : MS Stereo
    Codec ID : 55
    Codec ID/Hint : MP3
    Duration : 50 min
    Bit rate mode : Constant
    Bit rate : 128 kb/s
    Channel(s) : 2 channels
    Sampling rate : 48.0 kHz
    Compression mode : Lossy
    Stream size : 46.4 MiB (9%)
    Alignment : Aligned on interleaves
    Interleave, duration : 80 ms (2.00 video frames)
    Interleave, preload duration : 504 ms
    Writing library : LAME3.98r
    Encoding settings : -m j -V 4 -q 2 -lowpass 17 -b 128

    Rejtett tartalom:
    **Rejtett tartalom: A tartalom megjelenítéséhez kattints a 'Tetszik' gombra.**
    vagy free
    Rejtett tartalom:
    **Rejtett tartalom: A tartalom megjelenítéséhez kattints a 'Tetszik' gombra.**
     

Megosztás