Ha sorozatot kerestek...2014 (de ne itt kérd!)

jbaj témája a 'Film, színház, tánc' fórumban , 2010 Április 11.

  1. papadi

    papadi Állandó Tag

    [​IMG] [​IMG]

    61. (tizenegyedik évad - 4.) rész

    Randevú a halállal
    (Appointment with Death)
    Rendezte: Ashley Pearce
    Bemutató: 2009. december 25.
    Hang: magyar, angol
    Felirat: magyar, angol

    1937-ben egy csoport indul Szíriába, Keresztelő Szent János koponyájának felkutatására. Az utazáson részt vesz Poirot is. Az expedíciót egy meglehetősen kibírhatatlan amerikai asszony pénzeli. A hölgy agresszív és másokat megalázó viselkedése csak tovább rontja Poirot hangulatát, aki egyébként is szenved a hőségtől és a zord körülményektől. Mrs. Boyntont fogadott gyermekei és a többi útitárs természetesen szívből utálja, így, amikor az asszonyt különös kegyetlenséggel megölik, Poirot-nak a kelleténél több gyanúsítottat is vizsgálat alá kell vennie. (a borítóról)

    Média információ:
    Video:
    Kodek: MPEG-1/2 Video (mpgv)
    Felbontás: 720x576
    Képkockasebesség: 25
    Hang:
    Kodek: A52 Audio (aka AC3) (a52)
    Csatornák: 3F2R/LFE
    Mintavételi frekvencia: 48000 Hz
    Bitsebesség: 192/448 kb/mp
    Formátum: iso
    Méret: 3,72 GB
    Műsoridő: 1:33:04
    (prémium)
    Rejtett tartalom:
    **Rejtett tartalom: A tartalom megjelenítéséhez kattints a 'Tetszik' gombra.**
    [​IMG]

    Formátum: dvdrip/avi
    Méret: 934 MB
    Felbontás: 720x416
    Mintavételi frekvencia: 48000 Hz
    Bitsebesség: 119/112 kbps
    Műsoridő: 1:33:04
    Részletes média információ:
    Show Spoiler

    K:\61 - Randevú a halállal.avi
    General
    Complete name : K:\61 - Randevú a halállal.avi
    Format : AVI
    Format/Info : Audio Video Interleave
    File size : 933 MiB
    Duration : 1 h 33 min
    Overall bit rate mode : Variable
    Overall bit rate : 1 401 kb/s
    Writing application : VirtualDubMod 1.5.4.1 (build 2178/release)
    Writing library : VirtualDubMod build 2178/release
    Video #0
    ID : 0
    Format : MPEG-4 Visual
    Format profile : Advanced [email protected]
    Format settings, BVOP : 1
    Format settings, QPel : No
    Format settings, GMC : No warppoints
    Format settings, Matrix : Custom
    Codec ID : XVID
    Codec ID/Hint : XviD
    Duration : 1 h 33 min
    Bit rate : 1 149 kb/s
    Width : 720 pixels
    Height : 416 pixels
    Display aspect ratio : 1.731
    Frame rate : 25.000 FPS
    Color space : YUV
    Chroma subsampling : 4:2:0
    Bit depth : 8 bits
    Scan type : Progressive
    Compression mode : Lossy
    Bits/(Pixel*Frame) : 0.153
    Stream size : 765 MiB (82%)
    Writing library : XviD 1.2.1 (UTC 2008-12-04)
    Audio #1
    ID : 1
    Format : MPEG Audio
    Format version : Version 1
    Format profile : Layer 3
    Mode : Joint stereo
    Mode extension : MS Stereo
    Codec ID : 55
    Codec ID/Hint : MP3
    Duration : 1 h 33 min
    Bit rate mode : Variable
    Bit rate : 119 kb/s
    Nominal bit rate : 128 kb/s
    Channel(s) : 2 channels
    Sampling rate : 48.0 kHz
    Compression mode : Lossy
    Stream size : 79.5 MiB (9%)
    Alignment : Aligned on interleaves
    Interleave, duration : 24 ms (0.60 video frame)
    Interleave, preload duration : 458 ms
    Writing library : LAME3.98r
    Encoding settings : -m j -V 4 -q 2 -lowpass 17 --abr 128
    Audio #2
    ID : 2
    Format : MPEG Audio
    Format version : Version 1
    Format profile : Layer 3
    Mode : Joint stereo
    Mode extension : MS Stereo
    Codec ID : 55
    Codec ID/Hint : MP3
    Duration : 1 h 33 min
    Bit rate mode : Variable
    Bit rate : 112 kb/s
    Nominal bit rate : 128 kb/s
    Channel(s) : 2 channels
    Sampling rate : 48.0 kHz
    Compression mode : Lossy
    Stream size : 74.4 MiB (8%)
    Alignment : Aligned on interleaves
    Interleave, duration : 24 ms (0.60 video frame)
    Interleave, preload duration : 419 ms
    Writing library : LAME3.98r
    Encoding settings : -m j -V 4 -q 2 -lowpass 17 --abr 128

    Rejtett tartalom:
    **Rejtett tartalom: A tartalom megjelenítéséhez kattints a 'Tetszik' gombra.**
    vagy free
    Rejtett tartalom:
    **Rejtett tartalom: A tartalom megjelenítéséhez kattints a 'Tetszik' gombra.**
     
  2. papadi

    papadi Állandó Tag

    [​IMG] [​IMG]

    62. (tizenkettedik évad - 1.) rész

    Tragédia három felvonásban
    (Three Act Tragedy)
    Rendezte: Ashley Pearce
    Bemutató: 2010. január 3.
    Hang: magyar, angol
    Felirat: magyar, angol

    Poirot egy barátja, Sir Charles Cartwright nyaralójában vacsorázik, amikor az egyik vacsoravendég egy koktél elfogyasztása után holtan esik össze. Mivel Stephen Babbington tiszteletes majd’ 80 éves volt, mindenki természetes halál-nak véli a szomorú esetet. Egyedül Sir Charles erősködik, hogy Poirot-nak nyomoznia kellene. Amikor azonban ugyanez a társaság megint összejön és újra meghal valaki az első pohár ital után, mindenki számára világossá válik, hogy a poharakba valaki mérget tett. (a borítóról)

    Média információ:
    Video:
    Kodek: MPEG-1/2 Video (mpgv)
    Felbontás: 720x576
    Képkockasebesség: 25
    Hang:
    Kodek: A52 Audio (aka AC3) (a52)
    Csatornák: 3F2R/LFE
    Mintavételi frekvencia: 48000 Hz
    Bitsebesség: 192/448 kb/mp
    Formátum: iso
    Méret: 3,25 GB
    Műsoridő: 1:28:51
    (prémium)
    Rejtett tartalom:
    **Rejtett tartalom: A tartalom megjelenítéséhez kattints a 'Tetszik' gombra.**
    [​IMG]

    Formátum: dvdrip/avi
    Méret: 893 MB
    Felbontás: 720x400
    Mintavételi frekvencia: 48000 Hz
    Bitsebesség: 113/112 kbps
    Műsoridő: 1:28:51
    Részletes média információ:
    Show Spoiler

    K:\62 - Tragédia három felvonásban.avi
    General
    Complete name : K:\62 - Tragédia három felvonásban.avi
    Format : AVI
    Format/Info : Audio Video Interleave
    File size : 890 MiB
    Duration : 1 h 28 min
    Overall bit rate mode : Variable
    Overall bit rate : 1 400 kb/s
    Writing application : VirtualDubMod 1.5.4.1 (build 2178/release)
    Writing library : VirtualDubMod build 2178/release
    Video #0
    ID : 0
    Format : MPEG-4 Visual
    Format profile : Advanced [email protected]
    Format settings, BVOP : 1
    Format settings, QPel : No
    Format settings, GMC : No warppoints
    Format settings, Matrix : Custom
    Codec ID : XVID
    Codec ID/Hint : XviD
    Duration : 1 h 28 min
    Bit rate : 1 154 kb/s
    Width : 720 pixels
    Height : 400 pixels
    Display aspect ratio : 16:9
    Frame rate : 25.000 FPS
    Color space : YUV
    Chroma subsampling : 4:2:0
    Bit depth : 8 bits
    Scan type : Progressive
    Compression mode : Lossy
    Bits/(Pixel*Frame) : 0.160
    Stream size : 734 MiB (82%)
    Writing library : XviD 1.2.1 (UTC 2008-12-04)
    Audio #1
    ID : 1
    Format : MPEG Audio
    Format version : Version 1
    Format profile : Layer 3
    Mode : Joint stereo
    Mode extension : MS Stereo
    Codec ID : 55
    Codec ID/Hint : MP3
    Duration : 1 h 28 min
    Bit rate mode : Variable
    Bit rate : 113 kb/s
    Nominal bit rate : 128 kb/s
    Channel(s) : 2 channels
    Sampling rate : 48.0 kHz
    Compression mode : Lossy
    Stream size : 71.8 MiB (8%)
    Alignment : Aligned on interleaves
    Interleave, duration : 24 ms (0.60 video frame)
    Interleave, preload duration : 506 ms
    Writing library : LAME3.98r
    Encoding settings : -m j -V 4 -q 2 -lowpass 17 --abr 128
    Audio #2
    ID : 2
    Format : MPEG Audio
    Format version : Version 1
    Format profile : Layer 3
    Mode : Joint stereo
    Codec ID : 55
    Codec ID/Hint : MP3
    Duration : 1 h 28 min
    Bit rate mode : Variable
    Bit rate : 112 kb/s
    Nominal bit rate : 128 kb/s
    Channel(s) : 2 channels
    Sampling rate : 48.0 kHz
    Compression mode : Lossy
    Stream size : 71.4 MiB (8%)
    Alignment : Aligned on interleaves
    Interleave, duration : 24 ms (0.60 video frame)
    Interleave, preload duration : 507 ms
    Writing library : LAME3.98r
    Encoding settings : -m j -V 4 -q 2 -lowpass 17 --abr 128

    Rejtett tartalom:
    **Rejtett tartalom: A tartalom megjelenítéséhez kattints a 'Tetszik' gombra.**
    vagy free
    Rejtett tartalom:
    **Rejtett tartalom: A tartalom megjelenítéséhez kattints a 'Tetszik' gombra.**
     
  3. papadi

    papadi Állandó Tag

    [​IMG] [​IMG]

    63. (tizenkettedik évad - 2.) rész

    Ellopott gyilkosság
    (Hallowe'en Party)
    Rendezte: Charles Palmer
    Bemutató: 2010. október 27.
    Hang: magyar, angol
    Felirat: magyar, angol

    Mrs. Oliver, a krimi írónő vidéki barátnőjénél vendégeskedik és segít a Halloween-i gyerekparti előkészítésében. A partin egy kövérkés, buta és ellenszenves kislány, Joyce Reynolds olyan furcsa megjegyzést tesz, amelyre gyerekek és felnőttek egyaránt felkapják a fejüket: azt állítja, szemtanúja volt egy gyilkosságnak. A parti végén a kislányt holtan találják a könyvtárszobában. A kis faluban Mrs. Oliver tűnik a legalkalmasabb személynek, hogy nyomozzon a gyilkosság ügyében. Szerencsére nemsokára csatlakozik hozzá jó barátja, Hercule Poirot. (a borítóról)

    Média információ:
    Video:
    Kodek: MPEG-1/2 Video (mpgv)
    Felbontás: 720x576
    Képkockasebesség: 25
    Hang:
    Kodek: A52 Audio (aka AC3) (a52)
    Csatornák: 3F2R/LFE
    Mintavételi frekvencia: 48000 Hz
    Bitsebesség: 192/448 kb/mp
    Formátum: iso
    Méret: 3,21 GB
    Műsoridő: 1:28:41
    (prémium)
    Rejtett tartalom:
    **Rejtett tartalom: A tartalom megjelenítéséhez kattints a 'Tetszik' gombra.**
    [​IMG]

    Formátum: dvdrip/avi
    Méret: 892 MB
    Felbontás: 720x400
    Mintavételi frekvencia: 48000 Hz
    Bitsebesség: 112 kbps
    Műsoridő: 1:28:41
    Részletes média információ:
    Show Spoiler

    K:\63 - Ellopott gyilkosságok.avi
    General
    Complete name : K:\63 - Ellopott gyilkosságok.avi
    Format : AVI
    Format/Info : Audio Video Interleave
    File size : 889 MiB
    Duration : 1 h 28 min
    Overall bit rate mode : Variable
    Overall bit rate : 1 402 kb/s
    Writing application : VirtualDubMod 1.5.4.1 (build 2178/release)
    Writing library : VirtualDubMod build 2178/release
    Video #0
    ID : 0
    Format : MPEG-4 Visual
    Format profile : Advanced [email protected]
    Format settings, BVOP : 1
    Format settings, QPel : No
    Format settings, GMC : No warppoints
    Format settings, Matrix : Custom
    Codec ID : XVID
    Codec ID/Hint : XviD
    Duration : 1 h 28 min
    Bit rate : 1 157 kb/s
    Width : 720 pixels
    Height : 400 pixels
    Display aspect ratio : 16:9
    Frame rate : 25.000 FPS
    Color space : YUV
    Chroma subsampling : 4:2:0
    Bit depth : 8 bits
    Scan type : Progressive
    Compression mode : Lossy
    Bits/(Pixel*Frame) : 0.161
    Stream size : 734 MiB (83%)
    Writing library : XviD 1.2.1 (UTC 2008-12-04)
    Audio #1
    ID : 1
    Format : MPEG Audio
    Format version : Version 1
    Format profile : Layer 3
    Mode : Joint stereo
    Mode extension : MS Stereo
    Codec ID : 55
    Codec ID/Hint : MP3
    Duration : 1 h 28 min
    Bit rate mode : Variable
    Bit rate : 112 kb/s
    Nominal bit rate : 128 kb/s
    Channel(s) : 2 channels
    Sampling rate : 48.0 kHz
    Compression mode : Lossy
    Stream size : 71.0 MiB (8%)
    Alignment : Aligned on interleaves
    Interleave, duration : 24 ms (0.60 video frame)
    Interleave, preload duration : 521 ms
    Writing library : LAME3.98r
    Encoding settings : -m j -V 4 -q 2 -lowpass 17 --abr 128
    Audio #2
    ID : 2
    Format : MPEG Audio
    Format version : Version 1
    Format profile : Layer 3
    Mode : Joint stereo
    Mode extension : MS Stereo
    Codec ID : 55
    Codec ID/Hint : MP3
    Duration : 1 h 28 min
    Bit rate mode : Variable
    Bit rate : 112 kb/s
    Nominal bit rate : 128 kb/s
    Channel(s) : 2 channels
    Sampling rate : 48.0 kHz
    Compression mode : Lossy
    Stream size : 71.1 MiB (8%)
    Alignment : Aligned on interleaves
    Interleave, duration : 24 ms (0.60 video frame)
    Interleave, preload duration : 520 ms
    Writing library : LAME3.98r
    Encoding settings : -m j -V 4 -q 2 -lowpass 17 --abr 128

    Rejtett tartalom:
    **Rejtett tartalom: A tartalom megjelenítéséhez kattints a 'Tetszik' gombra.**
    vagy free
    Rejtett tartalom:
    **Rejtett tartalom: A tartalom megjelenítéséhez kattints a 'Tetszik' gombra.**
     
  4. papadi

    papadi Állandó Tag

    [​IMG] [​IMG]

    64. (tizenkettedik évad - 3.) rész

    Gyilkosság az Orient expresszen
    (Murder on the Orient Express)
    Rendezte: Philip Martin
    Bemutató: 2010. december 25.
    Hang: magyar, angol
    Felirat: magyar, angol

    Poirot Isztambulból tart hazafelé. Az Orient expresszen nem alakul valami vidáman Poirot utazása. Először alig kap helyet a vonatra, majd a hó miatt elakad a szerelvény, és végül meggyilkolják az egyik utast. A belga nyomozónak nem kell sok idő, hogy leleplezze a tettest. Ám életében talán először komolyan elgondolkodik: Lehet egy gyilkosságnak is elfogadható és jogos indítéka? Lehetséges, hogy néha a bűnösöknek van igazuk? (a borítóról)

    Extrák: (magyar felirattal) (csak a dvd-n)
    Így készült a film (14:16)
    David Suchet az Orient expresszen (46:59)

    Média információ:
    Video:
    Kodek: MPEG-1/2 Video (mpgv)
    Felbontás: 720x576
    Képkockasebesség: 25
    Hang:
    Kodek: A52 Audio (aka AC3) (a52)
    Csatornák: 3F2R/LFE
    Mintavételi frekvencia: 48000 Hz
    Bitsebesség: 192/448 kb/mp
    Formátum: iso
    Méret: 5,50 GB
    Műsoridő: 1:29:00 (2:30:15)
    (prémium)
    Rejtett tartalom:
    **Rejtett tartalom: A tartalom megjelenítéséhez kattints a 'Tetszik' gombra.**
    [​IMG]

    Formátum: dvdrip/avi
    Méret: 893 MB
    Felbontás: 720x400
    Mintavételi frekvencia: 48000 Hz
    Bitsebesség: 114/111 kbps
    Műsoridő: 1:29:00
    Részletes média információ:
    Show Spoiler

    K:\64 - Gyilkosság az Orient Expresszen.avi
    General
    Complete name : K:\64 - Gyilkosság az Orient Expresszen.avi
    Format : AVI
    Format/Info : Audio Video Interleave
    File size : 890 MiB
    Duration : 1 h 29 min
    Overall bit rate mode : Variable
    Overall bit rate : 1 398 kb/s
    Writing application : VirtualDubMod 1.5.4.1 (build 2178/release)
    Writing library : VirtualDubMod build 2178/release
    Video #0
    ID : 0
    Format : MPEG-4 Visual
    Format profile : Advanced [email protected]
    Format settings, BVOP : 1
    Format settings, QPel : No
    Format settings, GMC : No warppoints
    Format settings, Matrix : Custom
    Codec ID : XVID
    Codec ID/Hint : XviD
    Duration : 1 h 29 min
    Bit rate : 1 152 kb/s
    Width : 720 pixels
    Height : 400 pixels
    Display aspect ratio : 16:9
    Frame rate : 25.000 FPS
    Color space : YUV
    Chroma subsampling : 4:2:0
    Bit depth : 8 bits
    Scan type : Progressive
    Compression mode : Lossy
    Bits/(Pixel*Frame) : 0.160
    Stream size : 733 MiB (82%)
    Writing library : XviD 1.2.1 (UTC 2008-12-04)
    Audio #1
    ID : 1
    Format : MPEG Audio
    Format version : Version 1
    Format profile : Layer 3
    Mode : Joint stereo
    Mode extension : MS Stereo
    Codec ID : 55
    Codec ID/Hint : MP3
    Duration : 1 h 29 min
    Bit rate mode : Variable
    Bit rate : 114 kb/s
    Nominal bit rate : 128 kb/s
    Channel(s) : 2 channels
    Sampling rate : 48.0 kHz
    Compression mode : Lossy
    Stream size : 72.5 MiB (8%)
    Alignment : Aligned on interleaves
    Interleave, duration : 24 ms (0.60 video frame)
    Interleave, preload duration : 502 ms
    Writing library : LAME3.98r
    Encoding settings : -m j -V 4 -q 2 -lowpass 17 --abr 128
    Audio #2
    ID : 2
    Format : MPEG Audio
    Format version : Version 1
    Format profile : Layer 3
    Mode : Joint stereo
    Codec ID : 55
    Codec ID/Hint : MP3
    Duration : 1 h 29 min
    Bit rate mode : Variable
    Bit rate : 111 kb/s
    Nominal bit rate : 128 kb/s
    Channel(s) : 2 channels
    Sampling rate : 48.0 kHz
    Compression mode : Lossy
    Stream size : 71.0 MiB (8%)
    Alignment : Aligned on interleaves
    Interleave, duration : 24 ms (0.60 video frame)
    Interleave, preload duration : 489 ms
    Writing library : LAME3.98r
    Encoding settings : -m j -V 4 -q 2 -lowpass 17 --abr 128

    Rejtett tartalom:
    **Rejtett tartalom: A tartalom megjelenítéséhez kattints a 'Tetszik' gombra.**
    vagy free
    Rejtett tartalom:
    **Rejtett tartalom: A tartalom megjelenítéséhez kattints a 'Tetszik' gombra.**
    [​IMG]

    Extrákból: (magyar felirattal)
    David Suchet az Orient expresszen
    (David Suchet on the Orient Express)
    Feliratos angol dokumentumfilm (2010)
    Rendezte: Chris Malone

    David Suchet (Agatha Christie Poirotja) az Orient expressz titokzatos múltja, történelme és romantikája után nyomoz. Az Orient expressz neve első útja óta, melyet Párizsból Bécsbe tett meg 1883-ban egyet jelent a luxussal. Nem csak utasokat szállít lenyűgöző tájakon keresztül, hanem visszaviszi őket egy elbűvölő régmúlt világba.
    David Suchet amellett, hogy beszélget utasokkal és élvezi ezt az életre szóló utazást, találkozik azokkal, akik életben tartják ezt a fantáziát.


    [​IMG]

    Formátum: dvdrip/avi
    Méret: 588 MB
    Felbontás: 720x400
    Mintavételi frekvencia: 48000 Hz
    Bitsebesség: 111 kbps
    Műsoridő: 46:59
    Részletes média információ:
    Show Spoiler

    I:\GYILKOSSAG_AZ_ORIENT_EXPRESSZEN\VIDEO_TS\David Suchet az Orient Expresszen.avi
    General
    Complete name : I:\GYILKOSSAG_AZ_ORIENT_EXPRESSZEN\VIDEO_TS\David Suchet az Orient Expresszen.avi
    Format : AVI
    Format/Info : Audio Video Interleave
    File size : 588 MiB
    Duration : 46 min
    Overall bit rate mode : Variable
    Overall bit rate : 1 750 kb/s
    Writing application : VirtualDubMod 1.5.4.1 (build 2178/release)
    Writing library : VirtualDubMod build 2178/release
    Video #0
    ID : 0
    Format : MPEG-4 Visual
    Format profile : Advanced [email protected]
    Format settings, BVOP : 1
    Format settings, QPel : No
    Format settings, GMC : No warppoints
    Format settings, Matrix : Custom
    Codec ID : XVID
    Codec ID/Hint : XviD
    Duration : 46 min
    Bit rate : 1 626 kb/s
    Width : 720 pixels
    Height : 400 pixels
    Display aspect ratio : 16:9
    Frame rate : 25.000 FPS
    Color space : YUV
    Chroma subsampling : 4:2:0
    Bit depth : 8 bits
    Scan type : Progressive
    Compression mode : Lossy
    Bits/(Pixel*Frame) : 0.226
    Stream size : 547 MiB (93%)
    Writing library : XviD 1.2.1 (UTC 2008-12-04)
    Audio #1
    ID : 1
    Format : MPEG Audio
    Format version : Version 1
    Format profile : Layer 3
    Mode : Joint stereo
    Mode extension : MS Stereo
    Codec ID : 55
    Codec ID/Hint : MP3
    Duration : 46 min
    Bit rate mode : Variable
    Bit rate : 111 kb/s
    Nominal bit rate : 128 kb/s
    Channel(s) : 2 channels
    Sampling rate : 48.0 kHz
    Compression mode : Lossy
    Stream size : 37.2 MiB (6%)
    Alignment : Aligned on interleaves
    Interleave, duration : 24 ms (0.60 video frame)
    Interleave, preload duration : 555 ms
    Writing library : LAME3.98r
    Encoding settings : -m j -V 4 -q 2 -lowpass 17 --abr 128

    Rejtett tartalom:
    **Rejtett tartalom: A tartalom megjelenítéséhez kattints a 'Tetszik' gombra.**
    vagy free
    Rejtett tartalom:
    **Rejtett tartalom: A tartalom megjelenítéséhez kattints a 'Tetszik' gombra.**
     
  5. papadi

    papadi Állandó Tag

    [​IMG] [​IMG]

    65. (tizenkettedik évad - 4.) rész

    Az órák
    (The Clocks)
    Rendezte: Charles Palmer
    Bemutató: 2011. december 26.
    Hang: magyar, angol
    Felirat: magyar, angol

    Poirot éppen barátnője, Mrs. Oliver borzalmas színdarabját szenvedi végig, amikor rég nem látott ifjú barátja, Colin Lamb rohan utána lélekszakadva a színházba. Colin, a brit titkos szolgálat ifjú reménysége különös gyilkossági ügybe keveredett a minap a Wilbraham Crescenten, Dover egyik csendes utcájában. Az egyik házból egy hisztériás fiatal nő rohant ki Colin elé. A lányt, Sheila Webbet, gépírói munkára rendelték a házba, de ott csak egy hullát talált, és egy csomó előre állított órát... A rejtély Poirot számára is különösnek tűnik, híres szürke agysejtjeit a nyomozás szolgálatába állítja. (a borítóról)

    Média információ:
    Video:
    Kodek: MPEG-1/2 Video (mpgv)
    Felbontás: 720x576
    Képkockasebesség: 25
    Hang:
    Kodek: A52 Audio (aka AC3) (a52)
    Csatornák: 3F2R/LFE
    Mintavételi frekvencia: 48000 Hz
    Bitsebesség: 192/448 kb/mp
    Formátum: iso
    Méret: 3,23 GB
    Műsoridő: 1:28:59
    (prémium)
    Rejtett tartalom:
    **Rejtett tartalom: A tartalom megjelenítéséhez kattints a 'Tetszik' gombra.**
    [​IMG]

    Formátum: dvdrip/avi
    Méret: 893 MB
    Felbontás: 720x400
    Mintavételi frekvencia: 48000 Hz
    Bitsebesség: 112/111 kbps
    Műsoridő: 1:28:59
    Részletes média információ:
    Show Spoiler

    K:\65 - Az órák.avi
    General
    Complete name : K:\65 - Az órák.avi
    Format : AVI
    Format/Info : Audio Video Interleave
    File size : 890 MiB
    Duration : 1 h 28 min
    Overall bit rate mode : Variable
    Overall bit rate : 1 398 kb/s
    Writing application : VirtualDubMod 1.5.4.1 (build 2178/release)
    Writing library : VirtualDubMod build 2178/release
    Video #0
    ID : 0
    Format : MPEG-4 Visual
    Format profile : Advanced [email protected]
    Format settings, BVOP : 1
    Format settings, QPel : No
    Format settings, GMC : No warppoints
    Format settings, Matrix : Custom
    Codec ID : XVID
    Codec ID/Hint : XviD
    Duration : 1 h 28 min
    Bit rate : 1 154 kb/s
    Width : 720 pixels
    Height : 400 pixels
    Display aspect ratio : 16:9
    Frame rate : 25.000 FPS
    Color space : YUV
    Chroma subsampling : 4:2:0
    Bit depth : 8 bits
    Scan type : Progressive
    Compression mode : Lossy
    Bits/(Pixel*Frame) : 0.160
    Stream size : 735 MiB (83%)
    Writing library : XviD 1.2.1 (UTC 2008-12-04)
    Audio #1
    ID : 1
    Format : MPEG Audio
    Format version : Version 1
    Format profile : Layer 3
    Mode : Joint stereo
    Mode extension : MS Stereo
    Codec ID : 55
    Codec ID/Hint : MP3
    Duration : 1 h 28 min
    Bit rate mode : Variable
    Bit rate : 112 kb/s
    Nominal bit rate : 128 kb/s
    Channel(s) : 2 channels
    Sampling rate : 48.0 kHz
    Compression mode : Lossy
    Stream size : 71.5 MiB (8%)
    Alignment : Aligned on interleaves
    Interleave, duration : 24 ms (0.60 video frame)
    Interleave, preload duration : 529 ms
    Writing library : LAME3.98r
    Encoding settings : -m j -V 4 -q 2 -lowpass 17 --abr 128
    Audio #2
    ID : 2
    Format : MPEG Audio
    Format version : Version 1
    Format profile : Layer 3
    Mode : Joint stereo
    Mode extension : MS Stereo
    Codec ID : 55
    Codec ID/Hint : MP3
    Duration : 1 h 28 min
    Bit rate mode : Variable
    Bit rate : 111 kb/s
    Nominal bit rate : 128 kb/s
    Channel(s) : 2 channels
    Sampling rate : 48.0 kHz
    Compression mode : Lossy
    Stream size : 70.5 MiB (8%)
    Alignment : Aligned on interleaves
    Interleave, duration : 24 ms (0.60 video frame)
    Interleave, preload duration : 547 ms
    Writing library : LAME3.98r
    Encoding settings : -m j -V 4 -q 2 -lowpass 17 --abr 128

    Rejtett tartalom:
    **Rejtett tartalom: A tartalom megjelenítéséhez kattints a 'Tetszik' gombra.**
    vagy free
    Rejtett tartalom:
    **Rejtett tartalom: A tartalom megjelenítéséhez kattints a 'Tetszik' gombra.**
     
  6. papadi

    papadi Állandó Tag

    [​IMG] [​IMG]

    66. (tizenharmadik évad - 1.) rész

    Az elefántok nem felejtenek
    (Elephants Can Remember)
    Rendezte: John Strickland
    Bemutató: 2013. június 9.

    A történet 13 évvel korábban kezdődik egy sziklaszirten Eeastbourneben, ahol egy pár tragikusan meghal. De sok kérdés maradt megválaszolatlan, vajon a férj Ravenscroft tábornok ölte meg a feleségét, vagy a feleség Molly ölte meg a férjét?
    Napjainkban - Poirot-t felhívja egy régi barátja Dr Willoughby, akinek idős édesapját egy kimagasló tudású professzort holtan találnak. Megfulladt a hidroterápiás kezelésekhez használt kádban - egy meglehetősen brutális szerkentyű, amit évtizedekkel korábban használt pszichiátriai betegek kezelésekor. Poirot-t kíváncsivá teszi az ügy, és nagyon szeretne segíteni a barátjának, bár a doktor maga is gyanúsított lesz a nyomozást vezető rendőr szemében.
    Ez alatt Poirot régi barátja a krimi író Ariadne Oliver saját ügyén dolgozik. Egy szörnyű irodalmi ebéden megszólítja Mrs Burton-Cox, és erőszakosan ragaszkodik hozzá, hogy Ariadne fedje fel az igazságot Ravenscroftsról és a fiáról Desmondról, aki el szeretné venni a lányát Celiát...
    (port.hu)

    Hang: magyar
    Formátum: tvrip/avi
    Méret:1,00 GB
    Felbontás: 720x404
    Mintavételi frekvencia: 48000 Hz
    Bitsebesség: 128 kbps
    Műsoridő: 1:28:33
    Részletes média információ:
    Show Spoiler

    K:\66 - Az elefántok nem felejtenek (HDTV-Hun).avi
    General
    Complete name : K:\66 - Az elefántok nem felejtenek (HDTV-Hun).avi
    Format : AVI
    Format/Info : Audio Video Interleave
    File size : 1.00 GiB
    Duration : 1 h 28 min
    Overall bit rate mode : Variable
    Overall bit rate : 1 619 kb/s
    Writing application : Lavf53.14.0
    Video #0
    ID : 0
    Format : MPEG-4 Visual
    Format profile : [email protected]
    Format settings, BVOP : No
    Format settings, QPel : No
    Format settings, GMC : No warppoints
    Format settings, Matrix : Default (H.263)
    Codec ID : DIVX
    Codec ID/Info : Project Mayo
    Codec ID/Hint : DivX 4
    Duration : 1 h 28 min
    Bit rate : 1 417 kb/s
    Width : 720 pixels
    Height : 404 pixels
    Display aspect ratio : 16:9
    Original display aspect ratio : 16:9
    Frame rate : 25.000 FPS
    Color space : YUV
    Chroma subsampling : 4:2:0
    Bit depth : 8 bits
    Scan type : Progressive
    Compression mode : Lossy
    Bits/(Pixel*Frame) : 0.195
    Stream size : 898 MiB (88%)
    Title : hecyce
    Writing library : Lavc53.19.0
    Audio #1
    ID : 1
    Format : MPEG Audio
    Format version : Version 1
    Format profile : Layer 3
    Mode : Joint stereo
    Mode extension : MS Stereo
    Codec ID : 55
    Codec ID/Hint : MP3
    Duration : 1 h 28 min
    Bit rate mode : Variable
    Bit rate : 128 kb/s
    Channel(s) : 2 channels
    Sampling rate : 48.0 kHz
    Compression mode : Lossy
    Stream size : 119 MiB (12%)
    Alignment : Aligned on interleaves
    Interleave, duration : 24 ms (0.60 video frame)
    Title : hecyce


    [​IMG]

    Rejtett tartalom:
    **Rejtett tartalom: A tartalom megjelenítéséhez kattints a 'Tetszik' gombra.**
    vagy free
    Rejtett tartalom:
    **Rejtett tartalom: A tartalom megjelenítéséhez kattints a 'Tetszik' gombra.**
    Hang: angol
    Felirat: magyar
    Formátum: mp4
    Méret: 453 MB
    Felbontás: 720x404
    Mintavételi frekvencia: 48000 Hz
    Bitsebesség: 124 kbps
    Műsoridő: 1:28:33
    Részletes média információ:
    Show Spoiler

    K:\66 - Az elefántok nem felejtenek.mp4
    General
    Complete name : K:\66 - Az elefántok nem felejtenek.mp4
    Format : MPEG-4
    Format profile : Base Media / Version 2
    Codec ID : mp42 (isom/mp42/3gp5)
    File size : 435 MiB
    Duration : 1 h 28 min
    Overall bit rate mode : Variable
    Overall bit rate : 686 kb/s
    Encoded date : UTC 2013-06-08 21:35:26
    Tagged date : UTC 2013-06-08 21:35:26
    Video #201
    ID : 201
    Format : AVC
    Format/Info : Advanced Video Codec
    Format profile : [email protected]
    Format settings, CABAC : Yes
    Format settings, ReFrames : 5 frames
    Codec ID : avc1
    Codec ID/Info : Advanced Video Coding
    Duration : 1 h 28 min
    Bit rate : 558 kb/s
    Maximum bit rate : 2 904 kb/s
    Width : 720 pixels
    Height : 404 pixels
    Display aspect ratio : 16:9
    Frame rate mode : Constant
    Frame rate : 25.000 FPS
    Color space : YUV
    Chroma subsampling : 4:2:0
    Bit depth : 8 bits
    Scan type : Progressive
    Bits/(Pixel*Frame) : 0.077
    Stream size : 353 MiB (81%)
    Writing library : x264 core 133 r2334 a3ac64b
    Encoding settings : cabac=1 / ref=5 / deblock=1:0:0 / analyse=0x3:0x113 / me=umh / subme=8 / psy=1 / psy_rd=1.00:0.00 / mixed_ref=1 / me_range=16 / chroma_me=1 / trellis=1 / 8x8dct=1 / cqm=0 / deadzone=21,11 / fast_pskip=1 / chroma_qp_offset=-2 / threads=12 / lookahead_threads=2 / sliced_threads=0 / nr=0 / decimate=1 / interlaced=0 / bluray_compat=0 / constrained_intra=0 / bframes=3 / b_pyramid=2 / b_adapt=2 / b_bias=0 / direct=3 / weightb=1 / open_gop=0 / weightp=2 / keyint=250 / keyint_min=25 / scenecut=40 / intra_refresh=0 / rc_lookahead=50 / rc=crf / mbtree=1 / crf=19.0 / qcomp=0.60 / qpmin=0 / qpmax=69 / qpstep=4 / ip_ratio=1.40 / aq=1:1.00
    Encoded date : UTC 2013-06-08 21:35:26
    Tagged date : UTC 2013-06-08 21:35:38
    Audio #101
    ID : 101
    Format : AAC
    Format/Info : Advanced Audio Codec
    Format profile : LC
    Codec ID : 40
    Duration : 1 h 28 min
    Bit rate mode : Variable
    Bit rate : 124 kb/s
    Maximum bit rate : 132 kb/s
    Channel(s) : 2 channels
    Channel positions : Front: L R
    Sampling rate : 48.0 kHz
    Frame rate : 46.875 FPS (1024 spf)
    Compression mode : Lossy
    Stream size : 78.5 MiB (18%)
    Encoded date : UTC 2013-06-08 21:35:26
    Tagged date : UTC 2013-06-08 21:35:38
    Other #2
    ID : 2
    Type : Object description
    Format : System
    Codec ID : 1
    Duration : 1 s 0 ms
    Encoded date : UTC 2013-06-08 21:35:38
    Tagged date : UTC 2013-06-08 21:35:38
    Other #1
    ID : 1
    Type : Scene description
    Format : System Core
    Codec ID : 2
    Duration : 1 s 0 ms
    Encoded date : UTC 2013-06-08 21:35:38
    Tagged date : UTC 2013-06-08 21:35:38

    Rejtett tartalom:
    **Rejtett tartalom: A tartalom megjelenítéséhez kattints a 'Tetszik' gombra.**
    vagy free
    Rejtett tartalom:
    **Rejtett tartalom: A tartalom megjelenítéséhez kattints a 'Tetszik' gombra.**
     
  7. papadi

    papadi Állandó Tag

    [​IMG] [​IMG]

    67. (tizenharmadik évad - 2.) rész

    A Nagy Négyes
    (The Big Four)
    Alternatív cím: A Titokzatos Négyes
    Rendezte: Peter Lydon
    Bemutató: 2013. október 23.

    A második világháború kitörése fenyegető közelségben van, a világ a szakadék szélén áll. Demonstrálva a nemzetközi összefogást a Béke Párt egy nagy ünnepséget rendez, melyen megjelenik Poirot ahol újra találkozik barátjával Jappel, aki már a helyettes parancsnoka a londoni rendőrségnek. Az illusztris meghívottak között van Stephen Paynter angol diplomata, Madame Olivier francia tudós és rendíthetetlen Béke Párti. Az amerikai iparmágnás és a párt támogatója Abe Ryland az események előterében van köszönhetően annak a sakkjátszmának, melyet a visszavonult Dr Ivan Savaranoff orosz sakkmesterrel játszik. De alig kezdődik el a játék, amikor Savaranoff holtan esik össze. Pánik tör ki amikor észreveszik, hogy Ryland pedig eltűnik. A Daily Comet újságírója Tysoe minden fejleményt szenzációs részletekkel tudósít. Az állítja, hogy a gyilkosság egy kegyetlen politikai csoport műve, akiket a Nagy Négyesnek nevez el. Amikor Jonathan Whalleyt, a Béke Párt kínai vezetőjének életrajzíróját brutális módos szintén meggyilkolják, a Nagy Négyes felkelti mind Poirot, mind a világ figyelmét. (port.hu)

    Hang: magyar
    Formátum: tvrip/avi
    Méret: 962 MB
    Felbontás: 720x400
    Mintavételi frekvencia: 48000 Hz
    Bitsebesség: 128 kbps
    Műsoridő: 1:27:56
    Részletes média információ:
    Show Spoiler

    K:\67 - A Nagy Négyes (HDTV-Hun).avi
    General
    Complete name : K:\67 - A Nagy Négyes (HDTV-Hun).avi
    Format : AVI
    Format/Info : Audio Video Interleave
    File size : 961 MiB
    Duration : 1 h 27 min
    Overall bit rate mode : Variable
    Overall bit rate : 1 528 kb/s
    Writing application : Lavf53.14.0
    Video #0
    ID : 0
    Format : MPEG-4 Visual
    Format profile : [email protected]
    Format settings, BVOP : No
    Format settings, QPel : No
    Format settings, GMC : No warppoints
    Format settings, Matrix : Default (H.263)
    Codec ID : DIVX
    Codec ID/Info : Project Mayo
    Codec ID/Hint : DivX 4
    Duration : 1 h 27 min
    Bit rate : 1 346 kb/s
    Width : 720 pixels
    Height : 400 pixels
    Display aspect ratio : 16:9
    Original display aspect ratio : 1.85:1
    Frame rate : 25.000 FPS
    Color space : YUV
    Chroma subsampling : 4:2:0
    Bit depth : 8 bits
    Scan type : Progressive
    Compression mode : Lossy
    Bits/(Pixel*Frame) : 0.187
    Stream size : 847 MiB (88%)
    Title : hecyce
    Writing library : Lavc53.19.0
    Audio #1
    ID : 1
    Format : MPEG Audio
    Format version : Version 1
    Format profile : Layer 3
    Mode : Joint stereo
    Mode extension : MS Stereo
    Codec ID : 55
    Codec ID/Hint : MP3
    Duration : 1 h 27 min
    Bit rate mode : Variable
    Bit rate : 128 kb/s
    Channel(s) : 2 channels
    Sampling rate : 48.0 kHz
    Compression mode : Lossy
    Stream size : 106 MiB (11%)
    Alignment : Aligned on interleaves
    Interleave, duration : 24 ms (0.60 video frame)
    Title : hecyce


    [​IMG]

    Rejtett tartalom:
    **Rejtett tartalom: A tartalom megjelenítéséhez kattints a 'Tetszik' gombra.**
    vagy free
    Rejtett tartalom:
    **Rejtett tartalom: A tartalom megjelenítéséhez kattints a 'Tetszik' gombra.**
    Hang: angol
    Felirat: magyar
    Formátum: mp4
    Méret: 444 MB
    Felbontás: 720x404
    Mintavételi frekvencia: 48000 Hz
    Bitsebesség: 132 kbps
    Műsoridő: 1:27:20
    Részletes média információ:
    Show Spoiler

    K:\67 - A Nagy Négyes.mp4
    General
    Complete name : K:\67 - A Nagy Négyes.mp4
    Format : MPEG-4
    Format profile : Base Media
    Codec ID : isom (isom/avc1)
    File size : 443 MiB
    Duration : 1 h 27 min
    Overall bit rate mode : Variable
    Overall bit rate : 709 kb/s
    Video #1
    ID : 1
    Format : AVC
    Format/Info : Advanced Video Codec
    Format profile : [email protected]
    Format settings, CABAC : Yes
    Format settings, ReFrames : 5 frames
    Codec ID : avc1
    Codec ID/Info : Advanced Video Coding
    Duration : 1 h 27 min
    Bit rate : 575 kb/s
    Maximum bit rate : 3 761 kb/s
    Width : 720 pixels
    Height : 404 pixels
    Display aspect ratio : 16:9
    Frame rate mode : Constant
    Frame rate : 25.000 FPS
    Color space : YUV
    Chroma subsampling : 4:2:0
    Bit depth : 8 bits
    Scan type : Progressive
    Bits/(Pixel*Frame) : 0.079
    Stream size : 359 MiB (81%)
    Title : Video
    Writing library : x264 core 138 r2358 9e941d1
    Encoding settings : cabac=1 / ref=5 / deblock=1:0:0 / analyse=0x3:0x113 / me=umh / subme=8 / psy=1 / psy_rd=1.00:0.00 / mixed_ref=1 / me_range=16 / chroma_me=1 / trellis=1 / 8x8dct=1 / cqm=0 / deadzone=21,11 / fast_pskip=1 / chroma_qp_offset=-2 / threads=12 / lookahead_threads=2 / sliced_threads=0 / nr=0 / decimate=1 / interlaced=0 / bluray_compat=0 / constrained_intra=0 / bframes=3 / b_pyramid=2 / b_adapt=2 / b_bias=0 / direct=3 / weightb=1 / open_gop=0 / weightp=2 / keyint=250 / keyint_min=25 / scenecut=40 / intra_refresh=0 / rc_lookahead=50 / rc=crf / mbtree=1 / crf=19.0 / qcomp=0.60 / qpmin=0 / qpmax=69 / qpstep=4 / ip_ratio=1.40 / aq=1:1.00
    Color range : Limited
    Matrix coefficients : BT.709
    Audio #2
    ID : 2
    Format : AAC
    Format/Info : Advanced Audio Codec
    Format profile : LC
    Codec ID : 40
    Duration : 1 h 27 min
    Bit rate mode : Variable
    Bit rate : 132 kb/s
    Maximum bit rate : 172 kb/s
    Channel(s) : 2 channels
    Channel positions : Front: L R
    Sampling rate : 48.0 kHz
    Frame rate : 46.875 FPS (1024 spf)
    Compression mode : Lossy
    Stream size : 81.1 MiB (18%)

    Rejtett tartalom:
    **Rejtett tartalom: A tartalom megjelenítéséhez kattints a 'Tetszik' gombra.**
    vagy free
    Rejtett tartalom:
    **Rejtett tartalom: A tartalom megjelenítéséhez kattints a 'Tetszik' gombra.**
     
  8. papadi

    papadi Állandó Tag

    [​IMG] [​IMG]

    68. (tizenharmadik évad - 3.) rész

    Gloriett a hullának
    (Dead Man's Folly)
    Rendezte: Tom Vaughan
    Bemutató: 2013. október 30.

    A híres krimiírónőt, Ariadne Olivert felkérik, hogy tervezzen meg egy gyilkosság-vadászat játékot egy devoni összejövetelre a Nasse House újdonsült tulajdonosának, Sir George Stubbs kérésére. De rossz előérzete támad és megkéri barátját, Hercule Poirot-t, hogy utazzon oda. Félelme beigazolódik, amikor az ünnepség alatt a gyilkos áldozatát alakító lányt tényleg meggyilkolják. (port.hu)

    Hang: magyar
    Formátum: tvrip/avi
    Méret: 792 MB
    Felbontás: 720x400
    Mintavételi frekvencia: 48000 Hz
    Bitsebesség: 128 kbps
    Műsoridő: 1:29:17
    Részletes média információ:
    Show Spoiler

    K:\68 - Gloriett a hulának (HDTV-Hun).avi
    General
    Complete name : K:\68 - Gloriett a hulának (HDTV-Hun).avi
    Format : AVI
    Format/Info : Audio Video Interleave
    File size : 791 MiB
    Duration : 1 h 29 min
    Overall bit rate mode : Variable
    Overall bit rate : 1 239 kb/s
    Writing application : Lavf53.14.0
    Writing library : VirtualDub build 35491/release
    Video #0
    ID : 0
    Format : MPEG-4 Visual
    Format profile : Advanced [email protected]
    Format settings, BVOP : 2
    Format settings, QPel : No
    Format settings, GMC : No warppoints
    Format settings, Matrix : Default (MPEG)
    Muxing mode : Packed bitstream
    Codec ID : XVID
    Codec ID/Hint : XviD
    Duration : 1 h 29 min
    Bit rate : 1 058 kb/s
    Width : 720 pixels
    Height : 400 pixels
    Display aspect ratio : 16:9
    Frame rate : 25.000 FPS
    Color space : YUV
    Chroma subsampling : 4:2:0
    Bit depth : 8 bits
    Scan type : Progressive
    Compression mode : Lossy
    Bits/(Pixel*Frame) : 0.147
    Stream size : 676 MiB (85%)
    Writing library : XviD 64
    Audio #1
    ID : 1
    Format : MPEG Audio
    Format version : Version 1
    Format profile : Layer 3
    Mode : Joint stereo
    Mode extension : MS Stereo
    Codec ID : 55
    Codec ID/Hint : MP3
    Duration : 1 h 29 min
    Bit rate mode : Variable
    Bit rate : 128 kb/s
    Channel(s) : 2 channels
    Sampling rate : 48.0 kHz
    Compression mode : Lossy
    Stream size : 107 MiB (14%)
    Alignment : Aligned on interleaves
    Interleave, duration : 24 ms (0.60 video frame)
    Interleave, preload duration : 802 ms


    [​IMG]

    Rejtett tartalom:
    **Rejtett tartalom: A tartalom megjelenítéséhez kattints a 'Tetszik' gombra.**
    vagy free
    Rejtett tartalom:
    **Rejtett tartalom: A tartalom megjelenítéséhez kattints a 'Tetszik' gombra.**
    Hang: angol
    Felirat: magyar
    Formátum: mp4
    Méret: 609 MB
    Felbontás: 720x404
    Mintavételi frekvencia: 48000 Hz
    Bitsebesség: 132 kbps
    Műsoridő: 1:29:17
    Részletes média információ:
    Show Spoiler

    K:\68 - Gloriett a hulának.mp4
    General
    Complete name : K:\68 - Gloriett a hulának.mp4
    Format : MPEG-4
    Format profile : Base Media
    Codec ID : isom (isom/avc1)
    File size : 608 MiB
    Duration : 1 h 29 min
    Overall bit rate mode : Variable
    Overall bit rate : 952 kb/s
    Video #1
    ID : 1
    Format : AVC
    Format/Info : Advanced Video Codec
    Format profile : [email protected]
    Format settings, CABAC : Yes
    Format settings, ReFrames : 5 frames
    Codec ID : avc1
    Codec ID/Info : Advanced Video Coding
    Duration : 1 h 29 min
    Bit rate : 814 kb/s
    Maximum bit rate : 5 340 kb/s
    Width : 720 pixels
    Height : 404 pixels
    Display aspect ratio : 16:9
    Frame rate mode : Constant
    Frame rate : 25.000 FPS
    Color space : YUV
    Chroma subsampling : 4:2:0
    Bit depth : 8 bits
    Scan type : Progressive
    Bits/(Pixel*Frame) : 0.112
    Stream size : 520 MiB (85%)
    Title : Video
    Writing library : x264 core 138 r2358 9e941d1
    Encoding settings : cabac=1 / ref=5 / deblock=1:0:0 / analyse=0x3:0x113 / me=umh / subme=8 / psy=1 / psy_rd=1.00:0.00 / mixed_ref=1 / me_range=16 / chroma_me=1 / trellis=1 / 8x8dct=1 / cqm=0 / deadzone=21,11 / fast_pskip=1 / chroma_qp_offset=-2 / threads=12 / lookahead_threads=2 / sliced_threads=0 / nr=0 / decimate=1 / interlaced=0 / bluray_compat=0 / constrained_intra=0 / bframes=3 / b_pyramid=2 / b_adapt=2 / b_bias=0 / direct=3 / weightb=1 / open_gop=0 / weightp=2 / keyint=250 / keyint_min=25 / scenecut=40 / intra_refresh=0 / rc_lookahead=50 / rc=crf / mbtree=1 / crf=19.0 / qcomp=0.60 / qpmin=0 / qpmax=69 / qpstep=4 / ip_ratio=1.40 / aq=1:1.00
    Color range : Limited
    Matrix coefficients : BT.709
    Audio #2
    ID : 2
    Format : AAC
    Format/Info : Advanced Audio Codec
    Format profile : LC
    Codec ID : 40
    Duration : 1 h 29 min
    Bit rate mode : Variable
    Bit rate : 132 kb/s
    Maximum bit rate : 163 kb/s
    Channel(s) : 2 channels
    Channel positions : Front: L R
    Sampling rate : 48.0 kHz
    Frame rate : 46.875 FPS (1024 spf)
    Compression mode : Lossy
    Stream size : 85.6 MiB (14%)

    Rejtett tartalom:
    **Rejtett tartalom: A tartalom megjelenítéséhez kattints a 'Tetszik' gombra.**
    vagy free
    Rejtett tartalom:
    **Rejtett tartalom: A tartalom megjelenítéséhez kattints a 'Tetszik' gombra.**
     
  9. papadi

    papadi Állandó Tag

    [​IMG] [​IMG]

    69. (tizenharmadik évad - 4.) rész

    Herkules munkái
    (The Labours of Hercules)
    Rendezte: Andy Wilson
    Bemutató: 2013. november 6.

    A londoni rendőrség kétségbeesetten szeretné elkapni a hírhedt műkincs tolvajt Marrascaudt, ezért egy szerintük tökéletes csapdát állítanak neki. A Le Mesurier család bejelenti, hogy gyönyörű lányukat Lucindát bevezetik a társaságba és viselni fogja a különösen drága gyémánt nyakláncot. Továbbá kiállítanak egy híres műalkotást Marrascaud kedvenc festőjétől Van Druystól. Az eseményen részt vesz Poirot is. Az este katasztrofális eredménnyel jár, a tolvaj ellopja a festményt és az ékszert Poirot orra elől, hátrahagyva a meggyilkolt Lucindát. Poirot teljesen összetört és depresszióba esik. Dr Burton próbál segíteni neki, hogy újra fellelkesüljön, de csak egy újabb ügy segítenie neki. Mikor egy fiatal sofőr megkéri, hogy keresse meg a szerelmét, érzi csak úgy Poirot, hogy úja képes dolgozni. A kutatás során a svájci Alpokba is eljut, ahol egy régi ismerőssel találkozik Vera Rossakoff grófnővel... (port.hu)

    Hang: magyar
    Formátum: tvrip/avi
    Méret: 698 MB
    Felbontás: 720x400
    Mintavételi frekvencia: 48000 Hz
    Bitsebesség: 128 kbps
    Műsoridő: 1:31:02
    Részletes média információ:
    Show Spoiler

    K:\69 - Herkules munkái (HDTV-Hun).avi
    General
    Complete name : K:\69 - Herkules munkái (HDTV-Hun).avi
    Format : AVI
    Format/Info : Audio Video Interleave
    File size : 698 MiB
    Duration : 1 h 31 min
    Overall bit rate : 1 071 kb/s
    Writing application : VirtualDubMod 1.5.10.2 (build 2542/release)
    Writing library : VirtualDubMod build 2542/release
    Video #0
    ID : 0
    Format : MPEG-4 Visual
    Format profile : Advanced [email protected]
    Format settings, BVOP : 1
    Format settings, QPel : No
    Format settings, GMC : No warppoints
    Format settings, Matrix : Default (MPEG)
    Codec ID : XVID
    Codec ID/Hint : XviD
    Duration : 1 h 31 min
    Bit rate : 934 kb/s
    Width : 720 pixels
    Height : 400 pixels
    Display aspect ratio : 16:9
    Frame rate : 25.000 FPS
    Color space : YUV
    Chroma subsampling : 4:2:0
    Bit depth : 8 bits
    Scan type : Progressive
    Compression mode : Lossy
    Bits/(Pixel*Frame) : 0.130
    Stream size : 608 MiB (87%)
    Writing library : XviD 64
    Audio #1
    ID : 1
    Format : MPEG Audio
    Format version : Version 1
    Format profile : Layer 3
    Mode : Joint stereo
    Mode extension : MS Stereo
    Codec ID : 55
    Codec ID/Hint : MP3
    Duration : 1 h 31 min
    Bit rate mode : Constant
    Bit rate : 128 kb/s
    Channel(s) : 2 channels
    Sampling rate : 48.0 kHz
    Compression mode : Lossy
    Stream size : 83.3 MiB (12%)
    Alignment : Split accross interleaves
    Interleave, duration : 40 ms (1.00 video frame)
    Interleave, preload duration : 500 ms


    [​IMG]

    Rejtett tartalom:
    **Rejtett tartalom: A tartalom megjelenítéséhez kattints a 'Tetszik' gombra.**
    vagy free
    Rejtett tartalom:
    **Rejtett tartalom: A tartalom megjelenítéséhez kattints a 'Tetszik' gombra.**
    Hang: angol
    Felirat: magyar
    Formátum: mp4
    Méret: 391 MB
    Felbontás: 720x404
    Mintavételi frekvencia: 48000 Hz
    Bitsebesség: 128 kbps
    Műsoridő: 1:31:02
    Részletes média információ:
    Show Spoiler

    K:\69 - Herkules munkái.mp4
    General
    Complete name : K:\69 - Herkules munkái.mp4
    Format : MPEG-4
    Format profile : Base Media
    Codec ID : isom (isom/avc1)
    File size : 391 MiB
    Duration : 1 h 31 min
    Overall bit rate mode : Variable
    Overall bit rate : 600 kb/s
    Video #1
    ID : 1
    Format : AVC
    Format/Info : Advanced Video Codec
    Format profile : [email protected]
    Format settings, CABAC : Yes
    Format settings, ReFrames : 5 frames
    Codec ID : avc1
    Codec ID/Info : Advanced Video Coding
    Duration : 1 h 31 min
    Bit rate : 467 kb/s
    Maximum bit rate : 2 820 kb/s
    Width : 720 pixels
    Height : 404 pixels
    Display aspect ratio : 16:9
    Frame rate mode : Constant
    Frame rate : 25.000 FPS
    Color space : YUV
    Chroma subsampling : 4:2:0
    Bit depth : 8 bits
    Scan type : Progressive
    Bits/(Pixel*Frame) : 0.064
    Stream size : 304 MiB (78%)
    Title : Video
    Writing library : x264 core 140 r2377 1ca7bb9
    Encoding settings : cabac=1 / ref=5 / deblock=1:0:0 / analyse=0x3:0x113 / me=umh / subme=8 / psy=1 / psy_rd=1.00:0.00 / mixed_ref=1 / me_range=16 / chroma_me=1 / trellis=1 / 8x8dct=1 / cqm=0 / deadzone=21,11 / fast_pskip=1 / chroma_qp_offset=-2 / threads=12 / lookahead_threads=2 / sliced_threads=0 / nr=0 / decimate=1 / interlaced=0 / bluray_compat=0 / constrained_intra=0 / bframes=3 / b_pyramid=2 / b_adapt=2 / b_bias=0 / direct=3 / weightb=1 / open_gop=0 / weightp=2 / keyint=250 / keyint_min=25 / scenecut=40 / intra_refresh=0 / rc_lookahead=50 / rc=crf / mbtree=1 / crf=19.0 / qcomp=0.60 / qpmin=0 / qpmax=69 / qpstep=4 / ip_ratio=1.40 / aq=1:1.00
    Color range : Limited
    Matrix coefficients : BT.709
    Audio #2
    ID : 2
    Format : AAC
    Format/Info : Advanced Audio Codec
    Format profile : LC
    Codec ID : 40
    Duration : 1 h 31 min
    Bit rate mode : Variable
    Bit rate : 128 kb/s
    Maximum bit rate : 170 kb/s
    Channel(s) : 2 channels
    Channel positions : Front: L R
    Sampling rate : 48.0 kHz
    Frame rate : 46.875 FPS (1024 spf)
    Compression mode : Lossy
    Stream size : 83.4 MiB (21%)

    Rejtett tartalom:
    **Rejtett tartalom: A tartalom megjelenítéséhez kattints a 'Tetszik' gombra.**
    vagy free
    Rejtett tartalom:
    **Rejtett tartalom: A tartalom megjelenítéséhez kattints a 'Tetszik' gombra.**
     
  10. papadi

    papadi Állandó Tag

    [​IMG] [​IMG]

    70. (tizenharmadik évad - 5.) rész

    Függöny - Poirot utolsó esete
    (Curtain: Poirot's Last Case)
    Rendezte: Hettie MacDonald
    Bemutató: 2013. november 13.

    Tolószékhez kötve, megbénítva a köszvénytől, az idős Poirot újra találkozik régi barátjával, Hastings kapitánnyal ott, ahol minden elkezdődött. Styles az a vidéki ház, ahol a barátok először találkoztak 30 éve, amikor Poirot még menekült volt, Hastings pedig egy sebesült katona. De a ház szintén helyszíne volt az első gyilkossági ügynek, amit együtt oldottak meg - és hamarosan ez lesz a helyszíne az utolsónak is egyben.
    Mióta utoljára találkoztak, mindketten átéltek tragédiákat - Hastings megözvegyült, Poirot pedig életveszélyes szívproblémákkal küzd. De a nagy detektív agya, ugyan olyan éles és aktív, mint valaha volt és meggyőződéssel mondja barátjának, hogy Styles-ban újra egy gyilkos bujkál - és csak idő kérdése mielőtt újra lecsap. A probléma, hogy Poirot még nem tudja a gyilkos vagy az áldozat kilétét, és a fogyatékossága frusztrálóan megakadályozza, hogy nyomozói ösztöneit kövesse.
    Poirot megkéri Hastingset, hogy legyen a "szeme és a füle", de ahogy romlik az állapota és a ház többi vendégét zavaró támadások érik, Poirot egyre aggodalmasabb lesz, hogy talán végül találkozott méltó ellenfelével. Össze kell szednie minden erejét és erőltetnie kell a "kis szürkeállományt" a végsőkig, hogy megvívja a végső csatát a végzetével a valaha volt utolsó esetében.
    (port.hu)

    Hang: magyar
    Formátum: tvrip/avi
    Méret: 700 MB
    Felbontás: 720x400
    Mintavételi frekvencia: 48000 Hz
    Bitsebesség: 128 kbps
    Műsoridő: 1:29:59
    Részletes média információ:
    Show Spoiler

    K:\70 - Függöny (HDTV-Hun).avi
    General
    Complete name : K:\70 - Függöny (HDTV-Hun).avi
    Format : AVI
    Format/Info : Audio Video Interleave
    File size : 699 MiB
    Duration : 1 h 29 min
    Overall bit rate : 1 086 kb/s
    Writing application : VirtualDubMod 1.5.10.2 (build 2542/release)
    Writing library : VirtualDubMod build 2542/release
    Video #0
    ID : 0
    Format : MPEG-4 Visual
    Format profile : Advanced [email protected]
    Format settings, BVOP : 1
    Format settings, QPel : No
    Format settings, GMC : No warppoints
    Format settings, Matrix : Default (MPEG)
    Codec ID : XVID
    Codec ID/Hint : XviD
    Duration : 1 h 29 min
    Bit rate : 948 kb/s
    Width : 720 pixels
    Height : 400 pixels
    Display aspect ratio : 16:9
    Frame rate : 25.000 FPS
    Color space : YUV
    Chroma subsampling : 4:2:0
    Bit depth : 8 bits
    Scan type : Progressive
    Compression mode : Lossy
    Bits/(Pixel*Frame) : 0.132
    Stream size : 610 MiB (87%)
    Writing library : XviD 64
    Audio #1
    ID : 1
    Format : MPEG Audio
    Format version : Version 1
    Format profile : Layer 3
    Mode : Joint stereo
    Mode extension : MS Stereo
    Codec ID : 55
    Codec ID/Hint : MP3
    Duration : 1 h 29 min
    Bit rate mode : Constant
    Bit rate : 128 kb/s
    Channel(s) : 2 channels
    Sampling rate : 48.0 kHz
    Compression mode : Lossy
    Stream size : 82.4 MiB (12%)
    Alignment : Aligned on interleaves
    Interleave, duration : 40 ms (1.00 video frame)
    Interleave, preload duration : 504 ms


    [​IMG]

    Rejtett tartalom:
    **Rejtett tartalom: A tartalom megjelenítéséhez kattints a 'Tetszik' gombra.**
    vagy free
    Rejtett tartalom:
    **Rejtett tartalom: A tartalom megjelenítéséhez kattints a 'Tetszik' gombra.**
    Hang: angol
    Felirat: magyar
    Formátum: mp4
    Méret: 488 MB
    Felbontás: 720x404
    Mintavételi frekvencia: 48000 Hz
    Bitsebesség: 116 kbps
    Műsoridő: 1:29:59
    Részletes média információ:
    Show Spoiler

    K:\70 - Függöny.mp4
    General
    Complete name : K:\70 - Függöny.mp4
    Format : MPEG-4
    Format profile : Base Media
    Codec ID : isom (isom/avc1)
    File size : 488 MiB
    Duration : 1 h 29 min
    Overall bit rate mode : Variable
    Overall bit rate : 757 kb/s
    Video #1
    ID : 1
    Format : AVC
    Format/Info : Advanced Video Codec
    Format profile : [email protected]
    Format settings, CABAC : Yes
    Format settings, ReFrames : 5 frames
    Codec ID : avc1
    Codec ID/Info : Advanced Video Coding
    Duration : 1 h 29 min
    Bit rate : 637 kb/s
    Maximum bit rate : 5 157 kb/s
    Width : 720 pixels
    Height : 404 pixels
    Display aspect ratio : 16:9
    Frame rate mode : Constant
    Frame rate : 25.000 FPS
    Color space : YUV
    Chroma subsampling : 4:2:0
    Bit depth : 8 bits
    Scan type : Progressive
    Bits/(Pixel*Frame) : 0.088
    Stream size : 410 MiB (84%)
    Title : Video
    Writing library : x264 core 140 r2377 1ca7bb9
    Encoding settings : cabac=1 / ref=5 / deblock=1:0:0 / analyse=0x3:0x113 / me=umh / subme=8 / psy=1 / psy_rd=1.00:0.00 / mixed_ref=1 / me_range=16 / chroma_me=1 / trellis=1 / 8x8dct=1 / cqm=0 / deadzone=21,11 / fast_pskip=1 / chroma_qp_offset=-2 / threads=12 / lookahead_threads=2 / sliced_threads=0 / nr=0 / decimate=1 / interlaced=0 / bluray_compat=0 / constrained_intra=0 / bframes=3 / b_pyramid=2 / b_adapt=2 / b_bias=0 / direct=3 / weightb=1 / open_gop=0 / weightp=2 / keyint=250 / keyint_min=25 / scenecut=40 / intra_refresh=0 / rc_lookahead=50 / rc=crf / mbtree=1 / crf=19.0 / qcomp=0.60 / qpmin=0 / qpmax=69 / qpstep=4 / ip_ratio=1.40 / aq=1:1.00
    Color range : Limited
    Matrix coefficients : BT.709
    Audio #2
    ID : 2
    Format : AAC
    Format/Info : Advanced Audio Codec
    Format profile : LC
    Codec ID : 40
    Duration : 1 h 29 min
    Bit rate mode : Variable
    Bit rate : 116 kb/s
    Maximum bit rate : 151 kb/s
    Channel(s) : 2 channels
    Channel positions : Front: L R
    Sampling rate : 48.0 kHz
    Frame rate : 46.875 FPS (1024 spf)
    Compression mode : Lossy
    Stream size : 74.9 MiB (15%)

    Rejtett tartalom:
    **Rejtett tartalom: A tartalom megjelenítéséhez kattints a 'Tetszik' gombra.**
    vagy free
    Rejtett tartalom:
    **Rejtett tartalom: A tartalom megjelenítéséhez kattints a 'Tetszik' gombra.**
     
  11. Zauberfl

    Zauberfl Állandó Tag

    Szindbád nyolcadik utazása 1985
    Magyar tvfilm sorozat 1 - 12 rész ~45 percesek

    [​IMG]

    Írta: Alaksza Tamás
    Rendezte: Rajnai András
    Zeneszerző: Benkő László
    Dramaturg: Jánosi Antal
    Jelmeztervező: Wieber Mariann
    Díszlet: Balló Gábor
    Vezető operatőr: Bónis Gyula

    Főbb szereplők:
    Szindbád - Juhász Jácint
    Anisze - Tóth Enikő
    Denhess - Téri Sándor
    Szumajje - Kővári Judit
    El Namam - Bozóky István
    El Hakim - Némethy Ferenc
    El Szafa - Thamir al Zadi
    Manszur - Pákozdi János
    El Harrasa - Anday Marietta
    Anyakirálynő - Medveczky Ilona


    A filmben a gazdag Szindbád fényűzésben él pompázatos otthonában, amikor egy nap megismerkedik a névben és külső jegyekben hozzá hasonló, ám szegény teherhordó Szindbáddal. Előbbi megosztja utóbbival hét utazásának történetét, s a mese végére a szegény sorban tengődő férfi már cseppet sem irigykedik Szindbád vagyonára, aki éjjelente különös arcot lát álmában, s nyomasztó késztetést érez, hogy felkutassa az arc tulajdonosát. Ezzel veszi kezdetét Szindbád nyolcadik utazása...

    Tvrip
    Format: Matroska at 2 051 kb/s
    Length: 647 MiB for ~ 45 perc 5 mp 504emp
    Video: AVC
    Aspect: 720 x 576 (1.250) at 25.000 fps
    Audio: AAC
    Infos: 2 csatorna, 48,0 kHz

    Rejtett tartalom:
    **Rejtett tartalom: A tartalom megjelenítéséhez kattints a 'Tetszik' gombra.**
     
  12. timtimsk

    timtimsk Tag

    Brutalis Digitalis S01iPTV h264 HUN

    [​IMG]


    Színes, magyar dokumentumfilm sorozat. Brutális Digitális Vályi István újságíró, a Brutális sorozatok műsor vezetője szakemberek segítségével mutatja be többek között azt, hogy mi is az az elektorszmog, és vajon kell-e tartani tőle; lehet-e térerőt csiholni házilag egy olyan helyen, ahol mobilok teljesen használhatatlannak tűnnek; és vajon miért alapvető, hogy a jelszavaink biztonságosak legyenek.

    Szereplő: Vályi István

    Besorolás: Tizenkét éven aluliak számára nem ajánlott.

    Műfaj: Dokumentum

    Ma már szinte egy lépést sem tudunk megtenni anélkül, hogy ne találkoznánk valamilyen elektronikai eszközzel, elég, ha csak a mobiltelefonokra gondolunk, amely nélkül sokan már létezni sem tudnának.



    A „Brutális digitális” című nyolcrészes sorozat éppen ezt a digitális világot igyekszik közelebb hozni a nézőkhöz, látványosan szemléltetve a működési mechanizmusokat. Rengetegen komfortosan mozognak a paypass-os fizetés és a wifi-jelszavak között, mégsem igazán tudják, mi is történik pontosan a háttérben. Ez változik meg gyökeresen november 13-án, 20.55-kor, a sorozat premierjekor a Spektrumon. Vályi István újságíró, a Brutális-sorozatok jól ismert műsorvezetője ismét szakemberek segítségével mutatja be, hogyan működik a digitális világ. Így a többi közt kiderül, mi az az elektroszmog, vajon kell-e tartani tőle, lehet-e térerőt csiholni házilag egy olyan helyen, ahol a mobilok teljesen használhatatlannak tűnnek, és vajon miért alapvető, hogy a jelszavaink biztonságosak legyenek. A Magyar Telekommal közösen készített sorozat epizódjaiból nem hiányoznak a kísérletek és a közérthető információk, ahogyan a könnyed és humoros stílus sem, amely végigkíséri a sorozat minden egyes részét.



    Egyéb igazoló link:
    http://www.blikk.hu/eletmod/tech/ismet-brutalis-sorozat-jon-a-spektrumon/2nzv42l
    https://hvg.hu/tudomany/20181111_brutalis_digitalis_spektrum_magyar_telekom
    https://dereferer.me/?http://tv.24.hu/musorok/sorozat/brutalis-digitalis


    Epizódok száma......: 8


    Formátum............: Matroska
    Teljes sebesség.....: ~1 500 kb/s
    Méret...............: 647 MB
    Hossz...............: 00:59:56

    Kép:
    Felbontás ..........: 720 x 576
    Szabvány............: PAL
    Képarány............: 16:9
    Adatsebesség........: ~1 400 kb/s
    BitDepth............: 8 bit
    FPS.................: 25,000
    Forrás..............: IPTV - Spektrum

    Hang:
    Hangsáv.............: 2
    Formátum............: MPEG Audio
    Adatsebesség........: 128 kb/s
    Csatornák száma.....: 2
    Mintavét.gyak.......: 48,0 KHz
    Forrás..............: IPTV - Spektrum

    [​IMG]

    data.hu

    Rejtett tartalom:
    **Rejtett tartalom: A tartalom megjelenítéséhez kattints a 'Tetszik' gombra.**

     
  13. papadi

    papadi Állandó Tag

    [​IMG]
    31. (negyedik évad - 1.) rész
    Az ABC-gyilkosságok
    (The A.B.C. Murders)
    Rendezte: Andrew Grieve
    Bemutató: 1992. január 5.
    Hang: magyar, angol
    Felirat: magyar
    Poirot levelet kapott, ABC aláírással, mely meghívó egy leendő gyilkosság helyszínére. Minden az írottak szerint történik: az adott időben meghal Mrs. Alice Ascher, Andover városában. Később egy újabb levél érkezik, s a benne írtaknak megfelelően egy B-betűs város B-betűs lakosa az áldozat. Majd a C és a D következik a szörnyű sorozatban. A rendőrség rá is bukkan Alexander Bonaparte Custra, a labilis idegzetű házaló ügynökre, aki minden esetben a gyilkosság helyszínén tartózkodott. Senki sem vonja kétségbe, hogy ő a beteg elme, aki a gyilkosságsorozat mögött áll - egyedül csak Poirot... (a borítóról)
    [​IMG]

    Formátum: dvdrip/avi
    Méret: 0,99 GB
    Felbontás: 720x544
    Mintavételi frekvencia: 48000 Hz
    Bitsebesség: 128 kbps
    Műsoridő: 1:41:40
    Részletes média információ:
    Show Spoiler

    J:\31 - Az ABC gyilkosságok.avi
    General
    Complete name : J:\31 - Az ABC gyilkosságok.avi
    Format : AVI
    Format/Info : Audio Video Interleave
    File size : 1 017 MiB
    Duration : 1 h 41 min
    Overall bit rate : 1 398 kb/s
    Writing application : VirtualDubMod 1.5.4.1 (build 2178/release)
    Writing library : VirtualDubMod build 2178/release
    Video #0
    ID : 0
    Format : MPEG-4 Visual
    Format profile : Advanced [email protected]
    Format settings, BVOP : 1
    Format settings, QPel : No
    Format settings, GMC : No warppoints
    Format settings, Matrix : Custom
    Codec ID : XVID
    Codec ID/Hint : XviD
    Duration : 1 h 41 min
    Bit rate : 1 132 kb/s
    Width : 720 pixels
    Height : 544 pixels
    Display aspect ratio : 4:3
    Frame rate : 25.000 FPS
    Color space : YUV
    Chroma subsampling : 4:2:0
    Bit depth : 8 bits
    Scan type : Progressive
    Compression mode : Lossy
    Bits/(Pixel*Frame) : 0.116
    Stream size : 823 MiB (81%)
    Writing library : XviD 1.2.1 (UTC 2008-12-04)
    Audio #1
    ID : 1
    Format : MPEG Audio
    Format version : Version 1
    Format profile : Layer 3
    Mode : Joint stereo
    Mode extension : MS Stereo
    Codec ID : 55
    Codec ID/Hint : MP3
    Duration : 1 h 41 min
    Bit rate mode : Constant
    Bit rate : 128 kb/s
    Channel(s) : 2 channels
    Sampling rate : 48.0 kHz
    Compression mode : Lossy
    Stream size : 93.1 MiB (9%)
    Alignment : Aligned on interleaves
    Interleave, duration : 80 ms (2.00 video frames)
    Interleave, preload duration : 504 ms
    Writing library : LAME3.98r
    Encoding settings : -m j -V 4 -q 2 -lowpass 17 -b 128
    Audio #2
    ID : 2
    Format : MPEG Audio
    Format version : Version 1
    Format profile : Layer 3
    Mode : Joint stereo
    Mode extension : MS Stereo
    Codec ID : 55
    Codec ID/Hint : MP3
    Duration : 1 h 41 min
    Bit rate mode : Constant
    Bit rate : 128 kb/s
    Channel(s) : 2 channels
    Sampling rate : 48.0 kHz
    Compression mode : Lossy
    Stream size : 93.1 MiB (9%)
    Alignment : Aligned on interleaves
    Interleave, duration : 80 ms (2.00 video frames)
    Interleave, preload duration : 504 ms
    Writing library : LAME3.98r
    Encoding settings : -m j -V 4 -q 2 -lowpass 17 -b 128


    Rejtett tartalom:
    **Rejtett tartalom: A tartalom megjelenítéséhez kattints a 'Tetszik' gombra.**
    újratöltve
     
    kron, őrszem, Kultatukka és 1 másik tag kedveli ezt.
  14. papadi

    papadi Állandó Tag

    [​IMG]
    56. (tizedik évad - 3.) rész
    Temetni veszélyes
    (After the Funeral)
    Rendezte: Maurice Phillips
    Bemutató: 2006. március 26.
    Hang: magyar, angol
    Felirat: magyar, angol

    Az Abernethie-család tagjai talán abban különböznek egy átlagos angol famíliától, hogy mindegyiküknek van valami rejtegetni valója. Pedig nagyon fontos lenne, hogy megmondják az igazat. Ugyanis rövid idő alatt két gyilkosság is történik a családban. A gazdag Richard bácsinak a végrendeletét is meghamisították, a félkegyelmű Cora néni meggyilkolásának idejére pedig különös módon egyik Abernethie-nek sincs tisztességes alibije. Ilyen körülmények között a nyomozónak roppant nehéz a dolga, hiszen mindenki gyanús. Létezik azonban egy bevált módszer: ha a családtagokat egy házba terelik, és hagyják, hogy szabadon csevegjenek, előbb-utóbb felszínre kerülnek a régi konfliktusok - és velük az árulkodó titkok. (a borítóról)

    Extrák: (magyar felirattal)
    Így készült a film (6:15)

    Média információ:
    Video:
    Kodek: MPEG-1/2 Video (mpgv)
    Felbontás: 720x576
    Képkockasebesség: 25
    Hang:
    Kodek: A52 Audio (aka AC3) (a52)
    Csatornák: 3F2R/LFE
    Mintavételi frekvencia: 48000 Hz
    Bitsebesség: 192/448 kb/mp
    Formátum: iso
    Méret: 4,30 GB
    Műsoridő: 1:33:16 (1:39:31)
    (prémium)
    Rejtett tartalom:
    **Rejtett tartalom: A tartalom megjelenítéséhez kattints a 'Tetszik' gombra.**
    újratöltve
     
    kron és nandus kedveli ezt.
  15. papadi

    papadi Állandó Tag

    [​IMG]

    66. (tizenharmadik évad - 1.) rész
    Az elefántok nem felejtenek
    (Elephants Can Remember)
    Rendezte: John Strickland
    Hang: magyar, angol
    Felirat: nincs
    Bemutató: 2013. június 9.
    "Vajon az anyja ölte meg az apját, vagy az apja ölte meg az anyját?"
    A 13 éve történt rejtélyes halálesetben egy házaspár vesztette életét, és kérdésre a megoldást a mai napig nem találta meg senki.
    Mrs. Ariadne Oliver egy irodalmi banketten vesz részt és egy utálatos nőszemély azt követeli tőle, hogy derítse ki keresztlánya Celia Ravenscroft szülei furcsa halálának okát.
    Mrs. Oliver a teljes visszavonultságban élő Hercule Poirothoz fordul...
    (a borítóról)

    67. (tizenharmadik évad - 2.) rész
    A Nagy Négyes
    (The Big Four)
    Alternatív cím: A Titokzatos Négyes
    Rendezte: Peter Lydon
    Hang: magyar, angol
    Felirat: nincs
    Bemutató: 2013. október 23.
    A II. Világháború küszöbén vagyunk, a világ a szakadék szélén áll.
    A Békepárt nagyszabású ünnepséget rendez, ezzel is demonstrálva a nemzetközi összefogást. Az illusztris vendégseregben ott van Poirot, aki újra találkozik régi barátjával, Japp-pel, aki a londoni rendőrség helyettes parancsnoka lett. Az est fénypontja egy sakkjátszma, melyet az amerikai iparmágnás, Abe Ryland és Dr. Ivan Savaranoff orosz sakknagymester játszik. Ám alig kezdődik el a játék, az orosz nagymester holtan esik össze.
    A gyilkosság egy kegyetlen politikai csoport, a Nagy Négyes műve.
    (a borítóról)

    Média információ:
    Video:
    Kodek: MPEG-1/2 Video (mpgv)
    Felbontás: 720x576
    Képkockasebesség: 25
    Képformátum: 1.85:1 (16:9)
    Hang:
    Kodek: A52 Audio (aka AC3) (a52)
    Csatornák: Sztereó
    Mintavételi frekvencia: 48000 Hz
    Bitsebesség: 192/256 kb/mp
    Formátum: iso
    Méret: 7,34 GB
    Műsoridő: 1:28:44+1:27:22

    (prémium)
    Rejtett tartalom:
    **Rejtett tartalom: A tartalom megjelenítéséhez kattints a 'Tetszik' gombra.**
     
    nandus kedveli ezt.
  16. papadi

    papadi Állandó Tag

    68. (tizenharmadik évad - 3.) rész
    Gloriett a hullának
    (Dead Man's Folly)
    Rendezte: Tom Vaughan
    Hang: magyar, angol
    Felirat: nincs
    Bemutató: 2013. október 30.
    Ariadne Olivert, a híres krimiírónőt, kérik fel arra, hogy tervezzen meg egy gyilkosság-vadászat játékot egy devoni összejövetelre a Nasse House újdonsült tulajdonosa, Sir George Stubbs kérésére. De Adriadnénak rossz előérzete támad és megkéri barátját, Hercule Poirot-t, hogy utazzon oda. Félelme beigazolódik, amikor az ünnepség alatt a gyilkos áldozatát alakító lányt tényleg meggyilkolják. (a borítóról)

    69. (tizenharmadik évad - 4.) rész
    Hercules munkái
    (The Labours of Hercules)
    Rendezte: Andy Wilson
    Hang: magyar, angol
    Felirat: nincs
    Bemutató: 2013. november 6.
    A londoni rendőrség a hírhedt műkincs tolvaj Marrascaud elfogásán dolgozik. A Le Mesurier család bejelenti, hogy az estélyükön lányuk viselni fog egy drága gyémánt nyakláncot. Az eseményen részt vesz Poirot is. (a borítóról)

    Média információ:
    Video:
    Kodek: MPEG-1/2 Video (mpgv)
    Felbontás: 720x576
    Képkockasebesség: 25
    Képformátum: 1.85:1 (16:9)
    Hang:
    Kodek: A52 Audio (aka AC3) (a52)
    Csatornák: Sztereó
    Mintavételi frekvencia: 48000 Hz
    Bitsebesség: 192/256 kb/mp
    Formátum: iso
    Méret: 7,33 GB
    Műsoridő: 1:28:39+1:30:22

    (prémium)
    Rejtett tartalom:
    **Rejtett tartalom: A tartalom megjelenítéséhez kattints a 'Tetszik' gombra.**
     
    nandus kedveli ezt.
  17. papadi

    papadi Állandó Tag

    70. (tizenharmadik évad - 5.) rész
    Függöny - Poirot utolsó esete
    (Curtain: Poirot's Last Case)
    Rendezte: Hettie MacDonald
    Hang: magyar, angol
    Felirat: nincs
    Bemutató: 2013. november 13.
    A tolószékhez kötötött, idős Poirot újra találkozik régi barátjával, Hastings kapitánnyal abban a vidéki házban, ahol 30 éve együtt oldották meg az első gyilkossági ügyet. Ez lesz a helyszíne az utolsónak is. (a borítóról)

    Média információ:
    Video:
    Kodek: MPEG-1/2 Video (mpgv)
    Felbontás: 720x576
    Képkockasebesség: 25
    Képformátum: 1.85:1 (16:9)
    Hang:
    Kodek: A52 Audio (aka AC3) (a52)
    Csatornák: Sztereó
    Mintavételi frekvencia: 48000 Hz
    Bitsebesség: 192/256 kb/mp
    Formátum: iso
    Méret: 4,25 GB
    Műsoridő: 1:29:24

    (prémium)
    Rejtett tartalom:
    **Rejtett tartalom: A tartalom megjelenítéséhez kattints a 'Tetszik' gombra.**
     
    brunó1945, Kultatukka és nandus kedveli ezt.
  18. dzsefff

    dzsefff Állandó Tag

    Ókori kalandok (A Római Birodalom rejtélyei)
    /Roman Mysteries/
    magyarul beszélő,angol ifjúsági filmsorozat, 2007
    Évad: 1
    Epizód: 10

    okori_kalandok_a_romai_birodalom_rejtelyei.jpg


    2.99 Gb,avi

    IMDb link: http://hungarian.imdb.com/title/tt0808099
    Egyéb link: http://www.port.hu/okori_kalan...

    rendező: Marcus de White Jill Robertson Paul Marcus
    producer: Martyn Auty

    Szereplők
    Nubia
    Rebekah Brookes-Murrell
    Flavia Gemina
    Francesca Isherwood
    Pliny
    Simon Callow
    Susannah
    Liz May Brice
    Agathus
    Nick Brimble

    Ez a Caroline Lawrence nagy sikerű könyvén alapuló gyermeksorozat négy barát történetét meséli el, akik átélték a történelem egyik legviharosabb időszakát. A mai fiatalok életéhez hasonlóan ők is foglalkoznak az előítéletekkel, az erőszakkal és a környezettel, titokzatos és a bizonytalanságot tükröző történeteken keresztül. Különböző okok miatt mindegyik gyerekre rosszallóan és kívülállóként tekint a római társadalom. Barátságuk ereje az egyes epizódok lényege, miközben rejtélyes titkokat vizsgálnak, amelyek során sok hatás éri őket - a Vezúv kitörésétől a római szenátus intrikáiig.

    Rejtett tartalom:
    **Rejtett tartalom: A tartalom megjelenítéséhez kattints a 'Tetszik' gombra.**
     
  19. atesz5

    atesz5 Állandó Tag

    Csernobil -Chernobyl- HBO Mini-Series (2019)
    Webrip Hunsub verystream.com
    Feliratos, angol-amerikai dráma minisorozat,

    [​IMG]

    Rendező: Johan Renck
    Forgatókönyvíró: Craig Mazin
    Zene: Hildur Guðnadóttir

    Szereplők:
    Stellan Skarsgård
    Emily Watson
    Fares Fares
    James Cosmo
    Barry Keoghan
    Jared Harris
    Sam Strike


    Chernobyl.S01E01.720p.AMZN.WEBRip.x264-GalaxyTV
    Videó információk:

    Méret: 360,62 MB
    Hossz: 1:00:08
    Típus: Matroska (AVC - Advanced Video Codec)
    Felbontás: 1280 x 720 pixel
    Bitráta:
    Képkockák száma/mp: 23.976
    Oldalarány: 16/9

    Audió információk:
    Audiósávok száma: 1
    Audiosáv #1 adatai:
    Audiósáv típusa: A_AAC/MPEG4/LC (AAC LC)
    Csatornák száma: 2
    Bitráta:
    Mintavételezési frekvencia: 48.0 KHz

    Az HBO és a Sky minisorozata az emberiség történetének legsúlyosabb, ember által előidézett katasztrófáját, illetve az orosz tudósok Európa megmentéséért folytatott drámai küzdelemét dolgozza fel. 1986. április 26-án hatalmas robbanás rázta meg a Szovjetunió tagállamában, Ukrajnában működő csernobili atomerőművet. A radioaktív felhő beterítette Kelet-és Közép Európát, Skandináviát és egyes nyugat-európai országokat. A főbb szerepeket Jared Harris, Stellan Skarsgård és Emily Watson alakítja.


    Rejtett tartalom:
    **Rejtett tartalom: A tartalom megjelenítéséhez kattints a 'Tetszik' gombra.**
     
  20. atesz5

    atesz5 Állandó Tag

    Csernobil -Chernobyl- HBO Mini-Series (2019)
    Webrip Hundub verystream.com
    Magyarul beszélő , angol-amerikai dráma minisorozat,

    [​IMG]


    Rendező: Johan Renck
    Forgatókönyvíró: Craig Mazin
    Zene: Hildur Guðnadóttir

    Szereplők:
    Stellan Skarsgård
    Emily Watson
    Fares Fares
    James Cosmo
    Barry Keoghan
    Jared Harris
    Sam Strike


    Chernobyl.S01E01.720p.AMZN.WEBRip.x264-GalaxyTV
    Videó információk:

    Méret: 360,62 MB
    Hossz: 1:00:08
    Típus: Matroska (AVC - Advanced Video Codec)
    Felbontás: 1280 x 720 pixel
    Bitráta:
    Képkockák száma/mp: 23.976
    Oldalarány: 16/9

    Audió információk:
    Audiósávok száma: 1
    Audiosáv #1 adatai:
    Audiósáv típusa: A_AAC/MPEG4/LC (AAC LC)
    Csatornák száma: 2
    Bitráta:
    Mintavételezési frekvencia: 48.0 KHz

    Az HBO és a Sky minisorozata az emberiség történetének legsúlyosabb, ember által előidézett katasztrófáját, illetve az orosz tudósok Európa megmentéséért folytatott drámai küzdelemét dolgozza fel. 1986. április 26-án hatalmas robbanás rázta meg a Szovjetunió tagállamában, Ukrajnában működő csernobili atomerőművet. A radioaktív felhő beterítette Kelet-és Közép Európát, Skandináviát és egyes nyugat-európai országokat. A főbb szerepeket Jared Harris, Stellan Skarsgård és Emily Watson alakítja.

    Rejtett tartalom:
    **Rejtett tartalom: A tartalom megjelenítéséhez kattints a 'Tetszik' gombra.**


    Feliratos
    Rejtett tartalom:
    **Rejtett tartalom: A tartalom megjelenítéséhez kattints a 'Tetszik' gombra.**
     

Megosztás