Magyar filmek III itt nincs kérés

FLAMINGO témája a 'Film, színház, tánc' fórumban , 2018 Február 3.

  1. papadi

    papadi Állandó Tag

    [​IMG] [​IMG]

    Áll a bál
    Fekete-fehér magyar film (1939)
    Főszereplők: Szeleczky Zita, Simor Erzsébet, Gobby Hilda, Ladomerszky Margit, Gyöngyössy Erzsébet, Sitkey Irén, Tapolczay Erzsébet, Hernádi Gizi, Horváth Magda, Tolnay Magda, Csortos Gyula, Pataky Jenő, Toronyi Imre, Bilicsi Tivadar, Köpeczi Boócz Lajos, Mihályffy Béla, Szakáts Zoltán, Dénes György, Földényi László, Thuri Elemér, Veszely Pál, Gonda György, Kőváry Gyula, Harasztos Gusztáv, Bihari Nándor
    Rendezte: Bánky Viktor
    Régi magyar filmek 16. és 50.

    Ajánló a borítóról:
    Erzsébet hercegnő (Szeleczky Zita) rangon aluli szerelmét Balogh Andrással a főherceg nagyapa meg akarja akadályozni. Erzsébetet Svájcba, Balogh Andrást pedig Varsóba küldi követségi titkárnak. Ám Erzsébet nem bírja ki, így elindul szerelme után Varsóba...

    Média információ:

    Video:
    Kodek: MPEG-1/2 Video (mpgv)
    Felbontás: 720x576
    Képkockasebesség: 25

    Hang:
    Kodek: A52 Audio (aka AC3) (a52)
    Csatornák: Sztereó
    Mintavételi frekvencia: 48000 Hz
    Bitsebesség: 128 kb/mp

    Formátum: iso
    Méret: 4,37 GB
    Műsoridő: 1:37:29

    (prémium)
    Rejtett tartalom:
    **Rejtett tartalom: A tartalom megjelenítéséhez kattints a 'Tetszik' gombra.**

    [​IMG]

    Formátum: dvdrip/avi
    Méret: 976 MB
    Felbontás: 720x544
    Mintavételi frekvencia: 48000 Hz
    Bitsebesség: 128 kbps
    Műsoridő: 1:36:00

    Részletes média információ:
    Show Spoiler

    I:\0000\RMF16 - ll a bl\RMF16 - Áll a bál\Áll a bál.avi
    General
    Complete name : I:\0000\RMF16 - ll a bl\RMF16 - Áll a bál\Áll a bál.avi
    Format : AVI
    Format/Info : Audio Video Interleave
    File size : 974 MiB
    Duration : 1 h 36 min
    Overall bit rate : 1 419 kb/s
    Video #0
    ID : 0
    Format : MPEG-4 Visual
    Format profile : Advanced [email protected]
    Format settings, BVOP : 1
    Format settings, QPel : No
    Format settings, GMC : No warppoints
    Format settings, Matrix : Custom
    Codec ID : XVID
    Codec ID/Hint : XviD
    Duration : 1 h 36 min
    Bit rate : 1 273 kb/s
    Width : 720 pixels
    Height : 544 pixels
    Display aspect ratio : 4:3
    Frame rate : 25.000 FPS
    Color space : YUV
    Chroma subsampling : 4:2:0
    Bit depth : 8 bits
    Scan type : Progressive
    Compression mode : Lossy
    Bits/(Pixel*Frame) : 0.130
    Stream size : 874 MiB (90%)
    Writing library : XviD 1.2.1 (UTC 2008-12-04)
    Audio #1
    ID : 1
    Format : MPEG Audio
    Format version : Version 1
    Format profile : Layer 3
    Mode : Joint stereo
    Mode extension : MS Stereo
    Codec ID : 55
    Codec ID/Hint : MP3
    Duration : 1 h 36 min
    Bit rate mode : Constant
    Bit rate : 128 kb/s
    Channel(s) : 2 channels
    Sampling rate : 48.0 kHz
    Compression mode : Lossy
    Stream size : 87.9 MiB (9%)
    Alignment : Aligned on interleaves
    Interleave, duration : 24 ms (0.60 video frame)
    Writing library : LAME3.98r
    Encoding settings : -m j -V 4 -q 2 -lowpass 17 -b 128

    Rejtett tartalom:
    **Rejtett tartalom: A tartalom megjelenítéséhez kattints a 'Tetszik' gombra.**
    vagy free
    Rejtett tartalom:
    **Rejtett tartalom: A tartalom megjelenítéséhez kattints a 'Tetszik' gombra.**
     
  2. papadi

    papadi Állandó Tag

    [​IMG] [​IMG] [​IMG]

    Karosszék
    Fekete-fehér magyar film (1939)
    Főszereplők: Rajnay Gábor, Szeleczky Zita, Szilassy László, Latabár Kálmán, Pataky Miklós
    Rendezte: Balogh Béla, Nádasdy Kálmán
    Régi magyar filmek 17. és 50. Multimix VCD

    Orosz András építészmérnök árverésen licitál egy öreg stílbútorra, egy karosszékre. Végül 500 pengőért egy csinos nő, Klári viszi el az orra elől. Barátja és üzlettársa, Anday Péter építőmester segítségével András hajszát indít a szék, azaz a hölgy után. Föl is lelik a kivénhedt alkalmatosságot az asszony férjénél, Bihari ügyvédnél, aki örömmel sózza rá a drága holmit Oroszra, de a nő nem enged, még házassága fölbomlását is vállalja, csak hogy az övé maradjon a szék. Visszaköltözik apjához, a nyugállományú ezredeshez. Itt aztán Orosz András nemcsak lakás-átalakítást végez, hanem be is épül a családba.

    Média információ:

    Video:
    Kodek: MPEG-1/2 Video (mpgv)
    Felbontás: 720x576
    Képkockasebesség: 25

    Hang:
    Kodek: A52 Audio (aka AC3) (a52)
    Csatornák: Sztereó
    Mintavételi frekvencia: 48000 Hz
    Bitsebesség: 128 kb/mp

    Formátum: iso
    Méret: 4,37 GB
    Műsoridő: 1:29:26

    (prémium)
    Rejtett tartalom:
    **Rejtett tartalom: A tartalom megjelenítéséhez kattints a 'Tetszik' gombra.**
    [​IMG]

    Formátum: dvdrip/avi
    Méret: 795 MB
    Felbontás: 720x544
    Mintavételi frekvencia: 48000 Hz
    Bitsebesség: 128 kbps
    Műsoridő: 1:29:26

    Részletes média információ:
    Show Spoiler

    I:\0000\RMF17 - Karosszk\RMF17 - Karosszék\Karosszék.avi
    General
    Complete name : I:\0000\RMF17 - Karosszk\RMF17 - Karosszék\Karosszék.avi
    Format : AVI
    Format/Info : Audio Video Interleave
    File size : 793 MiB
    Duration : 1 h 19 min
    Overall bit rate : 1 397 kb/s
    Writing application : VirtualDubMod 1.5.4.1 (build 2178/release)
    Writing library : VirtualDubMod build 2178/release
    Video #0
    ID : 0
    Format : MPEG-4 Visual
    Format profile : Advanced [email protected]
    Format settings, BVOP : 1
    Format settings, QPel : No
    Format settings, GMC : No warppoints
    Format settings, Matrix : Custom
    Codec ID : XVID
    Codec ID/Hint : XviD
    Duration : 1 h 19 min
    Bit rate : 1 261 kb/s
    Width : 720 pixels
    Height : 544 pixels
    Display aspect ratio : 4:3
    Frame rate : 25.000 FPS
    Color space : YUV
    Chroma subsampling : 4:2:0
    Bit depth : 8 bits
    Scan type : Progressive
    Compression mode : Lossy
    Bits/(Pixel*Frame) : 0.129
    Stream size : 717 MiB (90%)
    Writing library : XviD 1.2.1 (UTC 2008-12-04)
    Audio #1
    ID : 1
    Format : MPEG Audio
    Format version : Version 1
    Format profile : Layer 3
    Mode : Joint stereo
    Mode extension : MS Stereo
    Codec ID : 55
    Codec ID/Hint : MP3
    Duration : 1 h 19 min
    Bit rate mode : Constant
    Bit rate : 128 kb/s
    Channel(s) : 2 channels
    Sampling rate : 48.0 kHz
    Compression mode : Lossy
    Stream size : 72.7 MiB (9%)
    Alignment : Aligned on interleaves
    Interleave, duration : 80 ms (2.00 video frames)
    Interleave, preload duration : 504 ms
    Writing library : LAME3.98r
    Encoding settings : -m j -V 4 -q 2 -lowpass 17 -b 128


    Rejtett tartalom:
    **Rejtett tartalom: A tartalom megjelenítéséhez kattints a 'Tetszik' gombra.**
    vagy free
    Rejtett tartalom:
    **Rejtett tartalom: A tartalom megjelenítéséhez kattints a 'Tetszik' gombra.**
     
    drain, Popovics Péter Pál és nandus kedveli ezt.
  3. papadi

    papadi Állandó Tag

    [​IMG] [​IMG]

    Rózsafabot
    Fekete-fehér magyar film (1940)
    Főszereplők: Szeleczky Zita, Zímár József, Rózsahegyi Kálmán, Berky Lili, Gózon Gyula, Dajbukát Ilona, Juhász József, Simon Marcs, Mihályfi Béla, Cserba Erzsi, Pethes Ferenc
    Rendezte: Balogh Béla
    Régi magyar filmek 36. és 50.

    Ajánló a borítóról:
    Sipos Katalinba a szép vak lányba ketten is szerelmesek. Egyikük Viktor, ártatlanul ült börtönben, és nehezen illeszkedik be a szabad életbe. Szabadulása után ismerkedik meg Katalinnal vidéki rokonainál. A másik, a dologtalan, anyján élősködő Józsi a falu rossza. Józsi kirabolja Berek fűszerest, és persze Viktort vádolják meg. Katalin rózsafabotja segítségével leleplezi az igazi bűnöst. Katalint megoperálják, visszanyeri látását, és boldogan öleli magához Viktort.

    Média információ:

    Video:
    Kodek: MPEG-1/2 Video (mpgv)
    Felbontás: 720x576
    Képkockasebesség: 25

    Hang:
    Kodek: A52 Audio (aka AC3) (a52)
    Csatornák: Sztereó
    Mintavételi frekvencia: 48000 Hz
    Bitsebesség: 192 kb/mp

    Formátum: iso
    Méret: 3,77 GB
    Műsoridő: 1:13:07

    (prémium)
    Rejtett tartalom:
    **Rejtett tartalom: A tartalom megjelenítéséhez kattints a 'Tetszik' gombra.**
    [​IMG]

    Formátum: dvdrip/avi
    Méret: 731 MB
    Felbontás: 720x544
    Mintavételi frekvencia: 48000 Hz
    Bitsebesség: 128 kbps
    Műsoridő: 1:13:07

    Részletes média információ:
    Show Spoiler

    I:\0000\RMF36 - Rzsafabot\RMF36 - Rózsafabot\Rózsafabot.avi
    General
    Complete name : I:\0000\RMF36 - Rzsafabot\RMF36 - Rózsafabot\Rózsafabot.avi
    Format : AVI
    Format/Info : Audio Video Interleave
    File size : 729 MiB
    Duration : 1 h 13 min
    Overall bit rate : 1 394 kb/s
    Writing application : VirtualDubMod 1.5.4.1 (build 2178/release)
    Writing library : VirtualDubMod build 2178/release
    Video #0
    ID : 0
    Format : MPEG-4 Visual
    Format profile : Advanced [email protected]
    Format settings, BVOP : 1
    Format settings, QPel : No
    Format settings, GMC : No warppoints
    Format settings, Matrix : Custom
    Codec ID : XVID
    Codec ID/Hint : XviD
    Duration : 1 h 13 min
    Bit rate : 1 259 kb/s
    Width : 720 pixels
    Height : 544 pixels
    Display aspect ratio : 4:3
    Frame rate : 25.000 FPS
    Color space : YUV
    Chroma subsampling : 4:2:0
    Bit depth : 8 bits
    Scan type : Progressive
    Compression mode : Lossy
    Bits/(Pixel*Frame) : 0.129
    Stream size : 659 MiB (90%)
    Writing library : XviD 1.2.1 (UTC 2008-12-04)
    Audio #1
    ID : 1
    Format : MPEG Audio
    Format version : Version 1
    Format profile : Layer 3
    Mode : Joint stereo
    Mode extension : MS Stereo
    Codec ID : 55
    Codec ID/Hint : MP3
    Duration : 1 h 13 min
    Bit rate mode : Constant
    Bit rate : 128 kb/s
    Channel(s) : 2 channels
    Sampling rate : 48.0 kHz
    Compression mode : Lossy
    Stream size : 66.9 MiB (9%)
    Alignment : Aligned on interleaves
    Interleave, duration : 80 ms (2.00 video frames)
    Interleave, preload duration : 504 ms
    Writing library : LAME3.98r
    Encoding settings : -m j -V 4 -q 2 -lowpass 17 -b 128

    Rejtett tartalom:
    **Rejtett tartalom: A tartalom megjelenítéséhez kattints a 'Tetszik' gombra.**
    vagy free
    Rejtett tartalom:
    **Rejtett tartalom: A tartalom megjelenítéséhez kattints a 'Tetszik' gombra.**
     
  4. papadi

    papadi Állandó Tag

    [​IMG]

    Egy csók és más semmi
    Fekete-fehér magyar film (1940)
    Főszereplők: Jávor Pál, Tolnay Klári, Rajnay Gábor, Peéry Piri, Pataky Jenő, Ölvedy Zsóka, Sárossy Andor
    Rendezte: Ráthonyi Ákos
    Régi magyar filmek 21., Multimix

    Ajánló a borítóról:
    Albert Sándor ügyvédnek (Jávor Pál) megtetszik Annie (Tolnay Klári), aki éppen válófélben van. Az asszony a válás miatt úgy érzi, hogy nem kellene új kapcsolatba kezdenie, pláne, hogy a férjének Sándor az ügyvédje.

    Média információ:

    Video:
    Kodek: MPEG-1/2 Video (mpgv)
    Felbontás: 720x576
    Képkockasebesség: 25

    Hang:
    Kodek: A52 Audio (aka AC3) (a52)
    Csatornák: Sztereó
    Mintavételi frekvencia: 48000 Hz

    Bitsebesség: 192 kb/mp
    Formátum: iso
    Méret: 2,31 GB
    Műsoridő: 1:08:16
    (prémium)
    Rejtett tartalom:
    **Rejtett tartalom: A tartalom megjelenítéséhez kattints a 'Tetszik' gombra.**
    [​IMG]

    Formátum: dvdrip/avi
    Méret: 683 MB
    Felbontás: 720x544
    Mintavételi frekvencia: 48000 Hz
    Bitsebesség: 128 kbps
    Műsoridő: 1:08:16

    Részletes média információ:
    Show Spoiler

    I:\0000\Egy csk s ms semmi\Egy csók és más semmi\Egy csók és más semmi.avi
    General
    Complete name : I:\0000\Egy csk s ms semmi\Egy csók és más semmi\Egy csók és más semmi.avi
    Format : AVI
    Format/Info : Audio Video Interleave
    File size : 683 MiB
    Duration : 1 h 8 min
    Overall bit rate : 1 398 kb/s
    Writing application : VirtualDubMod 1.5.4.1 (build 2178/release)
    Writing library : VirtualDubMod build 2178/release
    Video #0
    ID : 0
    Format : MPEG-4 Visual
    Format profile : Advanced [email protected]
    Format settings, BVOP : 1
    Format settings, QPel : No
    Format settings, GMC : No warppoints
    Format settings, Matrix : Custom
    Codec ID : XVID
    Codec ID/Hint : XviD
    Duration : 1 h 8 min
    Bit rate : 1 263 kb/s
    Width : 720 pixels
    Height : 544 pixels
    Display aspect ratio : 4:3
    Frame rate : 25.000 FPS
    Color space : YUV
    Chroma subsampling : 4:2:0
    Bit depth : 8 bits
    Scan type : Progressive
    Compression mode : Lossy
    Bits/(Pixel*Frame) : 0.129
    Stream size : 617 MiB (90%)
    Writing library : XviD 1.2.1 (UTC 2008-12-04)
    Audio #1
    ID : 1
    Format : MPEG Audio
    Format version : Version 1
    Format profile : Layer 3
    Mode : Joint stereo
    Mode extension : MS Stereo
    Codec ID : 55
    Codec ID/Hint : MP3
    Duration : 1 h 8 min
    Bit rate mode : Constant
    Bit rate : 128 kb/s
    Channel(s) : 2 channels
    Sampling rate : 48.0 kHz
    Compression mode : Lossy
    Stream size : 62.5 MiB (9%)
    Alignment : Aligned on interleaves
    Interleave, duration : 80 ms (2.00 video frames)
    Interleave, preload duration : 504 ms
    Writing library : LAME3.98r
    Encoding settings : -m j -V 4 -q 2 -lowpass 17 -b 128

    Rejtett tartalom:
    **Rejtett tartalom: A tartalom megjelenítéséhez kattints a 'Tetszik' gombra.**
    vagy free
    Rejtett tartalom:
    **Rejtett tartalom: A tartalom megjelenítéséhez kattints a 'Tetszik' gombra.**
     
    lerzsi61, Fuliland71 és nandus kedveli ezt.
  5. papadi

    papadi Állandó Tag

    [​IMG]

    A férfi mind őrült
    Fekete-fehér magyar film (1937)
    Főszereplők: Lázár Mária, Jávor Pál, Vaszary Piri, Pethes Sándor, Páger Antal, Dénes György, Mály Gerő, Dajbukát Ilona, Justh Gyula, Peti Sándor, Köpeczi-Boócz Lajos
    Rendezte: Gertler Viktor
    Régi magyar filmek 40., Multimix

    Ajánló a boritóról:
    Sóváry tehetséges festőművész, de még a szállodai szobáját sem tudja kifizetni. Különböző ravaszkodásokkal próbálja hitelképességének látszatát fenntartani és ebben barátai segítik. Megérkezik a szállodába Elena, a gazdag, magyar származású művésznő a komornájával. A véletlen folytán szobaszomszédok lesznek Sóváryval, amiből veszekedések támadnak. A festő és a művésznő végül összemelegednek, de a férfi titkolja szegénységét.

    Média információ:

    Video:
    Kodek: MPEG-1/2 Video (mpgv)
    Felbontás: 720x576
    Képkockasebesség: 25

    Hang:
    Kodek: A52 Audio (aka AC3) (a52)
    Csatornák: Sztereó
    Mintavételi frekvencia: 48000 Hz
    Bitsebesség: 192 kb/mp

    Formátum: iso
    Méret: 3,96 GB
    Műsoridő: 1:22:52
    (prémium)
    Rejtett tartalom:
    **Rejtett tartalom: A tartalom megjelenítéséhez kattints a 'Tetszik' gombra.**
    [​IMG]

    Formátum: dvdrip/avi
    Méret: 828 MB
    Felbontás: 720x512
    Mintavételi frekvencia: 48000 Hz
    Bitsebesség: 128 kbps
    Műsoridő: 1:22:52

    Részletes média információ:
    Show Spoiler

    I:\0000\A frfi mind rlt\A férfi mind örült\A férfi mind örült.avi
    General
    Complete name : I:\0000\A frfi mind rlt\A férfi mind örült\A férfi mind örült.avi
    Format : AVI
    Format/Info : Audio Video Interleave
    File size : 826 MiB
    Duration : 1 h 22 min
    Overall bit rate : 1 394 kb/s
    Writing application : VirtualDubMod 1.5.4.1 (build 2178/release)
    Writing library : VirtualDubMod build 2178/release
    Video #0
    ID : 0
    Format : MPEG-4 Visual
    Format profile : Advanced [email protected]
    Format settings, BVOP : 1
    Format settings, QPel : No
    Format settings, GMC : No warppoints
    Format settings, Matrix : Custom
    Codec ID : XVID
    Codec ID/Hint : XviD
    Duration : 1 h 22 min
    Bit rate : 1 259 kb/s
    Width : 720 pixels
    Height : 512 pixels
    Display aspect ratio : 1.406
    Frame rate : 25.000 FPS
    Color space : YUV
    Chroma subsampling : 4:2:0
    Bit depth : 8 bits
    Scan type : Progressive
    Compression mode : Lossy
    Bits/(Pixel*Frame) : 0.137
    Stream size : 746 MiB (90%)
    Writing library : XviD 1.2.1 (UTC 2008-12-04)
    Audio #1
    ID : 1
    Format : MPEG Audio
    Format version : Version 1
    Format profile : Layer 3
    Mode : Joint stereo
    Mode extension : MS Stereo
    Codec ID : 55
    Codec ID/Hint : MP3
    Duration : 1 h 22 min
    Bit rate mode : Constant
    Bit rate : 128 kb/s
    Channel(s) : 2 channels
    Sampling rate : 48.0 kHz
    Compression mode : Lossy
    Stream size : 75.9 MiB (9%)
    Alignment : Aligned on interleaves
    Interleave, duration : 80 ms (2.00 video frames)
    Interleave, preload duration : 504 ms
    Writing library : LAME3.98r
    Encoding settings : -m j -V 4 -q 2 -lowpass 17 -b 128

    Rejtett tartalom:
    **Rejtett tartalom: A tartalom megjelenítéséhez kattints a 'Tetszik' gombra.**
    vagy free
    Rejtett tartalom:
    **Rejtett tartalom: A tartalom megjelenítéséhez kattints a 'Tetszik' gombra.**
     
    coccolinobianco és nandus kedveli ezt.
  6. papadi

    papadi Állandó Tag

    [​IMG]

    Ópiumkeringő
    Fekete-fehér magyar film (1942)
    Főszereplők: Karády Katalin, Jávor Pál, Petrovics Iván, Greguss Zoltán, Pálóczy László, Baksa Soós László
    Rendezte: Balogh Béla
    Régi magyar filmek 6.

    Ajánló a borítóról:
    Öt férfi, öt gyerekkori jó barát gyűlik össze egy vidéki kastélyba, hogy megemlékezzenek fiatalságukról és szembenézzenek életükkel. A nagy fogadkozásokat és jókedélyű baráti társaságot az egyik éjjel azonban megzavarja valaki. Ollai Éva (Karády Katalin) énekesnő, a külföldön is ünnepelt díva a fenyegető árvíz elől menekül a kastélyba sofőrjével együtt. Rövid időn belül az érzéki nő mind az öt jó barát érdeklődését felkelti, és bár későn veszik észre, egymás vetélytársaivá válnak. A sokak által bírált híres kritikus, Borovszky Iván (Jávor Pál) közeledik legfurcsábban a művésznőhöz. Vajon melyik férfi nyeri el Éva szerelmét és fény derül-e a nő valódi szándékaira? És ami a legfontosabb: a kibontakozó szerelem miatt a férfiak barátsága örökre megszakad?

    Média információ:

    Video:
    Kodek: MPEG-1/2 Video (mpgv)
    Felbontás: 720x576
    Képkockasebesség: 25

    Hang:
    Kodek: A52 Audio (aka AC3) (a52)
    Csatornák: Sztereó
    Mintavételi frekvencia: 48000 Hz

    Bitsebesség: 192 kb/mp
    Formátum: iso
    Méret: 4,04 GB
    Műsoridő: 1:18:39
    (prémium)
    Rejtett tartalom:
    **Rejtett tartalom: A tartalom megjelenítéséhez kattints a 'Tetszik' gombra.**
    [​IMG]

    Formátum: dvdrip/avi
    Méret: 787 MB
    Felbontás: 720x544
    Mintavételi frekvencia: 48000 Hz
    Bitsebesség: 128 kbps
    Műsoridő: 1:18:39
    Részletes média információ:
    Show Spoiler

    I:\0000\RMF06 - Ópiumkeringö\Ópiumkeringö.avi
    General
    Complete name : I:\0000\RMF06 - Ópiumkeringö\Ópiumkeringö.avi
    Format : AVI
    Format/Info : Audio Video Interleave
    File size : 786 MiB
    Duration : 1 h 18 min
    Overall bit rate : 1 397 kb/s
    Writing application : VirtualDubMod 1.5.4.1 (build 2178/release)
    Writing library : VirtualDubMod build 2178/release
    Video #0
    ID : 0
    Format : MPEG-4 Visual
    Format profile : Advanced [email protected]
    Format settings, BVOP : 1
    Format settings, QPel : No
    Format settings, GMC : No warppoints
    Format settings, Matrix : Custom
    Codec ID : XVID
    Codec ID/Hint : XviD
    Duration : 1 h 18 min
    Bit rate : 1 261 kb/s
    Width : 720 pixels
    Height : 544 pixels
    Display aspect ratio : 4:3
    Frame rate : 25.000 FPS
    Color space : YUV
    Chroma subsampling : 4:2:0
    Bit depth : 8 bits
    Scan type : Progressive
    Compression mode : Lossy
    Bits/(Pixel*Frame) : 0.129
    Stream size : 710 MiB (90%)
    Writing library : XviD 1.2.1 (UTC 2008-12-04)
    Audio #1
    ID : 1
    Format : MPEG Audio
    Format version : Version 1
    Format profile : Layer 3
    Mode : Joint stereo
    Mode extension : MS Stereo
    Codec ID : 55
    Codec ID/Hint : MP3
    Duration : 1 h 18 min
    Bit rate mode : Constant
    Bit rate : 128 kb/s
    Channel(s) : 2 channels
    Sampling rate : 48.0 kHz
    Compression mode : Lossy
    Stream size : 72.0 MiB (9%)
    Alignment : Aligned on interleaves
    Interleave, duration : 80 ms (2.00 video frames)
    Interleave, preload duration : 504 ms
    Writing library : LAME3.98r
    Encoding settings : -m j -V 4 -q 2 -lowpass 17 -b 128

    Rejtett tartalom:
    **Rejtett tartalom: A tartalom megjelenítéséhez kattints a 'Tetszik' gombra.**
    vagy free
    Rejtett tartalom:
    **Rejtett tartalom: A tartalom megjelenítéséhez kattints a 'Tetszik' gombra.**
     
    ferenc55 és nandus kedveli ezt.
  7. papadi

    papadi Állandó Tag

    [​IMG]

    Behajtani tilos!
    Fekete-fehér magyar film (1941)
    Főszereplők: Bilicsi Tivadar, Latabár Kálmán, Simor Erzsi, Vágóné Margit, Rajnay Gábor, Vaszary Piri, Mihályfi Béla, Makláry Zoltán, Kiss Manyi, Solthy György, Juhász József
    Rendezte: Martonffy Emil
    Régi magyar filmek 9.

    Ajánló a borítóról:
    Tóni (Bilicsi Tivadar) árukihordóként dolgozik egy bútorüzletben. Szállása nem lévén, éjszakánként egy, a kirakatban lévő ágyban alszik. Főnöke észreveszi, ezért egy albérleti szobát vesz ki, ahol megismerkedik Juliskával (Simor Erzsi), akinek udvarolni kezd, Tóni, hogy fizetni tudja albérletét, esténként kocsimosást vállal egy garázsban. Juliska félreérti a kimaradozásokat és kapcsolatuk kezd megromlani. Tónit szerencsenapján - hetedikén - kidobják a munkahelyéről és az albérletéből és a tetejében még Juliska is összeveszik vele...

    Média információ:

    Video:
    Kodek: MPEG-1/2 Video (mpgv)
    Felbontás: 720x576
    Képkockasebesség: 25

    Hang:
    Kodek: DVD LPCM Audio (lpcm)
    Csatornák: Sztereó
    Mintavételi frekvencia: 48000 Hz
    Bitsebesség: 128 kb/mp

    Formátum: iso
    Méret: 3,73 GB
    Műsoridő: 1:21:06
    (prémium)
    Rejtett tartalom:
    **Rejtett tartalom: A tartalom megjelenítéséhez kattints a 'Tetszik' gombra.**
    [​IMG]

    Formátum: dvdrip/avi
    Méret: 810 MB
    Felbontás: 720x544
    Mintavételi frekvencia: 48000 Hz
    Bitsebesség: 128 kbps
    Műsoridő: 1:21:06
    Részletes média információ:
    Show Spoiler

    I:\0000\RMF09 - Behajtani tilos!\Behajtani tilos!.avi
    General
    Complete name : I:\0000\RMF09 - Behajtani tilos!\Behajtani tilos!.avi
    Format : AVI
    Format/Info : Audio Video Interleave
    File size : 809 MiB
    Duration : 1 h 21 min
    Overall bit rate : 1 395 kb/s
    Writing application : VirtualDubMod 1.5.4.1 (build 2178/release)
    Writing library : VirtualDubMod build 2178/release
    Video #0
    ID : 0
    Format : MPEG-4 Visual
    Format profile : Advanced [email protected]
    Format settings, BVOP : 1
    Format settings, QPel : No
    Format settings, GMC : No warppoints
    Format settings, Matrix : Custom
    Codec ID : XVID
    Codec ID/Hint : XviD
    Duration : 1 h 21 min
    Bit rate : 1 260 kb/s
    Width : 720 pixels
    Height : 544 pixels
    Display aspect ratio : 4:3
    Frame rate : 25.000 FPS
    Color space : YUV
    Chroma subsampling : 4:2:0
    Bit depth : 8 bits
    Scan type : Progressive
    Compression mode : Lossy
    Bits/(Pixel*Frame) : 0.129
    Stream size : 731 MiB (90%)
    Writing library : XviD 1.2.1 (UTC 2008-12-04)
    Audio #1
    ID : 1
    Format : MPEG Audio
    Format version : Version 1
    Format profile : Layer 3
    Mode : Joint stereo
    Mode extension : MS Stereo
    Codec ID : 55
    Codec ID/Hint : MP3
    Duration : 1 h 21 min
    Bit rate mode : Constant
    Bit rate : 128 kb/s
    Channel(s) : 2 channels
    Sampling rate : 48.0 kHz
    Compression mode : Lossy
    Stream size : 74.2 MiB (9%)
    Alignment : Aligned on interleaves
    Interleave, duration : 80 ms (2.00 video frames)
    Interleave, preload duration : 504 ms
    Writing library : LAME3.98r
    Encoding settings : -m j -V 4 -q 2 -lowpass 17 -b 128

    Rejtett tartalom:
    **Rejtett tartalom: A tartalom megjelenítéséhez kattints a 'Tetszik' gombra.**
    vagy free
    Rejtett tartalom:
    **Rejtett tartalom: A tartalom megjelenítéséhez kattints a 'Tetszik' gombra.**
     
    kede2, Fuliland71, ferenc55 és 1 másik tag kedveli ezt.
  8. papadi

    papadi Állandó Tag

    [​IMG] [​IMG]

    A döntő pillanat
    Fekete-fehér magyar film (1938)
    Főszereplők: Tolnay Klári, Páger Antal, Ajtay Andor
    Rendezte: Vajda László
    Régi magyar filmek 11. és 48.

    Ajánló a borítóról:
    A budapesti színházi titkárt, Kulinyit (Kabos Gyula) egy vidéki színház igazgatójává nevezik ki. Új pozíciójához magával viszi a fiatal és tehetséges színészházaspárt, Pap Évát (Tolnay Klári) és Bálint Gábort (Páger Antal). Reménytelen küzdelmet folytat a színészekkel, a közönséggel, és a hitelezőkkel is. A kudarcba belefáradva mindhárman visszamennek Pestre. Kulinyi ismét színházi titkár lesz. Bálint megkéri a híres színészt, Tőrős Ferencet (Ajtay Andor), hogy egyetlen estére adja át neki szerepét, azt remélve, hogy majd bizonyíthat.

    Média információ:

    Video:
    Kodek: MPEG-1/2 Video (mpgv)
    Felbontás: 720x576
    Képkockasebesség: 25

    Hang:
    Kodek: A52 Audio (aka AC3) (a52)
    Csatornák: Sztereó
    Mintavételi frekvencia: 48000 Hz
    Bitsebesség: 192 kb/mp

    Formátum: iso
    Méret: 3,97 GB
    Műsoridő: 1:07:53
    (prémium)
    Rejtett tartalom:
    **Rejtett tartalom: A tartalom megjelenítéséhez kattints a 'Tetszik' gombra.**
    [​IMG]

    Formátum: dvdrip/avi
    Méret: 681 MB
    Felbontás: 720x544
    Mintavételi frekvencia: 48000 Hz
    Bitsebesség: 128 kbps
    Műsoridő: 1:07:53
    Részletes média információ:
    Show Spoiler

    I:\0000\RMF11 - A dnt pillanat\RMF11 - A döntö pillanat\A döntö pillanat.avi
    General
    Complete name : I:\0000\RMF11 - A dnt pillanat\RMF11 - A döntö pillanat\A döntö pillanat.avi
    Format : AVI
    Format/Info : Audio Video Interleave
    File size : 679 MiB
    Duration : 1 h 7 min
    Overall bit rate : 1 398 kb/s
    Writing application : VirtualDubMod 1.5.4.1 (build 2178/release)
    Writing library : VirtualDubMod build 2178/release
    Video #0
    ID : 0
    Format : MPEG-4 Visual
    Format profile : Advanced [email protected]
    Format settings, BVOP : 1
    Format settings, QPel : No
    Format settings, GMC : No warppoints
    Format settings, Matrix : Custom
    Codec ID : XVID
    Codec ID/Hint : XviD
    Duration : 1 h 7 min
    Bit rate : 1 263 kb/s
    Width : 720 pixels
    Height : 544 pixels
    Display aspect ratio : 4:3
    Frame rate : 25.000 FPS
    Color space : YUV
    Chroma subsampling : 4:2:0
    Bit depth : 8 bits
    Scan type : Progressive
    Compression mode : Lossy
    Bits/(Pixel*Frame) : 0.129
    Stream size : 613 MiB (90%)
    Writing library : XviD 1.2.1 (UTC 2008-12-04)
    Audio #1
    ID : 1
    Format : MPEG Audio
    Format version : Version 1
    Format profile : Layer 3
    Mode : Joint stereo
    Mode extension : MS Stereo
    Codec ID : 55
    Codec ID/Hint : MP3
    Duration : 1 h 7 min
    Bit rate mode : Constant
    Bit rate : 128 kb/s
    Channel(s) : 2 channels
    Sampling rate : 48.0 kHz
    Compression mode : Lossy
    Stream size : 62.1 MiB (9%)
    Alignment : Aligned on interleaves
    Interleave, duration : 80 ms (2.00 video frames)
    Interleave, preload duration : 504 ms
    Writing library : LAME3.98r
    Encoding settings : -m j -V 4 -q 2 -lowpass 17 -b 128

    Rejtett tartalom:
    **Rejtett tartalom: A tartalom megjelenítéséhez kattints a 'Tetszik' gombra.**
    vagy free
    Rejtett tartalom:
    **Rejtett tartalom: A tartalom megjelenítéséhez kattints a 'Tetszik' gombra.**
     
    kede2 és nandus kedveli ezt.
  9. papadi

    papadi Állandó Tag

    [​IMG] [​IMG]

    Végre…
    Fekete-fehér magyar film (1941)
    Főszereplők: Muráti Lili, Turay Ida, Páger Antal, Bilicsi TivadarMály Gerő, Mihályfy Béla, Pethes Sándor, Somlay Artur és Makkay Lacika
    Rendezte: Farkas Zoltán
    Régi magyar filmek 20. és 48.

    Ajánló a borítóról:
    Júlia (Muráti Lili) saját eljegyzése elől elszökve, egy céltalan autózgatás után kénytelen egy éjszakára két mérnök egyszerű erdei szállásán aludni. A két férfi másképp ítéli meg a lányt. Péter (Páger Antal) felelőtlennek tartja és nem akar segíteni rajta, míg Tibor (Bilicsi Tivadar) beleszeret. Júlia nem tudja, hogyan kezelje a két férfit. Reggelre virradóra már tudja melyiküket kellene választania...

    Média információ:

    Video:
    Kodek: MPEG-1/2 Video (mpgv)
    Felbontás: 720x576
    Képkockasebesség: 25

    Hang:
    Kodek: DVD LPCM Audio (lpcm)
    Csatornák: Sztereó
    Mintavételi frekvencia: 48000 Hz
    Bitsebesség: 192 kb/mp

    Formátum: iso
    Méret: 4,37 GB
    Műsoridő: 1:17:48 (1:20:00)
    (prémium)
    Rejtett tartalom:
    **Rejtett tartalom: A tartalom megjelenítéséhez kattints a 'Tetszik' gombra.**
    [​IMG]

    Formátum: dvdrip/avi
    Méret: 796 MB
    Felbontás: 720x544
    Mintavételi frekvencia: 48000 Hz
    Bitsebesség: 128 kbps
    Műsoridő: 1:17:48

    Részletes média információ:
    Show Spoiler

    I:\0000\RMF20 - Vgre\RMF20 - Végre\Végre.avi
    General
    Complete name : I:\0000\RMF20 - Vgre\RMF20 - Végre\Végre.avi
    Format : AVI
    Format/Info : Audio Video Interleave
    File size : 794 MiB
    Duration : 1 h 17 min
    Overall bit rate : 1 428 kb/s
    Video #0
    ID : 0
    Format : MPEG-4 Visual
    Format profile : Advanced [email protected]
    Format settings, BVOP : 1
    Format settings, QPel : No
    Format settings, GMC : No warppoints
    Format settings, Matrix : Default (H.263)
    Codec ID : XVID
    Codec ID/Hint : XviD
    Duration : 1 h 17 min
    Bit rate : 1 282 kb/s
    Width : 720 pixels
    Height : 544 pixels
    Display aspect ratio : 4:3
    Frame rate : 25.000 FPS
    Color space : YUV
    Chroma subsampling : 4:2:0
    Bit depth : 4 bits
    Scan type : Progressive
    Compression mode : Lossy
    Bits/(Pixel*Frame) : 0.131
    Stream size : 714 MiB (90%)
    Writing library : XviD 1.2.1 (UTC 2008-12-04)
    Audio #1
    ID : 1
    Format : MPEG Audio
    Format version : Version 1
    Format profile : Layer 3
    Mode : Joint stereo
    Mode extension : MS Stereo
    Codec ID : 55
    Codec ID/Hint : MP3
    Duration : 1 h 17 min
    Bit rate mode : Constant
    Bit rate : 128 kb/s
    Channel(s) : 2 channels
    Sampling rate : 48.0 kHz
    Compression mode : Lossy
    Delay relative to video : 8 ms
    Stream size : 71.2 MiB (9%)
    Alignment : Split accross interleaves
    Interleave, duration : 24 ms (0.60 video frame)
    Interleave, preload duration : 8 ms

    Rejtett tartalom:
    **Rejtett tartalom: A tartalom megjelenítéséhez kattints a 'Tetszik' gombra.**
    vagy free
    Rejtett tartalom:
    **Rejtett tartalom: A tartalom megjelenítéséhez kattints a 'Tetszik' gombra.**
     
    v.grabovszy és nandus kedveli ezt.
  10. papadi

    papadi Állandó Tag

    [​IMG] [​IMG]

    Régi keringő
    Fekete-fehér magyar film (1941)
    Főszereplők: Szörényi Éva, Páger Antal
    Rendezte: Bánky Viktor
    Magyar klasszikusok 39., Régi magyar filmek 30. és 48.

    Ajánló a borítóról:
    Gál Fülöp, az amerikai milliomos és lánya, Dorothy hazatérőben Magyarországra a vonatablakból meglátnak egy kastélyt. Dorothy azt követeli apjától, hogy vegye meg neki. A kastély ugyan nem eladó, de a házigazda, gróf Bakonyi Péter vendégül látja Gálékat.
    Bakonyinénak megtetszik Dorothy, ezért táviratban hazarendeli Pesten tanuló fiát, hogy összehozza a fiatalokat.
    Az ifjú grófnak azonban esze ágában sincs hazajönni, mert egy pesti primadonnába, Tavasz Erzsibe (Szörényi Éva) szerelmes. Ezért segítőjét, Dudva Mihály (Páger Antal) taxisofőrt küldi el maga helyett Gálékhoz...


    Média információ:

    Video:
    Kodek: MPEG-1/2 Video (mpgv)
    Felbontás: 720x576
    Képkockasebesség: 25

    Hang:
    Kodek: DVD LPCM Audio (lpcm)
    Csatornák: Sztereó
    Mintavételi frekvencia: 48000 Hz
    Bitsebesség: 192 kb/mp

    Formátum: iso
    Méret: 4,05 GB
    Műsoridő: 1:28:02
    (prémium)
    Rejtett tartalom:
    **Rejtett tartalom: A tartalom megjelenítéséhez kattints a 'Tetszik' gombra.**
    [​IMG]

    Formátum: dvdrip/avi
    Méret: 880 MB
    Felbontás: 720x544
    Mintavételi frekvencia: 48000 Hz
    Bitsebesség: 128 kbps
    Műsoridő: 1:28:02
    Részletes média információ:
    Show Spoiler

    I:\0000\MK39 - Rgi kering\MK39 - Régi keringö\39 - Régi keringö.avi
    General
    Complete name : I:\0000\MK39 - Rgi kering\MK39 - Régi keringö\39 - Régi keringö.avi
    Format : AVI
    Format/Info : Audio Video Interleave
    File size : 879 MiB
    Duration : 1 h 28 min
    Overall bit rate : 1 396 kb/s
    Writing application : VirtualDubMod 1.5.4.1 (build 2178/release)
    Writing library : VirtualDubMod build 2178/release
    Video #0
    ID : 0
    Format : MPEG-4 Visual
    Format profile : Advanced [email protected]
    Format settings, BVOP : 1
    Format settings, QPel : No
    Format settings, GMC : No warppoints
    Format settings, Matrix : Custom
    Codec ID : XVID
    Codec ID/Hint : XviD
    Duration : 1 h 28 min
    Bit rate : 1 261 kb/s
    Width : 720 pixels
    Height : 544 pixels
    Display aspect ratio : 4:3
    Frame rate : 25.000 FPS
    Color space : YUV
    Chroma subsampling : 4:2:0
    Bit depth : 8 bits
    Scan type : Progressive
    Compression mode : Lossy
    Bits/(Pixel*Frame) : 0.129
    Stream size : 794 MiB (90%)
    Writing library : XviD 1.2.1 (UTC 2008-12-04)
    Audio #1
    ID : 1
    Format : MPEG Audio
    Format version : Version 1
    Format profile : Layer 3
    Mode : Joint stereo
    Mode extension : MS Stereo
    Codec ID : 55
    Codec ID/Hint : MP3
    Duration : 1 h 28 min
    Bit rate mode : Constant
    Bit rate : 128 kb/s
    Channel(s) : 2 channels
    Sampling rate : 48.0 kHz
    Compression mode : Lossy
    Stream size : 80.6 MiB (9%)
    Alignment : Aligned on interleaves
    Interleave, duration : 80 ms (2.00 video frames)
    Interleave, preload duration : 504 ms
    Writing library : LAME3.98r
    Encoding settings : -m j -V 4 -q 2 -lowpass 17 -b 128

    Rejtett tartalom:
    **Rejtett tartalom: A tartalom megjelenítéséhez kattints a 'Tetszik' gombra.**
    vagy free
    Rejtett tartalom:
    **Rejtett tartalom: A tartalom megjelenítéséhez kattints a 'Tetszik' gombra.**
     
    Jeni69, wape51 és nandus kedveli ezt.
  11. papadi

    papadi Állandó Tag

    [​IMG] [​IMG]

    Egy éjszaka Erdélyben
    Fekete-fehér magyar film (1941)
    Főszereplők: Szeleczky Zita, Lázár Mária, Páger Antal, Mezei Mária, Nagy István, Hajmássy Miklós
    Rendezte: Bán Frigyes
    Magyar klasszikusok 24., Régi magyar filmek 34. és 48.

    Ajánló a borítóról:
    II. József császár (Páger Antal) adjutánsa, Kléber (Nagy István) kíséretében Erdély útjait járja. Egy napon kocsijuk meghibásodik, így a császár álruhában, gyalog folytatja útját, Kléber pedig Alvinczy Krisztina (Szeleczky Zita) udvarába kéredzkedik be a kocsi javíttatása végett. A szép özvegyasszony azt hiszi, a császárral van dolga, s kölcsönösen megszeretik egymást. Krisztinát hamarosan Mária Terézia (Lázár Mária) kéreti az udvarba, aki értesült fia erdélyi kalandjáról. Meglepetést készít elő, ami azonban csalódást okoz mindenki számára.

    Média információ:

    Video:
    Kodek: MPEG-1/2 Video (mpgv)
    Felbontás: 720x576
    Képkockasebesség: 25

    Hang:
    Kodek: A52 Audio (aka AC3) (a52)
    Csatornák: Sztereó
    Mintavételi frekvencia: 48000 Hz
    Bitsebesség: 192 kb/mp

    Formátum: iso
    Méret: 4,09 GB
    Műsoridő: 1:29:31
    (prémium)
    Rejtett tartalom:
    **Rejtett tartalom: A tartalom megjelenítéséhez kattints a 'Tetszik' gombra.**
    [​IMG]

    Formátum: dvdrip/avi
    Méret: 795 MB
    Felbontás: 720x544
    Mintavételi frekvencia: 48000 Hz
    Bitsebesség: 128 kbps
    Műsoridő: 1:19:29
    Részletes média információ:
    Show Spoiler

    I:\0000\MK24 - Egy jszaka Erdlyben\MK24 - Egy éjszaka Erdélyben\Egy éjszaka Erdélyben.avi
    General
    Complete name : I:\0000\MK24 - Egy jszaka Erdlyben\MK24 - Egy éjszaka Erdélyben\Egy éjszaka Erdélyben.avi
    Format : AVI
    Format/Info : Audio Video Interleave
    File size : 794 MiB
    Duration : 1 h 19 min
    Overall bit rate : 1 396 kb/s
    Writing application : VirtualDubMod 1.5.4.1 (build 2178/release)
    Writing library : VirtualDubMod build 2178/release
    Video #0
    ID : 0
    Format : MPEG-4 Visual
    Format profile : Advanced [email protected]
    Format settings, BVOP : 1
    Format settings, QPel : No
    Format settings, GMC : No warppoints
    Format settings, Matrix : Custom
    Codec ID : XVID
    Codec ID/Hint : XviD
    Duration : 1 h 19 min
    Bit rate : 1 260 kb/s
    Width : 720 pixels
    Height : 544 pixels
    Display aspect ratio : 4:3
    Frame rate : 25.000 FPS
    Color space : YUV
    Chroma subsampling : 4:2:0
    Bit depth : 8 bits
    Scan type : Progressive
    Compression mode : Lossy
    Bits/(Pixel*Frame) : 0.129
    Stream size : 717 MiB (90%)
    Writing library : XviD 1.2.1 (UTC 2008-12-04)
    Audio #1
    ID : 1
    Format : MPEG Audio
    Format version : Version 1
    Format profile : Layer 3
    Mode : Joint stereo
    Mode extension : MS Stereo
    Codec ID : 55
    Codec ID/Hint : MP3
    Duration : 1 h 19 min
    Bit rate mode : Constant
    Bit rate : 128 kb/s
    Channel(s) : 2 channels
    Sampling rate : 48.0 kHz
    Compression mode : Lossy
    Stream size : 72.8 MiB (9%)
    Alignment : Aligned on interleaves
    Interleave, duration : 80 ms (2.00 video frames)
    Interleave, preload duration : 504 ms
    Writing library : LAME3.98r
    Encoding settings : -m j -V 4 -q 2 -lowpass 17 -b 128

    Rejtett tartalom:
    **Rejtett tartalom: A tartalom megjelenítéséhez kattints a 'Tetszik' gombra.**
    vagy free
    Rejtett tartalom:
    **Rejtett tartalom: A tartalom megjelenítéséhez kattints a 'Tetszik' gombra.**
     
    dustin11, ferenc55 és nandus kedveli ezt.
  12. papadi

    papadi Állandó Tag

    [​IMG]

    A 111-es
    Fekete-fehér magyar film (1937)
    Főszereplők: Lázár Mária, Törzs Jenő, Jávor Pál, Csortos Gyula, Gervay Marica, Rajnay Gábor,
    Rendezte: Székely István
    Régi magyar filmek 19.

    Ajánló a borítóról:
    Heltai (a borítón: Heltay) Jenő titokzatos cselekményű bűnügyi kisregénye alapján készült a film. A történet Párizsban játszódik, szereplőink artisták. Joe Selfridge (Törzs Jenő) a bűvész, reménytelenül szerelmes partnerébe. Legsikeresebb száma a "lenyakazott ember"...

    Média információ:
    Video:
    Kodek: MPEG-1/2 Video (mpgv)
    Felbontás: 720x576
    Képkockasebesség: 25
    Hang:
    Kodek: DVD LPCM Audio (lpcm)
    Csatornák: Sztereó
    Mintavételi frekvencia: 48000 Hz
    Bitsebesség: 128 kb/mp
    Formátum: iso
    Méret: 3,62 GB
    Műsoridő: 1:19:53
    (prémium)
    Rejtett tartalom:
    **Rejtett tartalom: A tartalom megjelenítéséhez kattints a 'Tetszik' gombra.**
    [​IMG]

    Formátum: dvdrip/avi
    Méret: 799 MB
    Felbontás: 720x544
    Mintavételi frekvencia: 48000 Hz
    Bitsebesség: 128 kbps
    Műsoridő: 1:19:53
    Részletes média információ:
    Show Spoiler

    I:\0000\A 111-es.avi
    General
    Complete name : I:\0000\A 111-es.avi
    Format : AVI
    Format/Info : Audio Video Interleave
    File size : 798 MiB
    Duration : 1 h 19 min
    Overall bit rate : 1 397 kb/s
    Writing application : VirtualDubMod 1.5.4.1 (build 2178/release)
    Writing library : VirtualDubMod build 2178/release
    Video #0
    ID : 0
    Format : MPEG-4 Visual
    Format profile : Advanced [email protected]
    Format settings, BVOP : 1
    Format settings, QPel : No
    Format settings, GMC : No warppoints
    Format settings, Matrix : Custom
    Codec ID : XVID
    Codec ID/Hint : XviD
    Duration : 1 h 19 min
    Bit rate : 1 262 kb/s
    Width : 720 pixels
    Height : 544 pixels
    Display aspect ratio : 4:3
    Frame rate : 25.000 FPS
    Color space : YUV
    Chroma subsampling : 4:2:0
    Bit depth : 8 bits
    Scan type : Progressive
    Compression mode : Lossy
    Bits/(Pixel*Frame) : 0.129
    Stream size : 721 MiB (90%)
    Writing library : XviD 1.2.1 (UTC 2008-12-04)
    Audio #1
    ID : 1
    Format : MPEG Audio
    Format version : Version 1
    Format profile : Layer 3
    Mode : Joint stereo
    Codec ID : 55
    Codec ID/Hint : MP3
    Duration : 1 h 19 min
    Bit rate mode : Constant
    Bit rate : 128 kb/s
    Channel(s) : 2 channels
    Sampling rate : 48.0 kHz
    Compression mode : Lossy
    Stream size : 73.1 MiB (9%)
    Alignment : Aligned on interleaves
    Interleave, duration : 80 ms (2.00 video frames)
    Interleave, preload duration : 504 ms
    Writing library : LAME3.98r
    Encoding settings : -m j -V 4 -q 2 -lowpass 17 -b 128

    Rejtett tartalom:
    **Rejtett tartalom: A tartalom megjelenítéséhez kattints a 'Tetszik' gombra.**
    vagy free
    Rejtett tartalom:
    **Rejtett tartalom: A tartalom megjelenítéséhez kattints a 'Tetszik' gombra.**
     
    nandus és YiSan kedveli ezt.
  13. papadi

    papadi Állandó Tag

    [​IMG]

    Külvárosi őrszoba
    Fekete-fehér magyar film (1943/2007)
    Főszereplők: Karády Katalin, Nagy István, Csikós Rózsi, Törönyi Imre, Dajbukát Ilona, Csortos Gyula, Somogyi Nusi, Makláry János
    Rendezte: Hamza Dezső Ákos

    Ajánló a borítóról:
    Tóth János (Nagy István), a fiatal rendőr és felettese Nagy Miklós főtörzsőrmester, Angyalföldön teljesít szolgálatot. A börtönből frissen szabadult rablógyilkos, Karcsi (Makláry János) meggyilkol egy öregasszonyt, hogy elraboljon tőle egy vaskazettát, amit aztán szerelménél, Harmonikás Gizinél (Karády Katalin), a kocsma énekesnőjénél rejt el. A fiatal rendőr teljesen a vonzó énekesnő hatása alá kerül. Gizi szeretője biztatására János bizalmába férkőzik. Karcsi ugyanis, hogy megússza a börtönt, el akarja tenni láb alól Nagy főtörzsőrmestert, nehogy az rábizonyítsa az újabb gyilkosságot. Amikor aztán János megtalálja Gizi lakásán a régóta keresett vaskazettát, a lány bevallja, hogy szerelmes belé és elárulja a felettese ellen készülő merényletet...
    Magyar klasszikusok 35.. Régi magyar filmek 14. és 51.

    Média információ:

    Video:
    Kodek: MPEG-1/2 Video (mpgv)
    Felbontás: 720x576
    Képkockasebesség: 25
    Dekódolt formátum: Planar 4:2:0 YUV

    Hang:
    Kodek: DVD LPCM Audio (lpcm)
    Csatornák: Sztereó
    Mintavételi frekvencia: 48000 Hz
    Bitsebesség: 192 kb/mp

    Formátum: iso
    Méret: 4,36 GB
    Műsoridő: 1:24:51

    (prémium)
    Rejtett tartalom:
    **Rejtett tartalom: A tartalom megjelenítéséhez kattints a 'Tetszik' gombra.**
    Hibássá vált link miatt újratöltve.
     
    hegyisas és nandus kedveli ezt.
  14. szteca

    szteca Állandó Tag

    Pappa Pia

    magyar romantikus vígjáték, 105 perc, 2017
    Pappa.pia.2017.WEBRIP.x264.HUN-nubira


    [​IMG]

    RENDEZŐ-KOREOGRÁFUS: Seres Attila
    PRODUCER: Tőzsér Attila, Kálomista Gábor
    ZENE: Rakonczai Viktor, Kozma Katalin
    OPERATŐR: Tóth Zsolt
    FORGATÓKÖNYVÍRÓ: Divinyi Réka
    RENDEZŐ: Csupó Gábor

    Szereplők
    Tomit - Szabó Kimmel Tamás
    Papi - Nagy Feró
    Wizy - Stohl András
    Csavargó - Reviczky Gábor
    Mara - Ostorházi Bernadett
    Zita - Kováts Vera
    Tibó - Mózes András
    Peti - Miller Dávid
    Rocker lady - Martin Márta
    Kitty - Tolnai Klára

    Legyőzheti Dávid Góliátot? Állítólag igen, de aki biztosra megy, inkább ellene fogadjon. A kicsi és gyenge és pénztelen többnyire alulmarad, amikor szembeszáll valakivel, aki gazdagabb és hatalmasabb - és néhány nagyra nőtt, kopaszra borotvált alkalmazottja kíséri mindenhova.
    Papi (Nagy Feró) a világ legkedvesebb nyugdíjas linkje, aki mindenkinek tartozik és csak a jókedvét ajánlhatja törlesztés helyett. Már laknia sincs hol, egy lepukkant Duna-parti csónakházban húzza meg magát. Ám szomszédja, egy menő szuperdiszkó tulajdonosa, Wizy (Stohl András) most ezt is elvenné tőle, hogy valami csilivili buliplázát építtessen a parton. Az öreg nem esik kétségbe, de fogalma sincs, mit csináljon, úgyhogy a bonyolultabb megoldást választja: segítséget kér az unokájától, Tomitól (Szabó Kimmel Tamás). A srác legalább olyan link, mint a nagyapja, viszont sokkal sármosabb - és habozás nélkül hívja a haverjait.
    A pesti vagányok, bohémek és egyéb szélfútta figurák tarkabarka csapata szembeszáll Wizy zsoldosaival meg bombázó, de jéghideg alvezérével, és megkísérli a lehetetlent: a csónakházból átmenetileg romkocsmát varázsolnak, hogy összegyűjtsék a túléléshez szükséges összeget.
    A kedvük jó, az esélyeik rosszak - de ha egy romantikus vígjátékban mindenki zenész és/vagy szerelmes, akkor bármi megtörténhet. És addig is szól néhány ismerős, mégis egészen átalakult sláger...


    EREDETI CIM.........: Pappa pia
    MAGYAR CIM..........: Pappa pia
    JATEKIDO............: 104 PERC
    HIVATKOZAS..........: https://tinyurl.com/yb94q8op
    MERET...............: 1368 MB
    FORRAS..............: WEB-DL

    Videó:
    KODEK...............: x264 DXVA
    FELBONTAS...........: 720X300
    BITRATA.............: 1650 KBPS
    FPS.................: 25.000

    Hang:
    FORMATUM............: AAC
    NYELV...............: MAGYAR
    BITRATA.............: 192 KBPS
    CSATORNAK...........: 2
    FREKVENCIA..........: 48000 HZ
    FELIRAT.............: NINCS

    Rejtett tartalom:
    **Rejtett tartalom: A tartalom megjelenítéséhez kattints a 'Tetszik' gombra.**
     
  15. uzi9mm

    uzi9mm Állandó Tag



    Zsákutca (1985) TVRip

    [​IMG]

    [​IMG]

    rendező:
    Málnay Levente

    Lukács Sándor
    Sinkovits Imre
    Avar István
    Andrea Čunderlíková
    Kállay Ilona
    Mécs Károly
    Szersén Gyula
    Andai Györgyi
    Tímár Éva
    Fabó Györgyi
    Horkai János
    Balogh Emese
    Bessenyei Emma...


    A történet főszereplője Dr. Gál Péter, tehetséges, fiatal kardiológus, aki az egyetem elvégzése, majd egy lepusztult vidéki kórház után főorvosi segítséggel végre egy kiemelt megyei kórházba kerül. A munkájáért rajongó, azt őszinte hivatástudattal végző fiatalember hosszú ideig szinte bekötött szemmel él: semmit nem érzékel a kórházban uralkodó állapotokról. Ahogy azonban múlik az idő s egyre több a keserű tapasztalata, kénytelen feladni addigi tartózkodó álláspontját, s végül szembekerül főnökével.


    Kép
    Kódek azonosító/Tipp : XviD
    Időtartam : 73 perc
    Adatsebesség : 1 966 kb/s
    Szélesség : 704 képpont
    Magasság : 528 képpont
    Képarány : 4:3
    Képkockasebesség : 25,000 FPS

    Hang
    Kódek azonosító/Tipp : MP3
    Adatsebesség : 128 kb/s
    Csatornák száma : 2 csatorna
    Mintavételezési gyakoriság : 48,0 kHz

    [​IMG]
    Rejtett tartalom:
    **Rejtett tartalom: A tartalom megjelenítéséhez kattints a 'Tetszik' gombra.**
     
  16. Zauberfl

    Zauberfl Állandó Tag

    A hattyú halála 1983
    Magyar tévéjáték 82 perc

    [​IMG]

    Forgatókönyvíró: Szántó Erika
    Vezető operatőr: Zádori Ferenc
    Rendezte: Szántó Erika

    Szereplők:
    Andorai Péter (Oszterman Ferenc)
    Bubik István (fiú)
    Esztergályos Cecília (Janicsári Júlia)
    Henryk Borowski (Cavaletti)
    Kállai Ferenc (Csermlényi Viktor)
    Szabó Sándor (Júlia apja)
    Szakács Eszter (Sárika)
    Tábori Nóra (Margitka)
    Tolnay Klári (Júlia anyja)
    Törőcsik Mari (Frau Fröhlich)

    1956 októberét írjuk. A történelem viharai mindenkit érintenek. Janicsári Júlia balerina tragédiája mégsem ezzel kapcsolatos. Ő egyéni tragédiáját éli meg ezekben a napokban beteg kisfia elvesztésével. Ez a személyes nézőpont foglalkoztatta Szántó Erika rendezőt az Örkény István írásai alapján megírt történetben. Kisfia halála után Júlia felkeresi volt férjét, majd később Bécsbe szökik, ahol operaénekes barátja próbál segíteni neki talpra állni, a művészetébe kapaszkodni. De vajon sikerül-e Júliának túlélnie a sorscsapásokat?

    Format : Matroska
    Length : 1,15 GiB
    Video #0 : AVC at 1 837 kb/s
    Aspect : 720 x 540 (1.333) at 25.000 fps
    Audio #0 : AAC
    Infos : 2 csatorna, 48,0 kHz

    Rejtett tartalom:
    **Rejtett tartalom: A tartalom megjelenítéséhez kattints a 'Tetszik' gombra.**
     
  17. sanyo66

    sanyo66 Állandó Tag

    A tanítónő Tvrip 1988
    színes, magyar tévéfilm, 104 perc, 1988 (12)

    [​IMG]

    rendező: Léner Péter
    író: Bródy Sándor
    operatőr: Mestyán Tibor
    dramaturg: Aczél János

    szereplő(k):
    Bubik István
    Kubik Anna
    Gálffi László
    Csonka Ibolya
    Szabó Sándor
    Benedek Miklós
    Vajda László
    Bencze Ferenc
    Csákányi László
    Némethy Ferenc
    Gerbár Tibor
    Borbáth Ottília
    Horkai János
    Epres Attila
    Győri Péter
    Kerekes József
    Kiss Erika
    Orosz Helga
    Segesvári Gabriella
    Kovács Mária
    Spolarics Andrea
    Gedai Mária
    Tallós Rita


    Bródy Sándor színművéből készült történet főhőse Flóra, a tanítónő, aki hivatástudatának és esküjének megfelelően szeretne tanítani falun. Szépsége és tisztasága miatt konfliktushelyzetbe kerül a helyi hatalmasságokkal, valamint a vidék földbirtokos családjával. Igazsága tudatában szembeszáll ugyan velük, de csak az öreg pap rokonszenvére számíthat. Ifjabb Nagy István, a kicsapongó életet élő földbirtokos fiú beleszeret Flórába, és a szerelem megváltoztatja őt. Bródy Sándor a drámához két befejezést írt, az egyik boldog kimenetelű, a másik tragikus. A témát egy vidéki tanítónő öngyilkosságáról szóló újságcikkből merítette.


    Tvrip
    Format : DivX at 1 630 Kbps
    Length : 1,18 GiB for 1 óra 43 perc 42 mp 720emp
    Video #0 : MPEG-4 Visual at 1 301 Kbps
    Aspect : 720 x 544 (1.324) at 25.000 fps
    Audio #0 : MPEG Audio at 320 Kbps
    Infos : 2 csatorna, 48,0 KHz

    Kód:
    https://data.hu/dir/jjvy195lj7440233
    
     
    őrszem kedveli ezt.
  18. Zauberfl

    Zauberfl Állandó Tag

    Cseresznyéskert 1979 Tvrip
    magyar tévéfilm, 119 perc, 1979 (12)

    [​IMG]

    Dramaturg: Szántó Erika
    Iró, költő: Anton Pavlovics Csehov
    Műfordító: Tóth Árpád
    Zeneszerző: Szunyogh BAlázs
    Rendező: Esztergályos Károly
    Operatőr: MÁRK IVÁN; Bucsi János; Ducsay GÁbor; Marton Frigyes; Scheibner
    Károly
    Díszletterv.: Mátay Lívia
    Jelmezterv.: Mialkovszky Erzsébet
    Gyártásvez.: Hencz Dezső
    Felvételvez.: Drabik János
    Műszaki vez.: Kiss Mária
    Rögzítésvez.: Sági László
    Hangmérnök: Borsos Tibor
    Fővilágosító: Gaál István

    szereplő(k):
    Törőcsik Mari - Ranyevszkaja Ljubov Andrejevna;
    Pap Vera - Ánya;
    Esztergályos Cecilia - Varja;
    Mensáros László - GAjev;
    Kozák András - Lopahin;
    Gálffi László - Trofimov;
    Szénási Ernő - Szimeonov Piscsik;
    Hámori Ildikó - Sarlotta Ivanovna;
    Szacsvay László - Jepihodov;
    Peremartoni Krisztina fh. - Dunyasa;
    Balázs Samu - Firsz;
    Cseke Péter - Jasa;
    Vass Gábor - Egy vándorlegény

    Ljubov Andrejevna viharos életet hagyva maga mögött érkezik öt év után haza a családi
    kúriába, szeretett bátyja mellé, hogy újra megtalálja lelki békéjét. A harmónia azonban
    rövid ideig tart. A szeretett szülői ház, a családi birtok, a híres kert mára már megkopott
    fényében ragyog, sőt, egy kegyetlen ténnyel is szembesülnie kell a hazaérkezőnek: Lopahin
    kereskedő, a ház régi ismerőse hozza a hírt: rövidesen elárverezik a birtokot, a
    gyermekkort emlékeit őrző házat a legendás cseresznyéskerttel együtt.

    Tvrip
    Format : Matroska at 2 051 kb/s
    Length : 1,71 GiB for 1 óra 59 perc 26 mp 16emp
    Video #0 : AVC
    Aspect : 720 x 576 (1.250) at 25.000 fps
    Audio #0 : AAC
    Infos : 2 csatorna, 48,0 kHz




    Rejtett tartalom:
    **Rejtett tartalom: A tartalom megjelenítéséhez kattints a 'Tetszik' gombra.**
     
  19. Zauberfl

    Zauberfl Állandó Tag

    Békeffi és Társa 1985
    színes/fekete-fehér, magyar szórakoztató film 99 perc.

    [​IMG]

    Rendezte: Kalmár András
    Szerkesztette: Ágoston György

    Kellér Dezső emlékezik Békeffi Istvánra, aki a szórakoztató műfaj nemzetközi sikerű nagy öregje volt. Vidám pillanatoknak lehetünk tanúi sok-sok kabaréjelenettel, örökzöld slágerekkel, és játékfilmekkel.

    Format : Matroska at 2 051 kb/s
    Length : 1,41 GiB for 1 óra 38 perc 43 mp 264emp
    Video #0 : AVC
    Aspect : 720 x 576 (1.250) at 25.000 fps
    Audio #0 : AAC
    Infos : 2 csatorna, 48,0 kHz



    Rejtett tartalom:
    **Rejtett tartalom: A tartalom megjelenítéséhez kattints a 'Tetszik' gombra.**
     
  20. Zauberfl

    Zauberfl Állandó Tag

    Tündérlaki lányok 1970
    Fekete-fehér tévéjáték 125 perc

    [​IMG]

    Író: Heltai Jenő
    Forgatókönyv: Dobai Vilmos
    Rendező: Dobai Vilmos
    Dramaturg: Mészöly Tibor
    Vezető operatőr: Mestyán Tibor

    Szereplők:
    Esztergályos Cecília (Manci)
    Kádár Flóra (Róza)
    Ladomerszky Margit (A mama)
    Béres Ilona (Boriska)
    Csűrös Karola (Olga)
    Tábori Nóra (Malvin)
    Szersén Gyula (Pázmán Sándor)
    Márton András (Petreneczey Gáspár)
    Venczel Vera (Sárika)
    Miklóssy György (Pista)
    Tomanek Nándor (A báró)

    Boriska, a legidősebb Tündérlaki lány szinésznő. Egy gazdag báró barátnőjeként, bőkezűen gondoskodik a mamáról, és három hugáról, így az egész család eredményes, erkölcsös, polgárhoz méltó életet élhet. Boriska szerelmes lesz és szíve más életmód felé húzza. A tüntetően szeretetteljes családi légkör tüstént szétfoszlik. Mindenki más megoldást talál helyesnek.

    Format: Matroska at 2 052 kb/s
    Length: 1,79 GiB for 2 óra 5 perc 5 mp 680emp
    Video : AVC
    Aspect: 720 x 576 (1.250) at 25.000 fps
    Audio : AAC
    Infos : 2 csatorna, 48,0 kHz

    Rejtett tartalom:
    **Rejtett tartalom: A tartalom megjelenítéséhez kattints a 'Tetszik' gombra.**
     

Megosztás