MUSICAL, rockopera, operett és egyéb ZENÉS FILM 2012

urh660 témája a 'Film, színház, tánc' fórumban , 2008 Október 23.

  1. papadi

    papadi Állandó Tag

    [​IMG]

    The Rolling Stones: Let's Spend the Night Together
    Amerikai koncertfilm (1982/2009)
    Rendezte: Hal Asby

    Az Oscar-díjas Hal Ashby (Hazatérés, Isten hozta, Mister!) felejthetetlen bulira invitál a rocktörténelem egyik legismertebb zenekara, a The Rolling Stones társaságában. Az 1981-es amerikai turnén készült ez a fergeteges koncertfilm, melyben az ötszörös Oscar-jelölt Caleb Deschanel kamerája előtt a csúcsformában pörgő Mick Jagger, Keith Richards és a többiek előadásában a banda legnagyobb slágerei csendülnek fel. (a borítóról)

    Az elhangzó dalok:
    01 - Intro / Take The A Train
    02 - Under My Thumb
    03 - Let's Spend The Night Together
    04 - Shattered
    05 - Neighbors
    06 - Black Limo
    07 - Just My Imagination
    08 - 20 Flight Rock
    09 - Let Me Go
    10 - Time Is On My Side
    11 - Beast of Burden
    12 - Waiting On A Friend
    13 - Going To A Go-Go
    14 - You Can't Always Get What You Want
    15 - T & A
    16 - Tumbling Dice
    17 - She Is So Cold
    18 - All Down The Line
    19 - Hang Fire
    20 - Miss You
    21 - Let It Bleed
    22 - Start Me Up
    23 - Honky Tonk Women
    24 - Brown Sugar
    25 - Jumping Jack Flash
    26 - Satisfaction
    27 - Star Spangled / Hendrix

    Extra - Ajánlók:
    1 - Ádám almái (2:09)
    2 - Az ajánlat (2:10)
    3 - Fél Nelson (2:12)

    dvd/iso - 5,87 GB - 720x576 - 448 kbps - 1:26:50 (1:33:21)
    Rejtett tartalom:
    **Rejtett tartalom: A tartalom megjelenítéséhez kattints a 'Tetszik' gombra.**
     
  2. papadi

    papadi Állandó Tag

    [​IMG]

    The Rolling Stones - Voodoo Lounge Live from Robbie Stadium Miami
    Amerikai kocertfilm (1994)
    Közreműködik: Bo Diddley, Robert Cray, Whoopi Goldberg
    Rendezte: David Mallet

    01 - Start Program
    02 - Not Fade Away
    03 - Tumbling Dice
    04 - You Got Me Rocking
    05 - (I Can't Get No) Satisfaction
    06 - Angie
    07 - Sweet Virginia
    08 - It's All Over Now
    09 - Stop Breaking Down
    10 - Who Do You Love
    11 - Miss You
    12 - Introductions
    13 - Honky Tonk Women
    14 - The Worst
    15 - Sympathy For The Devil
    16 - Start Me Up
    17 - It's Only Rock 'N' Roll
    18 - Brown Sugar
    19 - Jumpin' Jack Flash
    20 - End Credits

    dvd - 4,27 GB - 720x480 - 16/48 - 1:34:37
    Rejtett tartalom:
    **Rejtett tartalom: A tartalom megjelenítéséhez kattints a 'Tetszik' gombra.**
     
    Utoljára módosítva: 2018 Szeptember 5
    tmichal kedveli ezt.
  3. papadi

    papadi Állandó Tag

    [​IMG]

    The Rolling Stones: Hidak Babylonba turné ’97-98
    (The Rolling Stones: Bridges to Babylon - 1998)
    Amerikai kocertfilm (1998)
    Közreműködők: Dave Matthews, Joshua Redman
    Rendezte: Bruce Gowers

    Az elhangzó dalok:
    Opening (Főcím)
    01 - (I Can't Get No) Satisfaction
    02 - Let's Spend the Night Together
    03 - Flip the Switch
    04 - Gimme Shelter
    05 - Wild Horses
    06 - Saint of Me
    07 - Out of Control
    08 - Waiting on a Friend
    09 - Miss You
    10 - I Wanna Hold You
    11 - Across The Bridge
    12 - It's Only Rock 'n' Roll (But I Like It)
    13 - Like a Rolling Stone
    14 - Sympathy for the Devil
    15 - Tumbling Dice
    16 - Honky Tonk Woman
    17 - Start Me Up
    18 - Jumping Jack Flash
    19 - You Can't Always Get What You Want
    20 - Brown Sugar
    Bows and End Credits (Köszönet és vége főcím)

    dvd/iso - 4,28 GB - 720x576 - 448 kbps - 1:59:56
    Rejtett tartalom:
    **Rejtett tartalom: A tartalom megjelenítéséhez kattints a 'Tetszik' gombra.**
     
    Utoljára módosítva: 2018 Szeptember 5
    tmichal kedveli ezt.
  4. papadi

    papadi Állandó Tag

    [​IMG]

    The Rolling Stones: Havana Moon
    Amerikai koncertfilm (2016)
    Rendezte: Paul Dugdale

    Az elhangzó dalok:
    It's About Time...
    01 - Jumpin' Jack Flash
    02 - It's Only Rock'n'Roll (But I Like It)
    03 - Out Of Control
    04 - Angie
    05 - Paint It Black
    06 - Honky Tonk Women
    Band Introductions
    07 - You Got The Silver
    08 - Midnight Rambler
    09 - Gimme Shelter
    10 - Sympathy For The Devil
    11 - Brown Shugar
    Still Getting Better...
    12 - You Can't Always Get What You Want
    13 - (I Can't Get No) Satisfaction

    Bonus Tracks:
    01 - Tumbling Dice
    02 - All Down The Line
    03 - Before They Make Me Run
    04 - Miss You
    05 - Start Me Up

    dvd/dvd9 - 7,30 GB - 720x480 - 192 kbps - 1:49:58+28:23
    Rejtett tartalom:
    **Rejtett tartalom: A tartalom megjelenítéséhez kattints a 'Tetszik' gombra.**
     
    tmichal, Pracsler és szaltam kedveli ezt.
  5. papadi

    papadi Állandó Tag

    [​IMG]

    The Rolling Stones: 50 Years On Video 60s - 70s - 80s From The Channel
    From The Vaults Black Edition (2013)
    From The Vaults - FTV003DVD1/2

    DVD1

    I. 60S PROMO VIDEO (48:06)
    01 - (I Can't Get No) Satisfaction
    02 - Gather Moss (Around And Around)
    03 - The Last Time
    04 - Get Off Of My Cloud
    05 - 19th Nervous Breakdown
    06 - Have You Seen Your Mother, Baby, Standing In The Shadow?
    07 - Let's Spend The Night Together
    08 - We Love You
    09 - 2000 Light Years From Home
    10 - Jumpin 'Jack Flash
    11 - Sympathy For The Devil
    12 - Honky Tonk Women
    13 - Gimme Shelter

    II. 70s PROMO VIDEO (1:06:08)
    14 - Brown Sugar
    15 - Tumbling Dice
    16 - Rocks Off
    17 - Angie
    18 - Dancing With Mr.D
    19 - It's Only Rock And Roll (But I Like It)
    20 - Ain’t Too Proud To Beg
    21 - Till The Next Goodbye
    22 - Fool To Cry
    23 - Hey Negrita
    24 - Crazy Mama
    25 - Hot Stuff
    26 - Miss You
    27 - Far Away Eyes
    28 - Respectable

    III. 80s PROMO VIDEO (1:12:11)
    29 - Emotional Rescue
    30 - Where The Boys Go
    31 - She So Cold
    32 - Start Me Up
    33 - Worried About You
    34 - Neighbours
    35 - Waiting On A Friend
    36 - Hang Fire
    37 - Going To A Go-Go
    38 - Time Is On My Side
    39 - Undercover Of The Night
    40 - She Was Hot
    41 - Too Much Blood
    42 - Harlem Shuffle
    43 - One Hit (To The Body)
    44 - Mixed Emotions
    45 - Rock And A Hard Place

    IV. ALTERNATES AND RARITIES (42:31)
    46 - Jumpin 'Jack Flash (B&W)
    47 - Child Of The Moon
    48 - Angie (Version 2)
    49 - Silver Train
    50 - Fool To Cry (Top Of The Pops)
    51 - Brown Sugar (Live 1976)
    52 - Wild Horses (Live 1976)
    53 - Emotional Rescue (Version 2)
    54 - Undercover Of The Night (B Version)
    55 - Time Is On My Side (MTV Version)

    dvd/dvd9 - 7,54 GB - 720x480 - 256 kbps - 3:48:56
    Rejtett tartalom:
    **Rejtett tartalom: A tartalom megjelenítéséhez kattints a 'Tetszik' gombra.**
     
    vaniliaalomkex és Pracsler kedveli ezt.
  6. papadi

    papadi Állandó Tag

    [​IMG]

    The Rolling Stones: 50 Years On Video 60s - 70s - 80s From The Channel
    From The Vaults Black Edition (2013)
    From The Vaults - FTV003DVD1/2

    DVD2 - LIVE ARCHIVE
    01 - Live Archive Vol.1 - Brussels 1973
    02 - Live Archive Vol.2 - Hampton 1981
    03 - Black Limousine
    04 - Little T&A / Happy Birthday Keith
    05 - She's So Cold
    06 - (I Can not Get No) Satisfaction
    07 - Live Archive Vol.3 - LA Friday Live 1975
    08 - Ain 't Too Proud To Beg
    09 - You Can’t Always Get What You Want
    10 - Happy
    11 - It's Only Rock' N 'Roll (But I Like It)
    12 - Fingerprint File
    13 - Angie
    14 - Live Archive Vol.4 - Tokyo Dome 1990
    15 - Sad Sad Sad
    16 - Ruby Tuesday
    17 - Rock And A Hard Place
    18 - Paint It Black
    19 - It's Only Rock 'N' Roll (But I Like It)
    20 - Live Archive Vol.5 - Toronto Phoenix 2005
    21 - Rough Justice
    22 - Live With Me
    23 - Get Up Stand Up
    24 - Mr. Pitiful
    25 - Live Archive Vol.6 - Roundhay Park Leeds 1982
    26 - Under My Thumb
    27 - Let's Spend The Night Together
    28 - Twenty Flight Rock / Going To A Go Go
    29 - Time Is On My Side

    dvd/dvd5 - 3,85 GB - 720x480 - 256 kbps - 2:35:38
    Rejtett tartalom:
    **Rejtett tartalom: A tartalom megjelenítéséhez kattints a 'Tetszik' gombra.**
     
    őrszem, vaniliaalomkex és Pracsler kedveli ezt.
  7. papadi

    papadi Állandó Tag

    [​IMG]

    Spooky Tooth: Nomad Poets - Live in Germany 2004
    Recorded in Worpswede, June 4th & Hamburg, June 5th
    Evangeline Records / Larkio Music. GELMV 4109, 2007
    Hang: angol
    Felirat: nincs

    01 - Waitin' for The Wind (Grosvenor - Harrison - Wright)
    02 - Sunshine Help Me (Wright)
    03 - That Was Only Yesterday (Wright)
    04 - The Wrong Time (Wright - H. McCracken)
    05 - Feelin Bad (Kellie - Wright)
    06 - Wildfire (Wright)
    07 - Better By You, Better Than Me (Wright)
    08 - Tobacco Road (J.D.Loudermilk)
    09 - Hangman Hang My Shell On A Tree (Wright)
    10 - Evil Woman (L. Weiss)

    SPOOKY TOOTH:
    Mike Kellie - drums
    Mike Harrison - lead vocal, keys
    Gary Wright - lead vocal, keys
    with
    Joey Albrecht - guitars
    Michael Becker - bass

    Bonus (csak a dvd-n):
    Interviews
    Mike Kellie (11:51)
    Mike Harrison (13:54)
    Gary Wright (13:50)

    Gary Wright in concert San Diego 1976
    Love Is Alive (4:40)
    Are You Weepin' (5:10)

    Spooky Tooth Slideshow (3:14)

    Média információ:

    Video:
    Kodek: MPEG-1/2 Video (mpgv)
    Felbontás: 720x576
    Képkockasebesség: 25

    Hang:
    Kodek: A52 Audio (aka AC3) (a52)
    Csatornák: Sztereó
    Mintavételi frekvencia: 48000 Hz
    Bitsebesség: 192 kb/mp

    Formátum: dvd
    Méret: 4,19 GB
    Műsoridő: 55:41 (1:48:20)
    (prémium)
    Rejtett tartalom:
    **Rejtett tartalom: A tartalom megjelenítéséhez kattints a 'Tetszik' gombra.**
    [​IMG]

    Formátum: dvdrip/avi
    Méret: 760 MB
    Felbontás: 640x480
    Mintavételi frekvencia: 48000 Hz
    Bitsebesség: 192 kbps
    Műsoridő: 55:41
    Részletes média információ:
    Show Spoiler

    C:\Users\user\Videos\Spooky Tooth - Nomad Poets - Live in Germany 2004.avi
    General
    Complete name : C:\Users\user\Videos\Spooky Tooth - Nomad Poets - Live in Germany 2004.avi
    Format : AVI
    Format/Info : Audio Video Interleave
    File size : 759 MiB
    Duration : 55 min
    Overall bit rate : 1 906 kb/s
    Writing application : Lavf51.12.1
    Video #0
    ID : 0
    Format : xvid
    Codec ID : xvid
    Duration : 55 min
    Bit rate : 1 701 kb/s
    Width : 640 pixels
    Height : 480 pixels
    Display aspect ratio : 4:3
    Frame rate : 25.000 FPS
    Bits/(Pixel*Frame) : 0.221
    Stream size : 677 MiB (89%)
    Audio #1
    ID : 1
    Format : MPEG Audio
    Format version : Version 1
    Format profile : Layer 3
    Mode : Joint stereo
    Mode extension : MS Stereo
    Codec ID : 55
    Codec ID/Hint : MP3
    Duration : 55 min
    Bit rate mode : Constant
    Bit rate : 192 kb/s
    Channel(s) : 2 channels
    Sampling rate : 48.0 kHz
    Compression mode : Lossy
    Stream size : 76.5 MiB (10%)
    Alignment : Aligned on interleaves
    Interleave, duration : 24 ms (0.60 video frame)
    Writing library : LAME3.97

    Rejtett tartalom:
    **Rejtett tartalom: A tartalom megjelenítéséhez kattints a 'Tetszik' gombra.**
    vagy free
    Rejtett tartalom:
    **Rejtett tartalom: A tartalom megjelenítéséhez kattints a 'Tetszik' gombra.**
     
  8. papadi

    papadi Állandó Tag

    [​IMG]

    Spooky Tooth: The Lost Broadcasts
    Gonzo Multimedia Group. HST070DVD
    Megjelenés: 2012-02-20 (UK)
    Hang: angol
    Felirat: nincs

    1 - The Weight - 5:02
    2 - Old As I Was Born - 8:09
    3 - Cotton Growing Man 1 - 4:48
    4 - Cotton Growing Man 2 - 7:38
    5 - Waiting For The Wind - 8:11
    6 - Moriah 1 - 5:57
    7 - Moriah 2 - 5:09
    Beat-Club. 1968. november (1), Musikladen, 1973. április (2-7)

    Média információ:

    Video:
    Kodek: MPEG-1/2 Video (mpgv)
    Felbontás: 720x480
    Képkockasebesség: 25

    Hang:
    Kodek: A52 Audio (aka AC3) (a52)
    Csatornák: Sztereó
    Mintavételi frekvencia: 48000 Hz
    Bitsebesség: 256 kb/mp

    Formátum: dvd
    Méret: 2,20 GB
    Műsoridő: 44:45
    (prémium)
    Rejtett tartalom:
    **Rejtett tartalom: A tartalom megjelenítéséhez kattints a 'Tetszik' gombra.**
     
  9. papadi

    papadi Állandó Tag

    Iron Maiden: Raising Hell
    koncertfilm, 1993/2000 (dvdrip - avi)

    [​IMG]

    Iron Maiden: Raising Hell
    Pinewood Studios in London, England, on 28 August 1993
    Director: Declan Lowney
    BMG Special Products, 72333-80091-9 (2000) US
    Platinum Performances
    Style: Heavy Metal

    Tracklist
    01 - Be Quick Or Be Dead (Bruce Dickinson - Janick Gers)
    02 - The Trooper (Steve Harris)
    03 - The Evil That Men Do (Adrian Smith - Bruce Dickinson - Steve Harris)
    04 - The Clairvoyant (Steve Harris)
    05 - Hallowed Be Thy Name (Steve Harris)
    06 - Wrathchild (Steve Harris)
    07 - Transylvania (Steve Harris)
    08 - From Here To Eternity (Steve Harris)
    09 - Fear Of The Dark (Steve Harris)
    10 - The Number Of The Beast (Steve Harris)
    11 - Bring Your Daughter ... To The Slaughter (Bruce Dickinson)
    12 - Two Minutes To Midnight (Adrian Smith - Bruce Dickinson)
    13 - Afraid To Shoot Strangers (Steve Harris)
    14 - Heaven Can Wait (Steve Harris)
    15 - Sanctuary (Steve Harris - Dave Murray - Paul Di'Anno)
    16 - Run To The Hills (Steve Harris)
    17 - Iron Maiden (Steve Harris)

    IRON MAIDEN:
    Bruce Dickinson - vocals
    Dave Murray - guitar
    Janick Gers - guitar
    Steve Harris - bass
    Nicko McBrain - drums

    Simon Drake - horror illusionist

    Média információ:
    Video:
    Kodek: MPEG-1/2 Video (mpgv)
    Felbontás: 720x480
    Képkockasebesség: 29,970030
    Képformátum: 1.33:1 (4:3)
    Hang:
    Kodek: A52 Audio (aka AC3) (a52)
    Csatornák: Sztereó / 3F2R/LFE
    Mintavételi frekvencia: 48000 Hz
    Bitsebesség: 192/384 kb/mp
    Formátum: iso
    Méret: 5,04 GB
    Műsoridő: 1:53:09

    (prémium)
    Rejtett tartalom:
    **Rejtett tartalom: A tartalom megjelenítéséhez kattints a 'Tetszik' gombra.**
    [​IMG]

    Formátum: dvdrip/avi
    Méret: 1,93 GB
    Felbontás: 720x544
    Mintavételi frekvencia: 48000 Hz
    Bitsebesség: 192 kbps
    Műsoridő: 1:53:15
    Részletes média információ:
    Show Spoiler

    I:\Video\Iron Maiden - Raising Hell.avi
    General
    Complete name : I:\Video\Iron Maiden - Raising Hell.avi
    Format : AVI
    Format/Info : Audio Video Interleave
    File size : 1.93 GiB
    Duration : 1 h 53 min
    Overall bit rate : 2 443 kb/s
    Writing application : VirtualDubMod 1.5.4.1 (build 2178/release)
    Writing library : VirtualDubMod build 2178/release
    Video #0
    ID : 0
    Format : MPEG-4 Visual
    Format profile : Advanced [email protected]
    Format settings, BVOP : 1
    Format settings, QPel : No
    Format settings, GMC : No warppoints
    Format settings, Matrix : Custom
    Codec ID : XVID
    Codec ID/Hint : XviD
    Duration : 1 h 53 min
    Bit rate : 2 047 kb/s
    Width : 720 pixels
    Height : 544 pixels
    Display aspect ratio : 4:3
    Frame rate : 29.970 (29970/1000) FPS
    Color space : YUV
    Chroma subsampling : 4:2:0
    Bit depth : 8 bits
    Scan type : Progressive
    Compression mode : Lossy
    Bits/(Pixel*Frame) : 0.174
    Stream size : 1.62 GiB (84%)
    Writing library : XviD 1.2.1 (UTC 2008-12-04)
    Audio #1
    ID : 1
    Format : MPEG Audio
    Format version : Version 1
    Format profile : Layer 3
    Mode : Joint stereo
    Codec ID : 55
    Codec ID/Hint : MP3
    Duration : 1 h 53 min
    Bit rate mode : Constant
    Bit rate : 192 kb/s
    Channel(s) : 2 channels
    Sampling rate : 48.0 kHz
    Compression mode : Lossy
    Stream size : 156 MiB (8%)
    Alignment : Aligned on interleaves
    Interleave, duration : 67 ms (2.00 video frames)
    Interleave, preload duration : 504 ms
    Writing library : LAME3.98r
    Encoding settings : -m j -V 4 -q 2 -lowpass 18.6 -b 192
    Audio #2
    ID : 2
    Format : MPEG Audio
    Format version : Version 1
    Format profile : Layer 3
    Mode : Joint stereo
    Mode extension : MS Stereo
    Codec ID : 55
    Codec ID/Hint : MP3
    Duration : 1 h 53 min
    Bit rate mode : Constant
    Bit rate : 192 kb/s
    Channel(s) : 2 channels
    Sampling rate : 48.0 kHz
    Compression mode : Lossy
    Stream size : 156 MiB (8%)
    Alignment : Aligned on interleaves
    Interleave, duration : 67 ms (2.00 video frames)
    Interleave, preload duration : 504 ms
    Writing library : LAME3.98r
    Encoding settings : -m j -V 4 -q 2 -lowpass 18.6 -b 192

    Rejtett tartalom:
    **Rejtett tartalom: A tartalom megjelenítéséhez kattints a 'Tetszik' gombra.**
    vagy free
    Rejtett tartalom:
    **Rejtett tartalom: A tartalom megjelenítéséhez kattints a 'Tetszik' gombra.**
     
    bengi kedveli ezt.
  10. Zauberfl

    Zauberfl Állandó Tag

    Szerelmi bájital (L’elisir d’amore) 1988
    Az opera televíziós változata

    [​IMG]

    Komponálta: Gaetano Donizetti
    Szövegíró: Felice Romani
    Magyar szöveg: Blum Tamás
    Dramaturg: Romhányi Ágnes
    Zenei rendező: Vajda János
    Vezényel: Selmeczi György
    Rendező: Fehér György

    Szereplők:
    Bátori Éva - Adina
    Gulyás Dénes - Nemorino
    Miller Lajos - Belcore
    Sólyom-nagy Sándor - Dulcamara doktor
    Pánczél Éva - Giannetta

    Miskolci Új Zenei Múhely és a Magyar Állami Operaház énekkara
    Karigazgató - Katona Anikó


    Nemorino, a melegszívű, de kissé félszeg falusi legény reménytelenül szerelmes a falu szépébe, a gazdag és olvasott Adinába. A leány azonban más férfit képzel el magának, ezért rendszeresen kiadja Nemorino útját. A faluba érkezik egy csapat katona, élükön Belcoréval, aki azonnal udvarolni kezd a leánynak. Ez Nemorinót rendkívül féltékennyé teszi. Ezért a magát csodadoktorként hirdető Dulcamarához fordul varázsitalért. Adina közben Belcoréval készül eljegyzésre. Mivel a varázsital hatástalan volt, Nemorino még egy adag szerelmi bájitalt szeretne venni. Pénze már nincs, így kénytelen beállni katonának. Még nem tudja, hogy bácsikája meghalt, és nagy örökséget hagyott rá, de feltűnik neki, hogy a falubeli lányok körülzsongják. Adinát meghatja Nemorino elszántsága, hősies tette, és a káplár helyett őt választja, amit a káplár sem bán túlságosan.


    Format: Matroska at 2 051 kb/s
    Length: 1,38 GiB for 1 óra 36 perc 13 mp 760emp
    Video: AVC
    Aspect: 720 x 576 (1.250) at 25.000 fps
    Audio: AAC
    Infos: 2 csatorna, 48,0 kHz



    Rejtett tartalom:
    **Rejtett tartalom: A tartalom megjelenítéséhez kattints a 'Tetszik' gombra.**
     
  11. papadi

    papadi Állandó Tag

    [​IMG]

    Dire Straits: Sultans Of Swing - The Very Best Of Dire Straits
    982 318-1 Universal, 2004

    01 - Sultans Of Swing (Dire Straits, 1978)
    02 - Lady Writer (Communique, 1979)
    03 - Romeo And Juliet (Making Movies, 1980)
    04 - Tunnel Of Love (Making Movies, 1980)
    05 - Private Investigations (Love Over Gold, 1982)
    06 - Twisting By The Pool (ExtendedancEPlay, 1983)
    07 - Love Over Gold (live, Alchemy: Dire Straits Live, 1984)
    08 - So Far Away (Brothers In Arms, 1985)
    09 - Money For Nothing (Brothers In Arms, 1985) single edit
    10 - Brothers In Arms (Brothers In Arms, 1985)
    11 - Walk Of Life (Brothers In Arms, 1985)
    12 - Calling Elvis (On Every Street, 1991)
    13 - Heavy Fuel (On Every Street, 1991)
    14 - On Every Street (On Every Street, 1991)
    15 - Your Latest Trick (live, On The Night)
    16 - Local Hero - Wild Theme (live, On The Night, DVD version)

    Extra:
    Audio interview with Mark Knopfler

    Média információ:

    Video:
    Kodek: MPEG-1/2 Video (mpgv)
    Felbontás: 720x480
    Képkockasebesség: 29,970030
    Képformátum: 1.33:1 (4:3)

    Hang:
    Kodek: DVD LPCM Audio (lpcm)
    Csatornák: Sztereó
    Mintavételi frekvencia: 48000 Hz
    Bitsebesség: 16 kb/mp

    Formátum: dvd
    Méret: 4,05 GB
    Műsoridő: 1:19:35+11:57

    (prémium)
    Rejtett tartalom:
    **Rejtett tartalom: A tartalom megjelenítéséhez kattints a 'Tetszik' gombra.**
    [​IMG]

    Formátum: dvdrip/avi
    Méret: 895 MB
    Felbontás: 720x544
    Mintavételi frekvencia: 48000 Hz
    Bitsebesség: 256 kbps
    Műsoridő: 1:19:51

    Részletes média információ:
    Show Spoiler

    I:\0000\Dire Straits\xDire Straits - Sultans Of Swing\Dire Straits - Sultans Of Swing.avi
    General
    Complete name : I:\0000\Dire Straits\xDire Straits - Sultans Of Swing\Dire Straits - Sultans Of Swing.avi
    Format : AVI
    Format/Info : Audio Video Interleave
    File size : 891 MiB
    Duration : 1 h 19 min
    Overall bit rate : 1 559 kb/s
    Writing application : VirtualDubMod 1.5.4.1 (build 2178/release)
    Writing library : VirtualDubMod build 2178/release
    Video #0
    ID : 0
    Format : MPEG-4 Visual
    Format profile : Advanced [email protected]
    Format settings, BVOP : 1
    Format settings, QPel : No
    Format settings, GMC : No warppoints
    Format settings, Matrix : Custom
    Codec ID : XVID
    Codec ID/Hint : XviD
    Duration : 1 h 19 min
    Bit rate : 1 296 kb/s
    Width : 720 pixels
    Height : 544 pixels
    Display aspect ratio : 4:3
    Frame rate : 25.000 FPS
    Color space : YUV
    Chroma subsampling : 4:2:0
    Bit depth : 8 bits
    Scan type : Progressive
    Compression mode : Lossy
    Bits/(Pixel*Frame) : 0.132
    Stream size : 740 MiB (83%)
    Writing library : XviD 1.2.1 (UTC 2008-12-04)
    Audio #1
    ID : 1
    Format : MPEG Audio
    Format version : Version 1
    Format profile : Layer 3
    Mode : Joint stereo
    Codec ID : 55
    Codec ID/Hint : MP3
    Duration : 1 h 19 min
    Bit rate mode : Constant
    Bit rate : 256 kb/s
    Channel(s) : 2 channels
    Sampling rate : 48.0 kHz
    Compression mode : Lossy
    Stream size : 146 MiB (16%)
    Alignment : Aligned on interleaves
    Interleave, duration : 80 ms (2.00 video frames)
    Interleave, preload duration : 504 ms
    Writing library : LAME3.98r
    Encoding settings : -m j -V 4 -q 2 -lowpass 19.7


    (prémium)
    Rejtett tartalom:
    **Rejtett tartalom: A tartalom megjelenítéséhez kattints a 'Tetszik' gombra.**
    vagy free
    Rejtett tartalom:
    **Rejtett tartalom: A tartalom megjelenítéséhez kattints a 'Tetszik' gombra.**
     
    Zug_a_tuske kedveli ezt.
  12. papadi

    papadi Állandó Tag

    [​IMG]

    Mötley Crüe: Carnival of Sins Live
    BF-54961 Universal / Budapest Film, 2005/2008

    A felvételek a 2005-ös "Red, White and Crue Tour" során készültek.

    Az elhangzó dalok:

    01 - Opening
    02 - Shout At The Devil
    03 - Too Fast For Love
    04 - Ten Seconds To Love
    05 - Red Hot
    06 - On With The Show
    07 - Too Young To Fall In Love
    08 - Looks That Kill
    09 - Louder Than Hell
    10 - Live Wire
    11 - Girls Girls Girls
    12 - Wild Side
    13 - Don't Go Away Mad (Just Go Away)
    14 - Primal Scream
    15 - Glitter
    16 - Without You
    17 - Home Sweet Home
    18 - Nikkie's Solo
    19 - Dr. Feelgood
    20 - Tommy's Solo
    21 - Same Ol' Situation
    22 - Tommy Cam
    23 - Sick Love Song
    24 - If I Die Tomorrow
    25 - Kickstart My Heart
    26 - Helter Skelter
    27 - Anarchy In the U.K.

    [​IMG]

    Formátum: dvdrip/avi
    Méret: 2,23 GB
    Felbontás: 720x400
    Mintavételi frekvencia: 48000 Hz
    Bitsebesség: 320 kbps
    Műsoridő: 2:17:05

    Részletes média információ:
    Show Spoiler

    C:\Users\user\Videos\Mötley Crüe - Carnival of Sins.avi
    General
    Complete name : C:\Users\user\Videos\Mötley Crüe - Carnival of Sins.avi
    Format : AVI
    Format/Info : Audio Video Interleave
    Format profile : OpenDML
    File size : 2.23 GiB
    Duration : 2 h 17 min
    Overall bit rate : 2 331 kb/s
    Movie name : Carnival of Sins
    Director : Mötley Crüe
    Genre : Heavy Metal
    Recorded date : 2005
    Writing application : Lavf58.17.100
    Video #0
    ID : 0
    Format : MPEG-4 Visual
    Format profile : Advanced [email protected]
    Format settings, BVOP : 3
    Format settings, QPel : No
    Format settings, GMC : No warppoints
    Format settings, Matrix : Default (H.263)
    Codec ID : DIVX
    Codec ID/Info : Project Mayo
    Codec ID/Hint : DivX 4
    Duration : 2 h 17 min
    Bit rate : 1 999 kb/s
    Width : 720 pixels
    Height : 400 pixels
    Display aspect ratio : 16:9
    Frame rate : 23.976 FPS
    Color space : YUV
    Chroma subsampling : 4:2:0
    Bit depth : 8 bits
    Scan type : Interlaced
    Original scan type : Progressive
    Scan order : Bottom Field First
    Compression mode : Lossy
    Bits/(Pixel*Frame) : 0.289
    Stream size : 1.91 GiB (86%)
    Writing library : Lavc58.19.104
    Audio #1
    ID : 1
    Format : MPEG Audio
    Format version : Version 1
    Format profile : Layer 3
    Codec ID : 55
    Codec ID/Hint : MP3
    Duration : 2 h 17 min
    Bit rate mode : Constant
    Bit rate : 320 kb/s
    Channel(s) : 2 channels
    Sampling rate : 48.0 kHz
    Compression mode : Lossy
    Stream size : 314 MiB (14%)
    Alignment : Aligned on interleaves
    Interleave, duration : 24 ms (0.58 video frame)
    Interleave, preload duration : 24 ms
    Writing library : LAME3.100


    (prémium)
    Rejtett tartalom:
    **Rejtett tartalom: A tartalom megjelenítéséhez kattints a 'Tetszik' gombra.**
     
    őrszem kedveli ezt.
  13. papadi

    papadi Állandó Tag

    [​IMG]

    Mötley Crüe: The End - Live in Los Angeles
    EVB335529 Eagle Vision, 2016

    Az együttes Los Angeles-i Staples Centerben tartott, 2015. december 31-i búcsúkoncertje.

    Az elhangzó dalok:

    01 - Intro
    02 - Girls, Girls, Girls
    03 - Wild Side
    04 - Primal Scream
    05 - Same Ol' Situation (S.O.S.)
    06 - Don't Go Away Mad (Just Go Away)
    07 - Rock N Roll Part II / Smokin' In The Boys' Room
    08 - Looks That Kill
    09 - Mutherf***** Of The Year
    10 - In The Beginning / Shout At The Devil
    11 - Louder Than Hell
    12 - Drum Solo
    13 - Guitar Solo
    14 - Saints Of Los Angeles
    15 - Live Wire
    16 - T.N.T. (Terror 'N Tinseltown) / Dr. Feelgood
    17 - Kickstart My Heart
    18 - Home Sweet Home
    19 - My Way (Credits)

    [​IMG]

    Formátum: bdrip/avi
    Méret: 1,73 GB
    Felbontás: 720x378
    Mintavételi frekvencia: 48000 Hz
    Bitsebesség: 320 kbps
    Műsoridő: 1:48:08

    Részletes média információ:
    Show Spoiler

    C:\Users\user\Videos\Mötley Crüe - The End - Live in Los Angeles.avi
    General
    Complete name : C:\Users\user\Videos\Mötley Crüe - The End - Live in Los Angeles.avi
    Format : AVI
    Format/Info : Audio Video Interleave
    Format profile : OpenDML
    File size : 1.73 GiB
    Duration : 1 h 48 min
    Overall bit rate : 2 292 kb/s
    Movie name : The End - Live in Los Angeles
    Director : Mötley Crüe
    Genre : Heavy Metal
    Recorded date : 2016
    Writing application : Lavf58.17.100
    Video #0
    ID : 0
    Format : MPEG-4 Visual
    Format profile : Advanced [email protected]
    Format settings, BVOP : 3
    Format settings, QPel : No
    Format settings, GMC : No warppoints
    Format settings, Matrix : Default (H.263)
    Codec ID : DIVX
    Codec ID/Info : Project Mayo
    Codec ID/Hint : DivX 4
    Duration : 1 h 48 min
    Bit rate : 1 959 kb/s
    Width : 720 pixels
    Height : 378 pixels
    Display aspect ratio : 1.905
    Frame rate : 23.976 FPS
    Color space : YUV
    Chroma subsampling : 4:2:0
    Bit depth : 8 bits
    Scan type : Interlaced
    Original scan type : Progressive
    Scan order : Bottom Field First
    Compression mode : Lossy
    Bits/(Pixel*Frame) : 0.300
    Stream size : 1.48 GiB (85%)
    Writing library : Lavc58.19.104
    Audio #1
    ID : 1
    Format : MPEG Audio
    Format version : Version 1
    Format profile : Layer 3
    Codec ID : 55
    Codec ID/Hint : MP3
    Duration : 1 h 48 min
    Bit rate mode : Constant
    Bit rate : 320 kb/s
    Channel(s) : 2 channels
    Sampling rate : 48.0 kHz
    Compression mode : Lossy
    Stream size : 248 MiB (14%)
    Alignment : Aligned on interleaves
    Interleave, duration : 24 ms (0.58 video frame)
    Title : 2.0


    (prémium)
    Rejtett tartalom:
    **Rejtett tartalom: A tartalom megjelenítéséhez kattints a 'Tetszik' gombra.**
     
    őrszem kedveli ezt.
  14. papadi

    papadi Állandó Tag

    [​IMG]

    Mötley Crüe: Greatest Video Hits
    0602498143469 Masters 2000 / Mötley Records, 2003

    01 - Kickstart My Heart
    02 - Same Ol' Situation
    03 - Don't Go Away Mad (Just Go Away)
    04 - Without You
    05 - Wild Side
    06 - Girls, Girls, Girls
    07 - Dr. Feelgood
    08 - Looks That Kill
    09 - Live Wire
    10 - You're All That I Need
    11 - Too Young To Fall In Love
    12 - Primal Scream
    13 - Anarchy In The U.K.
    14 - Afraid
    15 - Smoke The Sky
    16 - Misunderstood
    17 - Enslaved
    18 - Smokin' In The Boys Room
    19 - Hooligan's Holiday
    20 - Hell On High Heels
    21 - Home Sweet Home

    Alternate Videos:
    01 - Girls, Girls, Girls (X-Rated Version)
    02 - Dr. Feelgood (Alternate Version)
    03 - Primal Scream (Uncensored)
    04 - Misunderstood (Uncensored)
    05 - Hell On High Heels (Uncensored)
    06 - Home Sweet Home ('91 Remix)

    Bonus:
    New Interview with Nikki Sixx and Tommy Lee with archive footage

    [​IMG]

    Formátum: dvdrip/avi
    Méret: 2,77 GB + 900 MB
    Felbontás: 720x544, 720x432
    Mintavételi frekvencia: 48000 Hz
    Bitsebesség: 192 kbps
    Műsoridő: 2:04:26+52:21

    Részletes média információ:
    Show Spoiler

    I:\0t\Mötley Crüe\MOTLEY CRUE GREATEST VIDEO HITS [DivX]\01 - Kickstart My Heart (1989).avi
    General
    Complete name : I:\0t\Mötley Crüe\MOTLEY CRUE GREATEST VIDEO HITS [DivX]\01 - Kickstart My Heart (1989).avi
    Format : AVI
    Format/Info : Audio Video Interleave
    File size : 120 MiB
    Duration : 5 min
    Overall bit rate : 3 199 kb/s
    Writing application : VirtualDubMod 1.5.4.1 (build 2178/release)
    Writing library : VirtualDubMod build 2178/release
    Video #0
    ID : 0
    Format : MPEG-4 Visual
    Format settings, BVOP : 1
    Format settings, QPel : No
    Format settings, GMC : No warppoints
    Format settings, Matrix : Default (H.263)
    Muxing mode : Packed bitstream
    Codec ID : DX50
    Codec ID/Hint : DivX 5
    Duration : 5 min
    Bit rate : 2 745 kb/s
    Width : 720 pixels
    Height : 544 pixels
    Display aspect ratio : 4:3
    Frame rate : 25.000 FPS
    Color space : YUV
    Chroma subsampling : 4:2:0
    Bit depth : 8 bits
    Scan type : Progressive
    Compression mode : Lossy
    Bits/(Pixel*Frame) : 0.280
    Stream size : 103 MiB (86%)
    Writing library : DivX 6.1.0 (UTC 2005-12-12)
    Audio #1
    ID : 1
    Format : AC-3
    Format/Info : Audio Coding 3
    Mode extension : CM (complete main)
    Format settings, Endianness : Big
    Codec ID : 2000
    Duration : 5 min
    Bit rate mode : Constant
    Bit rate : 448 kb/s
    Channel(s) : 6 channels
    Channel positions : Front: L C R, Side: L R, LFE
    Sampling rate : 48.0 kHz
    Frame rate : 31.250 FPS (1536 spf)
    Compression mode : Lossy
    Stream size : 16.7 MiB (14%)
    Alignment : Split accross interleaves
    Interleave, duration : 96 ms (2.41 video frames)
    Interleave, preload duration : 96 ms
    Language : English


    (Prémium)
    klippek:
    Rejtett tartalom:
    **Rejtett tartalom: A tartalom megjelenítéséhez kattints a 'Tetszik' gombra.**
    interjú
    Rejtett tartalom:
    **Rejtett tartalom: A tartalom megjelenítéséhez kattints a 'Tetszik' gombra.**
    a klippek vob-ban (720x576) 4,07 GB
    Rejtett tartalom:
    **Rejtett tartalom: A tartalom megjelenítéséhez kattints a 'Tetszik' gombra.**
     
    őrszem kedveli ezt.

Megosztás