Magyar filmek III itt nincs kérés

papadi

Állandó Tag
Állandó Tag
df5f2d0a82d023e854acfe07f56a0872.jpg


Pacsirta
Fekete-fehér magyar dráma (1963)
Főszereplők: Tolnay Klári, Páger Antal, Nagy Anna, Törőcsik Mari, Bara Margit, Latinovits Zoltán, Bessenyei Ferenc, Darvas Iván, Greguss Zoltán, Szakács Sándor
Rendezte: Ranódy László
Magyar filmek gyűjteménye 4.
Fantasy Film, 2006. október 5.

Tartalom a borítóról:
Kosztolányi Dezső regénye a Vajkay család tragikus történetét dolgozza fel. Vajkay Ákos (Páger Antal) és felesége (Tolnay Klári) évek óta abban reménykednek, hogy csúf és szerencsétlen sorsú lányukat, Pacsirtát végre sikerül férjhez adniuk. A család egy ideje szinte ki sem mozdul otthonából, még a tükröket is eltakarják, hogy ne szembesüljenek a valósággal: amíg Pacsirta a nyakukon marad, semmi esélyük a boldog és normális életre. Egy napon a lányt elküldik pár napra a rokonokhoz, hátha sikerül férjet találni ott neki. A magára maradt házaspár előtt hamar kinyílik a világ: ismét összetalálkoznak régi barátaikkal, színházba járnak, társasági életet élnek, de mindvégig ott van bennük a szörnyű tudat, hogy ez a boldogság csak addig tarthat, amíg Pacsirta vissza nem tér a szülői házba...

657494400166fee6dfaae92b491fcd95.jpg


Formátum: dvdrip/avi
Méret: 969 MB
Felbontás: 720x544
Mintavételi frekvencia: 48000 Hz
Bitsebesség: 128 kbps
Műsoridő: 1:36:56

Részletes média információ:
I:\Video\04 - Pacsirta.avi
General
Complete name : I:\Video\04 - Pacsirta.avi
Format : AVI
Format/Info : Audio Video Interleave
File size : 968 MiB
Duration : 1 h 36 min
Overall bit rate : 1 396 kb/s
Writing application : VirtualDubMod 1.5.4.1 (build 2178/release)
Writing library : VirtualDubMod build 2178/release
Video #0
ID : 0
Format : MPEG-4 Visual
Format profile : Advanced [email protected]
Format settings, BVOP : 1
Format settings, QPel : No
Format settings, GMC : No warppoints
Format settings, Matrix : Custom
Codec ID : XVID
Codec ID/Hint : XviD
Duration : 1 h 36 min
Bit rate : 1 261 kb/s
Width : 720 pixels
Height : 544 pixels
Display aspect ratio : 4:3
Frame rate : 25.000 FPS
Color space : YUV
Chroma subsampling : 4:2:0
Bit depth : 8 bits
Scan type : Progressive
Compression mode : Lossy
Bits/(Pixel*Frame) : 0.129
Stream size : 874 MiB (90%)
Writing library : XviD 1.2.1 (UTC 2008-12-04)
Audio #1
ID : 1
Format : MPEG Audio
Format version : Version 1
Format profile : Layer 3
Mode : Joint stereo
Mode extension : MS Stereo
Codec ID : 55
Codec ID/Hint : MP3
Duration : 1 h 36 min
Bit rate mode : Constant
Bit rate : 128 kb/s
Channel(s) : 2 channels
Sampling rate : 48.0 kHz
Compression mode : Lossy
Stream size : 88.8 MiB (9%)
Alignment : Aligned on interleaves
Interleave, duration : 80 ms (2.00 video frames)
Interleave, preload duration : 504 ms
Writing library : LAME3.98r
Encoding settings : -m j -V 4 -q 2 -lowpass 17 -b 128

Kód:
[HIDE-THANKS]https://data.hu/get/11602388/D2108a.rar
[/HIDE-THANKS]
vagy free
[HIDE-THANKS]
Kód:
https://data.hu/get/12424597/04D2108av2.part1.rar
https://data.hu/get/12424600/04D2108av2.part2.rar
https://data.hu/get/12424591/04D2108av2.part3.rar
https://data.hu/get/12424596/04D2108av2.part4.rar
https://data.hu/get/12424589/04D2108av2.part5.rar
https://data.hu/get/12424590/04D2108av2.part6.rar
[/HIDE-THANKS]
 

papadi

Állandó Tag
Állandó Tag
7b206c9793003793d68230592bd29326.jpg


Édes Anna
Fekete-fehér magyar filmdráma (1958)
Főszereplők: Törőcsik Mari, Mezei Mária, Kovács Károly, Fülöp Zsigmond fh.
Rendezte: Fábri Zoltán
Magyar filmek gyűjteménye 8.
Fantasy Film, 2006. október 5.

Tartalom a borítóról:
Vizyék a kommün bukása után igyekeznek úgy folytatni életüket, mint a felfordulás előtt. Felvesznek egy új mindenest, a csendes és szorgalmas Annát. A lánynak udvarlója is akad, a tisztességes kéményseprőfiú, de Anna az úr unokaöccsébe, Jancsiba lesz szerelmes. A férfi elcsábítja a lányt, de többet nem törődik vele, csak akkor, amikor kiderül: terhes. Ekkor pénzt ad a műtétre. Vizyék egy pompázatos vacsorán vendégül látják Jancsit és új barátnőjét. Anna mélységes megaláztatásában éjjel leszúrja a Vizy házaspárt.

26649170c195e240f488ced80d63c31a.jpg


Formátum: dvdrip/avi
Méret: 833 MB
Felbontás: 720x544
Mintavételi frekvencia: 48000 Hz
Bitsebesség: 128 kbps
Műsoridő: 1:23:54

Részletes média információ:
I:\Video\08 - Édes Anna.avi
General
Complete name : I:\Video\08 - Édes Anna.avi
Format : AVI
Format/Info : Audio Video Interleave
File size : 837 MiB
Duration : 1 h 23 min
Overall bit rate : 1 395 kb/s
Writing application : VirtualDubMod 1.5.4.1 (build 2178/release)
Writing library : VirtualDubMod build 2178/release
Video #0
ID : 0
Format : MPEG-4 Visual
Format profile : Advanced [email protected]
Format settings, BVOP : 1
Format settings, QPel : No
Format settings, GMC : No warppoints
Format settings, Matrix : Custom
Codec ID : XVID
Codec ID/Hint : XviD
Duration : 1 h 23 min
Bit rate : 1 260 kb/s
Width : 720 pixels
Height : 544 pixels
Display aspect ratio : 4:3
Frame rate : 25.000 FPS
Color space : YUV
Chroma subsampling : 4:2:0
Bit depth : 8 bits
Scan type : Progressive
Compression mode : Lossy
Bits/(Pixel*Frame) : 0.129
Stream size : 756 MiB (90%)
Writing library : XviD 1.2.1 (UTC 2008-12-04)
Audio #1
ID : 1
Format : MPEG Audio
Format version : Version 1
Format profile : Layer 3
Mode : Joint stereo
Mode extension : MS Stereo
Codec ID : 55
Codec ID/Hint : MP3
Duration : 1 h 23 min
Bit rate mode : Constant
Bit rate : 128 kb/s
Channel(s) : 2 channels
Sampling rate : 48.0 kHz
Compression mode : Lossy
Stream size : 76.8 MiB (9%)
Alignment : Aligned on interleaves
Interleave, duration : 80 ms (2.00 video frames)
Interleave, preload duration : 504 ms
Writing library : LAME3.98r
Encoding settings : -m j -V 4 -q 2 -lowpass 17 -b 128

[HIDE-THANKS]
Kód:
https://data.hu/get/11603216/D2116a.rar
[/HIDE-THANKS]
vagy free
[HIDE-THANKS]
Kód:
https://data.hu/get/12424801/08D2116av2.part1.rar
https://data.hu/get/12424800/08D2116av2.part2.rar
https://data.hu/get/12424797/08D2116av2.part3.rar
https://data.hu/get/12424792/08D2116av2.part4.rar
https://data.hu/get/12424793/08D2116av2.part5.rar
[/HIDE-THANKS]
 

papadi

Állandó Tag
Állandó Tag
676053c3c65dbd053d33ed67e5d8cfb0.jpg


Két félidő a pokolban
Fekete-fehér magyar háborús filmdráma (1961)
Főszereplők: Sinkovits Imre, Garas Dezső, Márkus László, Molnár Tibor, Koltai János fh., Benkő Gyula, Suka Sándor, Gera Zoltán, Velenczey István, Horváth József, Komlós András, Szilágyi Gyula, Végvári Tamás fh., Rajz János, Görbe János, Egri István, Solti Bertalan, Misoga László, Apor Noémi, Fenyő Emil, Brachfeld Siegfried, Maklári János, Farkas Antal, Szendrő József, Bángyörgyi Károly, Iványi József
Rendezte: Fábri Zoltán
Magyar filmek gyűjteménye 9.
Fantasy Film, 2006. október 2.

Tartalom a borítóról:
Valahol Ukrajnában vagyunk. A testileg-lelkileg meggyengült munkaszolgálatosok egy utolsó esélyt kapnak: mivel Hitler születésnapja van, összemérhetik erejüket egy futballmérkőzés keretében a német katonák válogatottjával. A szervezéssel Ónodi II.-t az egykori futballcsillagot bízzák meg, aki eleinte nem akarja elvállalni, hogy megszervezze a mérkőzést. Pedig ez lehet a foglyok utolsó esélye, és a focisták élelmet kapnak és mentesülnek a bányamunka alól is. A meccs ezúttal a túlélésért folyik, és a győzelem nem marad el. Az önfeledt ünneplés közben a német parancsnok tűzparancsot ad a gépfegyvereseknek...

Extrák:
magyar és angol felirat
Ajánló (0:51)

Média információ:

Video:
Kodek: MPEG-1/2 Video (mpgv)
Felbontás: 720x576
Képkockasebesség: 25
Képformátum: 1.37:1 (4:3)

Hang:
Kodek: A52 Audio (aka AC3) (a52)
Csatornák: 3F2R/LFE
Mintavételi frekvencia: 48000 Hz
Bitsebesség: 448 kb/mp

Formátum: iso
Méret: 4,27 GB
Műsoridő: 1:59:17

(prémium)
[HIDE-THANKS]
Kód:
https://data.hu/get/12424794/09D2110i2.part1.rar
https://data.hu/get/12424795/09D2110i2.part2.rar
https://data.hu/get/12424798/09D2110i2.part3.rar
https://data.hu/get/12424796/09D2110i2.part4.rar
https://data.hu/get/12424799/09D2110i2.part5.rar
[/HIDE-THANKS]
 

papadi

Állandó Tag
Állandó Tag
f32a367edbca304a8ce03da112637a06.jpg


Idő van
Magyar filmdráma (1985)
Főszereplők: Lázár Kati, Zala Márk, Ruttkai Éva, Bitskey Tibor, Cseh Tamás, Bodrogi Gyula, Básti Juli, Kern András
Rendezte: Gothár Péter
Magyar filmek gyűjteménye 16.
Fantasy Film, 2007. január 12.

Tartalom a borítóról:
Halasi Mihály igazi magyar átlagember a '80-as évekből, aki pár hétre otthagyja a gyárat, bepattan a Trabantba feleségével és két gyerekével, aztán irány a vállalati üdülő. Még az M7-esre sem jut ki, amikor egy apró kellemetlenség kizökkenti az eseményeket a normális kerékvágásból. Misi rájön, hogy bent felejtette a gyárban a nemrég vásárolt vibrátort. Ettől kezdve útja kaotikus sodródás egy abszurd, kafkai világban: portásokkal vív fegyveres összecsapást, felesége bizarr betegsége ellen küzd, kórházi folyosók labirintusaiban kóvályog, szadista ellenőrnő áldozatául esik. Kálváriájában hősünk szenvedéseit anyja és testvére sem tudja enyhíteni. Egyedül kell megértenie, hogy élete nem fog önmagától értelmes történetté összeállni. Az embernek magának kell a lét komikus-fájdalmas összevisszaságában találni egy vezérfonalat, mely számára igazán lényeges - méghozzá sürgősen, mert: "Idő van".

Extrák:
angol és magyar felirat
Ajánló (1:41)

Média információ:

Video:
Kodek: MPEG-1/2 Video (mpgv)
Felbontás: 720x576
Képkockasebesség: 25
Képformátum: 1.37:1 (4:3)

Hang:
Kodek: A52 Audio (aka AC3) (a52)
Csatornák: 3F2R/LFE
Mintavételi frekvencia: 48000 Hz
Bitsebesség: 448 kb/mp

Formátum: iso
Méret: 4,34 GB
Műsoridő: 1:40:53

(prémium)
[HIDE-THANKS]
Kód:
https://data.hu/get/12425105/16D2412i2.part1.rar
https://data.hu/get/12425107/16D2412i2.part2.rar
https://data.hu/get/12425106/16D2412i2.part3.rar
https://data.hu/get/12425101/16D2412i2.part4.rar
https://data.hu/get/12425108/16D2412i2.part5.rar
[/HIDE-THANKS]
 

papadi

Állandó Tag
Állandó Tag
a433c1662d2e24fc03d76b960ca736c4.jpg


Én vagyok Jeromos
Magyar vígjáték (1970)
Főszereplők: Alfonzó, Kállai Ferenc, Psota Irén, Harsányi Gábor, Pálos Zsuzsa, Bujtor István
Rendezte: Tímár István
Magyar filmek gyűjteménye 18.
Fantasy Film, 2007. január 12.

Tartalom a borítóról:
A Katona-házaspár régi álma, hogy végre valaki rendbe hozza a kertjük végében éktelenkedő pöcegödröt. Amikor egy reggel arra ébrednek, hogy a Fenntartó Vállalat dolgozója csönget be hozzájuk, felcsillan a remény. Jeromos úr és fia, Zserom munkamorálja azonban siralmas, hiába birtokolják már évek óta az állami vándorzászlót. A sör fogy, a táskarádióból üvölt a zene, a fű pedig lassacskán kikopik a pihenő munkások alatt, akik "modellt alszanak" az amatőr festő Katonánénak. A gödör viszont marad. Végül Katonáné és az asszisztens, Juditka bevetik magukat az ügy érdekében. Divatos bikinijük és kitűnő csirkepaprikásuk - némi jóféle házi pálinkával kísérve persze - meghozza a várt eredményt. A dolgozók munkakedve oly mértékben megjavul, hogy egyetlen éjszaka leforgása alatt elkészül a vadonatúj pöcegödör.

328fa6dca86f337d4a661f6afc5ddee7.jpg


Formátum: dvdrip/avi
Méret: 733 MB
Felbontás: 720x416
Mintavételi frekvencia: 48000 Hz
Bitsebesség: 128 kbps
Műsoridő: 1:13:12

Részletes média információ:
I:\Video\18 - Én vagyok Jeromos.avi
General
Complete name : I:\Video\18 - Én vagyok Jeromos.avi
Format : AVI
Format/Info : Audio Video Interleave
File size : 732 MiB
Duration : 1 h 13 min
Overall bit rate : 1 398 kb/s
Writing application : VirtualDubMod 1.5.4.1 (build 2178/release)
Writing library : VirtualDubMod build 2178/release
Video #0
ID : 0
Format : MPEG-4 Visual
Format profile : Advanced [email protected]
Format settings, BVOP : 1
Format settings, QPel : No
Format settings, GMC : No warppoints
Format settings, Matrix : Custom
Codec ID : XVID
Codec ID/Hint : XviD
Duration : 1 h 13 min
Bit rate : 1 263 kb/s
Width : 720 pixels
Height : 416 pixels
Display aspect ratio : 1.731
Frame rate : 25.000 FPS
Color space : YUV
Chroma subsampling : 4:2:0
Bit depth : 8 bits
Scan type : Progressive
Compression mode : Lossy
Bits/(Pixel*Frame) : 0.169
Stream size : 661 MiB (90%)
Writing library : XviD 1.2.1 (UTC 2008-12-04)
Audio #1
ID : 1
Format : MPEG Audio
Format version : Version 1
Format profile : Layer 3
Mode : Joint stereo
Mode extension : MS Stereo
Codec ID : 55
Codec ID/Hint : MP3
Duration : 1 h 13 min
Bit rate mode : Constant
Bit rate : 128 kb/s
Channel(s) : 2 channels
Sampling rate : 48.0 kHz
Compression mode : Lossy
Stream size : 67.0 MiB (9%)
Alignment : Aligned on interleaves
Interleave, duration : 80 ms (2.00 video frames)
Interleave, preload duration : 504 ms
Writing library : LAME3.98r
Encoding settings : -m j -V 4 -q 2 -lowpass 17 -b 128

[HIDE-THANKS]
Kód:
https://data.hu/get/11606924/D2413a.rar
[/HIDE-THANKS]
vagy free
[HIDE-THANKS]
Kód:
https://data.hu/get/12425110/18D2413av2.part1.rar
https://data.hu/get/12425112/18D2413av2.part2.rar
https://data.hu/get/12425111/18D2413av2.part3.rar
https://data.hu/get/12425102/18D2413av2.part4.rar
[/HIDE-THANKS]
 

papadi

Állandó Tag
Állandó Tag
f406a843846eb83fd94886fb363205de.jpg


Talpuk alatt fütyül a szél
Magyar betyárfilm (1976)
Főszereplők: Djoko Rosic (Besaenyei Ferenc), Bujtor István, Vladan Holec (Cserhalmi György)
Rendezte: Szomjas György
Magyar filmek gyűjteménye 23.
Fantasy Film, 2007. január 12.

Tartalom a borítóról:
1837-ben járunk. Karcag városának elöljárói határtalan pénzéhségükben habozás nélkül feldúlják a város melletti, érintetlen pusztákat és megzavarják az ott legeltető pásztorok ősi életvitelét. Farkas Csapó Gyurka, a hírhedt betyár képes lenne megvédeni a puszta rendjét, de vajon kiállhatnak-e egy tömlöcből szökött rablógyilkos mellett a pusztaiak? Különösen nehéz kérdés ez Mérges Balázs csendbiztos számára, aki Gyurka legfőbb ellensége - mégis egyetlen igaz barátja. Egészen addig, míg egy betyárvezér meggyilkolását nem varrják a nyakába. Vérdíjat tűznek ki a fejére, s miután leszámolt ellenfelével, a pásztorok juttatják Gyurkát csendőrkézre és bitófára.

64db06d2749e12ce569645f3e1ea33dc.jpg


Formátum: dvdrip/avi
Méret: 871 MB
Felbontás: 720x544
Mintavételi frekvencia: 48000 Hz
Bitsebesség: 128 kbps
Műsoridő: 1:27:17

Részletes média információ:
I:\Video\23 - Talpuk alatt fütyül a szél.avi
General
Complete name : I:\Video\23 - Talpuk alatt fütyül a szél.avi
Format : AVI
Format/Info : Audio Video Interleave
File size : 870 MiB
Duration : 1 h 27 min
Overall bit rate : 1 394 kb/s
Writing application : VirtualDubMod 1.5.4.1 (build 2178/release)
Writing library : VirtualDubMod build 2178/release
Video #0
ID : 0
Format : MPEG-4 Visual
Format profile : Advanced [email protected]
Format settings, BVOP : 1
Format settings, QPel : No
Format settings, GMC : No warppoints
Format settings, Matrix : Custom
Codec ID : XVID
Codec ID/Hint : XviD
Duration : 1 h 27 min
Bit rate : 1 259 kb/s
Width : 720 pixels
Height : 544 pixels
Display aspect ratio : 4:3
Frame rate : 25.000 FPS
Color space : YUV
Chroma subsampling : 4:2:0
Bit depth : 8 bits
Scan type : Progressive
Compression mode : Lossy
Bits/(Pixel*Frame) : 0.129
Stream size : 786 MiB (90%)
Writing library : XviD 1.2.1 (UTC 2008-12-04)
Audio #1
ID : 1
Format : MPEG Audio
Format version : Version 1
Format profile : Layer 3
Mode : Joint stereo
Mode extension : MS Stereo
Codec ID : 55
Codec ID/Hint : MP3
Duration : 1 h 27 min
Bit rate mode : Constant
Bit rate : 128 kb/s
Channel(s) : 2 channels
Sampling rate : 48.0 kHz
Compression mode : Lossy
Stream size : 79.9 MiB (9%)
Alignment : Aligned on interleaves
Interleave, duration : 80 ms (2.00 video frames)
Interleave, preload duration : 504 ms
Writing library : LAME3.98r
Encoding settings : -m j -V 4 -q 2 -lowpass 17 -b 128

[HIDE-THANKS]
Kód:
https://data.hu/get/11608307/D2416a.rar
[/HIDE-THANKS]
vagy free
[HIDE-THANKS]
Kód:
https://data.hu/get/12425103/23D2416av2.part1.rar
https://data.hu/get/12425114/23D2416av2.part2.rar
https://data.hu/get/12425109/23D2416av2.part3.rar
https://data.hu/get/12425113/23D2416av2.part4.rar
https://data.hu/get/12425104/23D2416av2.part5.rar
[/HIDE-THANKS]
 

papadi

Állandó Tag
Állandó Tag
b1c1a196351a7db80c3b4d470af53376.jpg


Uramisten
Magyar film (1984)
Főszereplők: Feleki Kamill, Eperjes Károly, Dörner György, Csákányi László, Garas Dezső, Tábori Nóra, Nyakó Júlia, Papp Vera, Tarján Györgyi, Ujlaki Dénes
Rendezte: Gárdos Péter
Magyar filmek gyűjteménye 25.
Fantasy Film, 2006. október 26.

Tartalom a borítóról:
Sajek Oszkár (Eperjes Károly) cirkuszi akrobata, egy szerencsétlen baleset következtében kénytelen abbahagyni hordós ugrómutatványát. Új számot kell keresnie, és ő tudja is, mihez volna kedve. Az öreg szabaduló művész, Binder Lipót (Feleki Kamill) hajdani attrakcióját, "A Jégbe Zárt Ember" trükkjét szeretné megvásárolni. Egyetlen vágya, hogy ő is képes legyen órákat tölteni levegő nélkül, egy fagyos jégtömbbe zárva. E titok megfejtésére tesz fel mindent, ami az életben számára fontos. Lipi bácsi azonban makacs ember, ráadásul kegyetlen is. Kiélvezi a fiatalember rajongó érdeklődését, megalázkodó könyörgését, miközben esze ágában sincs elárulni a trükköt. Vajon ez a végletekig hiú ember a sírba is magával viszi a világszám titkát?

Extrák:
angol és magyar felirat
Exluzív interjú Gárdos Péterrel pályájáról, filmjeiről (14:34)
Gárdos Péter az Uramisten! forgatásáról (
Gárdos Péter filmográfia
Ajánló (2:31)

Média információ:

Video:
Kodek: MPEG-1/2 Video (mpgv)
Felbontás: 720x576
Képkockasebesség: 25
Képformátum: 1.37:1 (4:3)

Hang:
Kodek: A52 Audio (aka AC3) (a52)
Csatornák: 3F2R/LFE
Mintavételi frekvencia: 48000 Hz
Bitsebesség: 448 kb/mp

Formátum: iso
Méret: 6,04 GB
Műsoridő: 1:29:41 (2:09:49)

(prémium)
[HIDE-THANKS]
Kód:
https://data.hu/get/12425235/25D2418i2.part1.rar
https://data.hu/get/12425238/25D2418i2.part2.rar
https://data.hu/get/12425239/25D2418i2.part3.rar
https://data.hu/get/12425234/25D2418i2.part4.rar
https://data.hu/get/12425237/25D2418i2.part5.rar
https://data.hu/get/12425236/25D2418i2.part6.rar
[/HIDE-THANKS]
 

papadi

Állandó Tag
Állandó Tag
5c90521853a644f21616ef2ababf463b.jpg


Eldorádó
Magyar filmdráma (1988)
Főszereplők: Eperjes Károly, Pogány Judit, Eszenyi Enikő, Andorai Péter, Balkay Géza
Rendezte: Bereményi Géza
Magyar filmek gyűjteménye 26.
Fantasy Film, 2006. október 26.

Tartalom a borítóról:
1945. Monori Sándor (Eperjes Károly) a Teleki téri piac királya, akit mindenki Sanyi bácsiként tisztel. Ő az, aki fittyet hány arra, milyen a politikai rendszer, hiszen számára egyetlen törvény létezik: arannyal mindent és mindenkit meg lehet vásárolni. Amikor lánya terhesen tér haza Bécsből, Monori két marék ékszer árán szabadul meg vejétől, hogy születendő unokáját maga nevelhesse fel, és megtanítsa arra, hogyan lehet ebben az országban túlélni - akár egy halálosnak hitt betegséget is. 1956-ban aztán mindent elkövet, hogy családját külföldre juttassa, de úgy tűnik, ekkor már az arany is kevés a túléléshez...

Extrák:
magyar felirat
Ajánló (1:41)

Média információ:

Video:
Kodek: MPEG-1/2 Video (mpgv)
Felbontás: 720x576
Képkockasebesség: 25
Képformátum: 1.37:1 (4:3)

Hang:
Kodek: A52 Audio (aka AC3) (a52)
Csatornák: 3F2R/LFE
Mintavételi frekvencia: 48000 Hz
Bitsebesség: 448 kb/mp

Formátum: iso
Méret: 4,06 GB
Műsoridő: 1:39:07

(prémium)
[HIDE-THANKS]
Kód:
https://data.hu/get/12425293/26D2419i2.part1.rar
https://data.hu/get/12425288/26D2419i2.part2.rar
https://data.hu/get/12425294/26D2419i2.part3.rar
https://data.hu/get/12425289/26D2419i2.part4.rar
[/HIDE-THANKS]

7d6caa18ce65efb0522f27de52880353.jpg


Formátum: dvdrip/avi
Méret: 991 MB
Felbontás: 720x544
Mintavételi frekvencia: 48000 Hz
Bitsebesség: 128 kbps
Műsoridő: 1:39:06

Részletes média információ:
I:\Video\26 - Eldorádó.avi
General
Complete name : I:\Video\26 - Eldorádó.avi
Format : AVI
Format/Info : Audio Video Interleave
File size : 990 MiB
Duration : 1 h 39 min
Overall bit rate : 1 397 kb/s
Writing application : VirtualDubMod 1.5.4.1 (build 2178/release)
Writing library : VirtualDubMod build 2178/release
Video #0
ID : 0
Format : MPEG-4 Visual
Format profile : Advanced [email protected]
Format settings, BVOP : 1
Format settings, QPel : No
Format settings, GMC : No warppoints
Format settings, Matrix : Custom
Codec ID : XVID
Codec ID/Hint : XviD
Duration : 1 h 39 min
Bit rate : 1 262 kb/s
Width : 720 pixels
Height : 544 pixels
Display aspect ratio : 4:3
Frame rate : 25.000 FPS
Color space : YUV
Chroma subsampling : 4:2:0
Bit depth : 8 bits
Scan type : Progressive
Compression mode : Lossy
Bits/(Pixel*Frame) : 0.129
Stream size : 894 MiB (90%)
Writing library : XviD 1.2.1 (UTC 2008-12-04)
Audio #1
ID : 1
Format : MPEG Audio
Format version : Version 1
Format profile : Layer 3
Mode : Joint stereo
Mode extension : MS Stereo
Codec ID : 55
Codec ID/Hint : MP3
Duration : 1 h 39 min
Bit rate mode : Constant
Bit rate : 128 kb/s
Channel(s) : 2 channels
Sampling rate : 48.0 kHz
Compression mode : Lossy
Stream size : 90.7 MiB (9%)
Alignment : Aligned on interleaves
Interleave, duration : 80 ms (2.00 video frames)
Interleave, preload duration : 504 ms
Writing library : LAME3.98r
Encoding settings : -m j -V 4 -q 2 -lowpass 17 -b 128

[HIDE-THANKS]
Kód:
https://data.hu/get/11609734/D2419a.rar
[/HIDE-THANKS]
vagy free
[HIDE-THANKS]
Kód:
https://data.hu/get/12425287/26D2419av2.part1.rar
https://data.hu/get/12425292/26D2419av2.part2.rar
https://data.hu/get/12425290/26D2419av2.part3.rar
https://data.hu/get/12425296/26D2419av2.part4.rar
https://data.hu/get/12425295/26D2419av2.part5.rar
https://data.hu/get/12425291/26D2419av2.part6.rar
[/HIDE-THANKS]

Linktörlődés miatt újratöltve, a sorozat többi filmje pár oldallal előbbre.
 

papadi

Állandó Tag
Állandó Tag
Indul a bakterház

bf05e428318299859a7fa7d1dbd1e484.jpg


Indul a bakterház
Magyar vígjáték (1979)
Főszereplők: Olvasztó Imre, Koltai Róbert, Horváth Teri, Haumann Péter, Pécsi Ildikó, Bánhidi László, Csákányi László
Rendezte: Mihályfy Sándor
MTV / MOKÉP, MOKÉP 015, 2003. április 8.

Regős Bendegúzt anyja szolgálni küldi a lókupechez, akitől a fiú megszökik. A bakterhez keveredik, s itt kezdődnek el a vidám bonyodalmak. (a borítóról)

Extrák:
Rendezői kommentár
Rideg Sándor bibliográfia
Mihályfy Sándor filmográfia
Interjú - Ahogy a színész emlékezik (7:58)
Mert hasonlítanak! - Két könyv, két kamasz (Ábel a rengetegben - filmrészletek) (5:30)
Kölyökfilmek és jófej kölykök - filmrészletek:
Hahó Öcsi (1:09)
Égigérő fű (2:33)
Hahó a tenger (1:25)
Gyerekrablás a Palánk utcában (1:00)

Média információ:

Video:
Kodek: MPEG-1/2 Video (mpgv)
Felbontás: 720x576
Képkockasebesség: 25
Képformátum: 1.33:1 (4:3)

Hang:
Kodek: A52 Audio (aka AC3) (a52)
Csatornák: Sztereó
Mintavételi frekvencia: 48000 Hz
Bitsebesség: 192 kb/mp

Formátum: iso
Méret: 4,16 GB
Műsoridő: 1:06:10 (1:25:45)

(prémium)
[HIDE-THANKS]
Kód:
https://data.hu/get/12434088/D0690i2.part1.rar
https://data.hu/get/12434096/D0690i2.part2.rar
https://data.hu/get/12434083/D0690i2.part3.rar
https://data.hu/get/12434085/D0690i2.part4.rar
https://data.hu/get/12434084/D0690i2.part5.rar
[/HIDE-THANKS]

adadd15509318834ef534959c90b9ca6.jpg


Formátum: dvdrip/avi
Méret: 880 MB
Felbontás: 720x544
Mintavételi frekvencia: 48000 Hz
Bitsebesség: 128 kbps
Műsoridő: 1:06:10

Részletes média információ:
I:\Video\Indul a bakterház.avi
General
Complete name : I:\Video\Indul a bakterház.avi
Format : AVI
Format/Info : Audio Video Interleave
File size : 879 MiB
Duration : 1 h 6 min
Overall bit rate : 1 856 kb/s
Writing application : VirtualDubMod 1.5.4.1 (build 2178/release)
Writing library : VirtualDubMod build 2178/release
Video #0
ID : 0
Format : MPEG-4 Visual
Format profile : Advanced [email protected]
Format settings, BVOP : 1
Format settings, QPel : No
Format settings, GMC : No warppoints
Format settings, Matrix : Custom
Codec ID : XVID
Codec ID/Hint : XviD
Duration : 1 h 6 min
Bit rate : 1 590 kb/s
Width : 720 pixels
Height : 544 pixels
Display aspect ratio : 4:3
Frame rate : 25.000 FPS
Color space : YUV
Chroma subsampling : 4:2:0
Bit depth : 8 bits
Scan type : Progressive
Compression mode : Lossy
Bits/(Pixel*Frame) : 0.162
Stream size : 753 MiB (86%)
Writing library : XviD 1.2.1 (UTC 2008-12-04)
Audio #1
ID : 1
Format : MPEG Audio
Format version : Version 1
Format profile : Layer 3
Mode : Joint stereo
Mode extension : MS Stereo
Codec ID : 55
Codec ID/Hint : MP3
Duration : 1 h 6 min
Bit rate mode : Constant
Bit rate : 128 kb/s
Channel(s) : 2 channels
Sampling rate : 48.0 kHz
Compression mode : Lossy
Stream size : 60.6 MiB (7%)
Alignment : Aligned on interleaves
Interleave, duration : 80 ms (2.00 video frames)
Interleave, preload duration : 504 ms
Writing library : LAME3.98r
Encoding settings : -m j -V 4 -q 2 -lowpass 17 -b 128
Audio #2
ID : 2
Format : MPEG Audio
Format version : Version 1
Format profile : Layer 3
Mode : Joint stereo
Mode extension : MS Stereo
Codec ID : 55
Codec ID/Hint : MP3
Duration : 1 h 6 min
Bit rate mode : Constant
Bit rate : 128 kb/s
Channel(s) : 2 channels
Sampling rate : 48.0 kHz
Compression mode : Lossy
Stream size : 60.6 MiB (7%)
Alignment : Aligned on interleaves
Interleave, duration : 80 ms (2.00 video frames)
Interleave, preload duration : 504 ms
Writing library : LAME3.98r
Encoding settings : -m j -V 4 -q 2 -lowpass 17 -b 128

prémium
[HIDE-THANKS]
Kód:
https://data.hu/get/12434090/D0690a2.rar
[/HIDE-THANKS]
vagy free
[HIDE-THANKS]
Kód:
https://data.hu/get/12434091/D0690a2v.part1.rar
https://data.hu/get/12434092/D0690a2v.part2.rar
https://data.hu/get/12434089/D0690a2v.part3.rar
https://data.hu/get/12434087/D0690a2v.part4.rar
https://data.hu/get/12434086/D0690a2v.part5.rar
[/HIDE-THANKS]

Linktörlődések miatt újratöltve.
 

papadi

Állandó Tag
Állandó Tag
Egy bolond százat csinál - 2x (1942, 2006)

94da03d8d34103e8c1dc8d773de570f1.jpg


Egy bolond százat csinál
Fekete-fehér magyar film (1942/2005)
Főszereplők: Latabár Kálmán, Benkő Gyula, Egry Mária, Hidvéghy Valéria, Rajnay Gábor, Halmay Tibor, Raffay Banka, Mály Gerő
Rendezte: Martonffy Emil
Magyar klasszikusok 6.

Ajánló a borítóról:
Vadássz a főpincérre!
Vajon mit kezdjen magával az az ember, aki hirtelen kénytelen búcsút mondani addigi megbízható főpincéri állásának? Helyezkedjen el máshol? Nézzen magának másfajta elfoglaltságot? Dömötör (Latabár Kálmán), az ex-főpincér és karmester „kollégája” (Benkő Gyula) kapnak az alkalmon és visszatérnek addigi munkahelyükre, a mulatóba, ahol immár vendégként veszik szemügyre a szórakoztató intézményt, sőt az addig tálcákkal szaladgáló hősünk egy világhírű oroszlánvadásszal, gróf Rog-Igor-Szju-Azerew-vel (Latabár Kálmán) való hasonlatosságát kihasználva álszakállt ragasztva nemesnek adja ki magát.
A trükk egészen jól működik, senki sem leplezi le az „álnemest” - egészen addig, amíg meg nem érkezik maga a rettenthetetlen (és valódi) afrikai vadász…
A helyzetkomikum fergeteges mestere, Latabár Kálmán 1943 tavaszán szinte ugyanabban az időben két különböző vígjátékkal, az Egy szoknya, egy nadrággal és az Egy bolond százat csinál-lal jelentkezett: ez utóbbi Szüle Mihály igen sikeres és még ma is nagyon népszerű színdarabjából készült, és nem csupán az akkori, a világháború árnyékában nevető, de a mai közönség számára is igazi kikapcsolódást, remek szórakozást jelent.


Média információ:

Video:
Kodek: MPEG-1/2 Video (mpgv)
Felbontás: 704x576
Képkockasebesség: 25
Képformátum: 1.33:1 (4:3)

Hang:
Kodek: A52 Audio (aka AC3) (a52)
Csatornák: Sztereó
Mintavételi frekvencia: 48000 Hz
Bitsebesség: 256 kb/mp

Formátum: iso
Méret: 3,92 GB
Műsoridő: 1:19:50

Megjeyzések:
a Magyar klasszikusok sorozat első 23 filmjénél a képfájl VLC-vel való lejátszásánál nálam egy apró trükköt kellett alkalmazni: a figyelmeztető szöveg alatt Lejátszás -> Cím menűben átlépés 2. címre.
A film után - mint egykor a VHS-en - közel 5 perc üres rész van.

(prémium)
[HIDE-THANKS]
Kód:
https://data.hu/get/12442077/D0449i2.part1.rar
https://data.hu/get/12442079/D0449i2.part2.rar
https://data.hu/get/12442071/D0449i2.part3.rar
https://data.hu/get/12442067/D0449i2.part4.rar
[/HIDE-THANKS]

A remake 2006-ból:
0c51a04f9b60ecc134debfa995eadb69.jpg


Egy bolond százat csinál
Magyar vígjáték (2006)
Főszereplők: Gáspár Sándor, Szabó Győző, Gesztesi Károly, Oroszlán Szonja, Parti Nóra, Ullmann Mónika, Mucsi Zoltán, Scherer Péter, Bezerédi Zoltán, Badár Sándor
Rendező: Gyöngyössy Bence
Műsoridő: 1:35:44
Felirat: magyar, angol

Ajánló a borítóról:
Be fogsz kattanni!
László Dömötör anyakönyvvezető (Gáspár Sándor) válása után elszántan próbál új életet kezdeni, új szerelemre találni. Amikor azonban volt felesége elkobozza tőle a kis Suzukit és leépítésre hivatkozva főnöke is kirúgja, rászakad a világ. Összepakol, ám mielőtt végleg elhagyná a boldogtalan igenek színterét, megpillant a tévében egy tudósítást Lázár Norbertről, aki megszólalásig hasonlít rá. Hasonmása feltörekvő, a szürkegazdaságban tevékenykedő újgazdag, s meg nem erősített hírek szerint egy vadászbalesetben odaveszett Afrikában. Dömötör életvidám barátja Béci (Szabó Győző), a nőbolond fagyis elviszi egy éjszakai bárba feledni a csapásokat és megünnepelni barátja születésnapját. Itt azonban Dömötört hamarosan felismerik mint Lázár Norbit, és elkezdődik egy őrült kavalkád: szerepcserék, összekuszált szerelmek, egy bolond… még egy bolond… mind bolond!


Extrák:
Előzetes (2:22)
TV-Spot (0:32)
Így készült… (21:13)
Kimaradt jelenetek (14:44)
Klip - Balássy Betti és Varga Ferenc: Egy bolond százat csinál (3:50)
Bakiparádé (3:35)
Fotógaléria (3:21)
Honlapajánló
Támogatók (1:36)

Média információ:

Video:
Kodek: MPEG-1/2 Video (mpgv)
Felbontás: 720x576
Képkockasebesség: 25
Képformátum: 1.33:1 (4:3)

Hang:
Kodek: A52 Audio (aka AC3) (a52)
Csatornák: Sztereó
Mintavételi frekvencia: 48000 Hz
Bitsebesség: 192 kb/mp

Formátum: iso
Méret: 7,28 GB
Műsoridő: 1:35:44 (2:27:45)

(prémium)
[HIDE-THANKS]
Kód:
https://data.hu/get/11156218/D2197i.part01.rar
https://data.hu/get/11156202/D2197i.part02.rar
https://data.hu/get/11156222/D2197i.part03.rar
https://data.hu/get/11156209/D2197i.part04.rar
https://data.hu/get/11156211/D2197i.part05.rar
https://data.hu/get/11156215/D2197i.part06.rar
https://data.hu/get/11156217/D2197i.part07.rar
https://data.hu/get/11156214/D2197i.part08.rar
https://data.hu/get/11156210/D2197i.part09.rar
https://data.hu/get/11156219/D2197i.part10.rar
https://data.hu/get/11156201/D2197i.part11.rar
[/HIDE-THANKS]
 

papadi

Állandó Tag
Állandó Tag
94da03d8d34103e8c1dc8d773de570f1.jpg


Egy bolond százat csinál
Fekete-fehér magyar film (1942/2005)
Főszereplők: Latabár Kálmán, Benkő Gyula, Egry Mária, Hidvéghy Valéria, Rajnay Gábor, Halmay Tibor, Raffay Banka, Mály Gerő
Rendezte: Martonffy Emil
Magyar klasszikusok 6.

Ajánló a borítóról:
Vadássz a főpincérre!
Vajon mit kezdjen magával az az ember, aki hirtelen kénytelen búcsút mondani addigi megbízható főpincéri állásának? Helyezkedjen el máshol? Nézzen magának másfajta elfoglaltságot? Dömötör (Latabár Kálmán), az ex-főpincér és karmester „kollégája” (Benkő Gyula) kapnak az alkalmon és visszatérnek addigi munkahelyükre, a mulatóba, ahol immár vendégként veszik szemügyre a szórakoztató intézményt, sőt az addig tálcákkal szaladgáló hősünk egy világhírű oroszlánvadásszal, gróf Rog-Igor-Szju-Azerew-vel (Latabár Kálmán) való hasonlatosságát kihasználva álszakállt ragasztva nemesnek adja ki magát.
A trükk egészen jól működik, senki sem leplezi le az „álnemest” - egészen addig, amíg meg nem érkezik maga a rettenthetetlen (és valódi) afrikai vadász…
A helyzetkomikum fergeteges mestere, Latabár Kálmán 1943 tavaszán szinte ugyanabban az időben két különböző vígjátékkal, az Egy szoknya, egy nadrággal és az Egy bolond százat csinál-lal jelentkezett: ez utóbbi Szüle Mihály igen sikeres és még ma is nagyon népszerű színdarabjából készült, és nem csupán az akkori, a világháború árnyékában nevető, de a mai közönség számára is igazi kikapcsolódást, remek szórakozást jelent.


362b78f04cecf05515b8028f6c40233d.jpg


Formátum: dvdrip/avi
Méret: 841 MB
Felbontás: 720x512
Mintavételi frekvencia: 48000 Hz
Bitsebesség: 128 kbps
Műsoridő: 1:19:50

Részletes média információ:
I:\0001\rar\0449 - Egy bolond százat csinál\Egy bolond százat csinál.avi
General
Complete name : I:\0001\rar\0449 - Egy bolond százat csinál\Egy bolond százat csinál.avi
Format : AVI
Format/Info : Audio Video Interleave
File size : 838 MiB
Duration : 1 h 19 min
Overall bit rate : 1 468 kb/s
Video #0
ID : 0
Format : MPEG-4 Visual
Format profile : Advanced [email protected]
Format settings, BVOP : 1
Format settings, QPel : No
Format settings, GMC : No warppoints
Format settings, Matrix : Default (H.263)
Codec ID : XVID
Codec ID/Hint : XviD
Duration : 1 h 19 min
Bit rate : 1 323 kb/s
Width : 720 pixels
Height : 512 pixels
Display aspect ratio : 1.406
Frame rate : 25.000 FPS
Color space : YUV
Chroma subsampling : 4:2:0
Bit depth : 4 bits
Scan type : Progressive
Compression mode : Lossy
Bits/(Pixel*Frame) : 0.144
Stream size : 755 MiB (90%)
Writing library : XviD 1.2.1 (UTC 2008-12-04)
Audio #1
ID : 1
Format : MPEG Audio
Format version : Version 1
Format profile : Layer 3
Mode : Joint stereo
Mode extension : MS Stereo
Codec ID : 55
Codec ID/Hint : MP3
Duration : 1 h 19 min
Bit rate mode : Constant
Bit rate : 128 kb/s
Channel(s) : 2 channels
Sampling rate : 48.0 kHz
Compression mode : Lossy
Delay relative to video : 16 ms
Stream size : 73.1 MiB (9%)
Alignment : Split accross interleaves
Interleave, duration : 24 ms (0.60 video frame)
Interleave, preload duration : 16 ms
Writing library : LAME3.98.2

prémium
[HIDE-THANKS]
Kód:
https://data.hu/get/12442078/D0449a2.rar
[/HIDE-THANKS]
vagy free
[HIDE-THANKS]
Kód:
https://data.hu/get/12442076/D0449av2.part1.rar
https://data.hu/get/12442075/D0449av2.part2.rar
https://data.hu/get/12442072/D0449av2.part3.rar
https://data.hu/get/12442065/D0449av2.part4.rar
https://data.hu/get/12442069/D0449av2.part5.rar
[/HIDE-THANKS]

A remake 2006-ból:
0c51a04f9b60ecc134debfa995eadb69.jpg


Egy bolond százat csinál
Magyar vígjáték (2006)
Főszereplők: Gáspár Sándor, Szabó Győző, Gesztesi Károly, Oroszlán Szonja, Parti Nóra, Ullmann Mónika, Mucsi Zoltán, Scherer Péter, Bezerédi Zoltán, Badár Sándor
Rendező: Gyöngyössy Bence
Műsoridő: 1:35:44
Felirat: magyar, angol

Ajánló a borítóról:
Be fogsz kattanni!
László Dömötör anyakönyvvezető (Gáspár Sándor) válása után elszántan próbál új életet kezdeni, új szerelemre találni. Amikor azonban volt felesége elkobozza tőle a kis Suzukit és leépítésre hivatkozva főnöke is kirúgja, rászakad a világ. Összepakol, ám mielőtt végleg elhagyná a boldogtalan igenek színterét, megpillant a tévében egy tudósítást Lázár Norbertről, aki megszólalásig hasonlít rá. Hasonmása feltörekvő, a szürkegazdaságban tevékenykedő újgazdag, s meg nem erősített hírek szerint egy vadászbalesetben odaveszett Afrikában. Dömötör életvidám barátja Béci (Szabó Győző), a nőbolond fagyis elviszi egy éjszakai bárba feledni a csapásokat és megünnepelni barátja születésnapját. Itt azonban Dömötört hamarosan felismerik mint Lázár Norbit, és elkezdődik egy őrült kavalkád: szerepcserék, összekuszált szerelmek, egy bolond… még egy bolond… mind bolond!


Az extrákból:
Balássy Betti és Varga Ferenc: Egy bolond százat csinál (3:50)

37021e35e312d2a5829bc5e04d6f4a79.jpg


Formátum: dvdrip/avi
Méret: 1,08 GB
Felbontás: 720x400
Mintavételi frekvencia: 48000 Hz
Bitsebesség: 128 kbps
Műsoridő: 1:39:34+3:50

Részletes média információ:
I:\0000\D2197a\D2197a\Egy bolond százat csinál (2006)\1 - Egy bolond százat csinál (2006).avi
General
Complete name : I:\0000\D2197a\D2197a\Egy bolond százat csinál (2006)\1 - Egy bolond százat csinál (2006).avi
Format : AVI
Format/Info : Audio Video Interleave
File size : 1.03 GiB
Duration : 1 h 35 min
Overall bit rate : 1 542 kb/s
Writing application : VirtualDubMod 1.5.4.1 (build 2178/release)
Writing library : VirtualDubMod build 2178/release
Video #0
ID : 0
Format : MPEG-4 Visual
Format profile : Advanced [email protected]
Format settings, BVOP : 1
Format settings, QPel : No
Format settings, GMC : No warppoints
Format settings, Matrix : Custom
Codec ID : XVID
Codec ID/Hint : XviD
Duration : 1 h 35 min
Bit rate : 1 146 kb/s
Width : 720 pixels
Height : 400 pixels
Display aspect ratio : 16:9
Frame rate : 25.000 FPS
Color space : YUV
Chroma subsampling : 4:2:0
Bit depth : 8 bits
Scan type : Progressive
Compression mode : Lossy
Bits/(Pixel*Frame) : 0.159
Stream size : 785 MiB (74%)
Writing library : XviD 1.2.1 (UTC 2008-12-04)
Audio #1
ID : 1
Format : MPEG Audio
Format version : Version 1
Format profile : Layer 3
Mode : Joint stereo
Mode extension : MS Stereo
Codec ID : 55
Codec ID/Hint : MP3
Duration : 1 h 35 min
Bit rate mode : Constant
Bit rate : 128 kb/s
Channel(s) : 2 channels
Sampling rate : 48.0 kHz
Compression mode : Lossy
Stream size : 87.6 MiB (8%)
Alignment : Aligned on interleaves
Interleave, duration : 80 ms (2.00 video frames)
Interleave, preload duration : 504 ms
Writing library : LAME3.98r
Encoding settings : -m j -V 4 -q 2 -lowpass 17 -b 128
Audio #2
ID : 2
Format : MPEG Audio
Format version : Version 1
Format profile : Layer 3
Mode : Joint stereo
Mode extension : MS Stereo
Codec ID : 55
Codec ID/Hint : MP3
Duration : 1 h 35 min
Bit rate mode : Constant
Bit rate : 128 kb/s
Channel(s) : 2 channels
Sampling rate : 48.0 kHz
Compression mode : Lossy
Stream size : 87.6 MiB (8%)
Alignment : Aligned on interleaves
Interleave, duration : 80 ms (2.00 video frames)
Interleave, preload duration : 504 ms
Writing library : LAME3.98r
Encoding settings : -m j -V 4 -q 2 -lowpass 17 -b 128
Audio #3
ID : 3
Format : MPEG Audio
Format version : Version 1
Format profile : Layer 3
Mode : Joint stereo
Mode extension : MS Stereo
Codec ID : 55
Codec ID/Hint : MP3
Duration : 1 h 35 min
Bit rate mode : Constant
Bit rate : 128 kb/s
Channel(s) : 2 channels
Sampling rate : 48.0 kHz
Compression mode : Lossy
Stream size : 87.6 MiB (8%)
Alignment : Aligned on interleaves
Interleave, duration : 80 ms (2.00 video frames)
Interleave, preload duration : 504 ms
Writing library : LAME3.98r
Encoding settings : -m j -V 4 -q 2 -lowpass 17 -b 128

prémium
[HIDE-THANKS]
Kód:
https://data.hu/get/11156200/D2197a.rar
[/HIDE-THANKS]
vagy free
[HIDE-THANKS]
Kód:
https://data.hu/get/12442064/D2197av2.part1.rar
https://data.hu/get/12442068/D2197av2.part2.rar
https://data.hu/get/12442070/D2197av2.part3.rar
https://data.hu/get/12442074/D2197av2.part4.rar
https://data.hu/get/12442073/D2197av2.part5.rar
https://data.hu/get/12442066/D2197av2.part6.rar
[/HIDE-THANKS]

Frissítve és a törlődött link miatt újratöltve.
 

goliat1

Állandó Tag
Állandó Tag
A hölgy egy kissé bogaras(The Lady Is a Bit Cracked )

fekete-fehér,magyar vígjáték 1938,DVDRIP HunDub


2ef918bb299b845b665c0cfa26f97049.md.jpg




rendező:Ráthonyi Ákos
forgatókönyvíró:Aszlányi Károly
operatőr:Bécsi József
zene:Farkas Imre
látványtervező:Vincze Márton
vágó:Farkas Zoltán


szereplők:
Tolnay Klári (Takács Klári)
Ráday Imre (Tormássy Péter)
Gózon Gyula (Tormássy, vezérigazgató)
Gobbi Hilda (Bolond)
Mály Gerő (Kropacher)
Dezsőffy László (Sümegi)
Dózsa István (Novák úr)
Pethes Ferenc (Kovács)
Pethes Sándor (Gerber)


Tartalom:
Bimbi, azaz Takács Klára munkanélküli. Albérletben lakik, és fogalma sincs arról, miből fog élni, miből fogja a számláit kifizetni. De szerencséjére az előző albérlő, akinek volt egy ajánlólevele a Tormássy művek igazgatójához, időközben bolondokházába került. Így aztán a "felhasználatlan" ajánlólevéllel jelentkezhet munkára. Mivel a levélben az áll, hogy a "hölgy egy kissé bogaras" állást nem kap, de elszegődhet a vezérigazgató fiához gépírókisasszonynak.


A hölg egy kissé bogaras 1938 DVDRIP.mp4
Méret: 620,53 MiB
Hossz: 01:16:15.792
Formátum: AVC (Advanced Video Codec)
Felbontás: 640x480
Bitráta: 998 Kbps
Képkocka / mp: 24
Képarány: 4:3
Hangsávok száma: 1

Hangsáv #1
Formátum: AAC (Advanced Audio Codec)
Csatornák száma: 2
Bitráta: 128 Kbps
Mintavételezési frekvencia: 44.1 KHz

[HIDE-THANKS]
Kód:
https://aparat.cam/hw73kbmfl7op/A_hölg_egy_kissé_bogaras_1938_DVDRIP.mp4.html
[/HIDE-THANKS]


vagy

[HIDE-THANKS]
Kód:
https://www.okstream.cc/a233d8e4e89a/A-h__lg-egy-kiss__-bogaras-1938-DVDRIP.mp4
[/HIDE-THANKS]​
[HIDE-THANKS][/HIDE-THANKS]
 

papadi

Állandó Tag
Állandó Tag
Egri csillagok (iso)

488bbb2d716aaf4eff54ddb8e37927aa.jpg


Egri csillagok
Magyar történelmi kalandfilm (1968)
Gárdonyi Géza regényéből a forgatókönyvet írta: Nemeskürty István
Zene: Farkas Ferenc
Fényképezte: Szécsényi Ferenc
Főszereplők: Sinkovits Imre, Bárdy György, Kovács István, Bitskey Tibor, Agárdi Gábor, Venczel Vera, Ruttkai Éva, Gobbi Hilda, Szemere Vera, Pécsi Ildikó, Horváth teri, Benkő Péter, Somogyvári Rudolf, Szakáts Miklós, Benkő gyula, Tahi Tóth László, Tordy Géza
Rendezte: Várkonyi Zoltán
Hang: magyar
Felirat: angol

Az alkotás Bornemissza Gergely és Cecey Éva sorsán keresztül mutatja be az egri várvédők hősies harcát a török hódoltság idején. Bornemissza Gergelyt már hétévesen vitézzé avatja Dobó István az egri vár kapitánya, miután a kisfiúnak sikerül Vicával és a hadizsákmánnyal visszatérnie a félszemű Jumurdzsák fogságából. Harminc évvel később 1552-ben a török Eger vár ellen készülődik. Dobó István köré sereglenek mindazok, akik tudják, hogy Eger várának védelme az országét jelenti. Bornemissza Gergely lesz Dobó jobbkeze. A férfiak hősies harca mellett az egri nők is szembeszállnak a törökkel a vár védelméért. (a borítóról)

Extrák:
Operatőri kommentár

Média információ:

Video:
Kodek: MPEG-1/2 Video (mpgv)
Felbontás: 720x576
Képkockasebesség: 25
Képformátum: 1.33:1 (4:3)

Hang:
Kodek: A52 Audio (aka AC3) (a52)
Csatornák: Sztereó
Mintavételi frekvencia: 48000 Hz
Bitsebesség: 192 kb/mp

Formátum: iso
Méret: 7,75 GB
Műsoridő: 2:24:40

(prémium)
Kód:
https://data.hu/get/12725067/D0520i.part01.rar
https://data.hu/get/12725068/D0520i.part02.rar
https://data.hu/get/12725072/D0520i.part03.rar
https://data.hu/get/12725073/D0520i.part04.rar
https://data.hu/get/12725069/D0520i.part05.rar
https://data.hu/get/12725071/D0520i.part06.rar
https://data.hu/get/12725070/D0520i.part07.rar
https://data.hu/get/12725074/D0520i.part08.rar
 

papadi

Állandó Tag
Állandó Tag
A kőszívű ember fiai (iso)

3b3ba88f0ba8a8109e4afbd04810fb9d.jpg


A kőszívű ember fiai
Magyar történelmi kaladfilm (1965)
Jókai Mór regényéből a forgatókönyvet írta: Erdődy János
Zene: Farkas Ferenc
Fényképezte: Hildebrand István
Főszereplők: Sulyok Mária, Szemere Vera, Bitskey Tibor, Béres Ilona, Mécs Károly, Polónyi Gyöngyi, Tordy Géza, Nádasy Myrtill, Páger Antal, Makay Margit, Básti Lajos, Várkonyi Zoltán, Nagy Attila, Rajz János, Kálmán György, Barsi Béla, Fonyó József, Major Tamás, Kiss Ferenc
Rendezte: Várkonyi Zoltán
Hang: magyar
Felirat: angol

A heroikus-romantikus film a három Baradlay fiú alakjában szembeállítja a halál árán is győzedelmeskedő igazságot és tisztességet a kifizetődő gyávasággal, kiegyezéssel és karrierizmussal.
A császárhű Baradlay Kázmér halála után a fiúk, apjuk végakarata ellenére az erős akaratú, forradalmár lelkületű Baradlayné biztatására 1848 ügye mellé állnak. A leggyengébbnek tűnő, a fényes pálya előtt álló Jenő az életét is feláldozza bátyjaiért.
(a borítóról)

Extrák:
Jókai Mór filmen, televízióban (filmográfia, filmrészletek) (18’39)
48-as toborzók (6’56)
A bukás hősei: 1848 a filmvásznon és a képernyőn (28’19)
A szabadság katonái: Történelmi arcképcsarnok: tábornokok galériája:
- Bem József (14’25)
- Damjanicsh János (14’49)
- Klapka György (14’55)
- Görgey Artúr (14’10)
Sztárinterjú (15’33)
- Prieger Zsolt (Anima Sound System)
- Göbl Gábor (Moby Dick)
- Balanyi Szilárd (Quimby)
- Nagy Feró (Beatrice)
Diafilm (1’57)

Média információ:

Video:
Kodek: MPEG-1/2 Video (mpgv)
Felbontás: 720x576
Képkockasebesség: 25
Képformátum: 1.33:1 (4:3)

Hang:
Kodek: A52 Audio (aka AC3) (a52)
Csatornák: Sztereó
Mintavételi frekvencia: 48000 Hz
Bitsebesség: 384 kb/mp

Formátum: iso
Méret: 7,23+4,22 GB
Műsoridő: 2:38:05+2:09:59

(prémium)
Kód:
https://data.hu/get/11045899/D0674.part01.rar
https://data.hu/get/11045900/D0674.part02.rar
https://data.hu/get/11045901/D0674.part03.rar
https://data.hu/get/11045894/D0674.part04.rar
https://data.hu/get/11045893/D0674.part05.rar
https://data.hu/get/11045892/D0674.part06.rar
https://data.hu/get/11045895/D0674.part07.rar
https://data.hu/get/11045891/D0674.part08.rar
https://data.hu/get/11045903/D0674.part09.rar
https://data.hu/get/11045898/D0674.part10.rar
https://data.hu/get/11045902/D0674.part11.rar

https://data.hu/get/11046494/D0675.part1.rar
https://data.hu/get/11046492/D0675.part2.rar
https://data.hu/get/11046495/D0675.part3.rar
https://data.hu/get/11046497/D0675.part4.rar
https://data.hu/get/11046498/D0675.part5.rar
https://data.hu/get/11046491/D0675.part6.rar
 

goliat1

Állandó Tag
Állandó Tag
A kőszívű ember fiai

színes,magyar filmdráma,1964 HDRIP HunDub


3wtnk2q8m6evufg17vxd.jpg




rendező: Várkonyi Zoltán
író: Jókai Mór
forgatókönyvíró: Erdődy János
producer : Németh András
zeneszerző: Farkas Ferenc
operatőr: Hildebrand István
díszlettervező: Zeichán Béla
dramaturg: Fehér Imre
jelmeztervező: Láng Rudolf
vágó: Kerényi Zoltán

szereplők:
Sulyok Mária (Baradlay Kázmérné)
Bitskey Tibor (Baradlay Ödön)
Mécs Károly (Baradlay Richárd)
Tordy Géza (Baradlay Jenő)
Béres Ilona (Alfonsine)
Bujtor István (Leonyid)
Básti Lajos (Rideghváry Bence)
Major Tamás (Baradlay Kázmér)
Szemere Vera (Plankenhorst Antoinette)
Bessenyei Ferenc (magyar tábornok)
Nagy Attila (Pallvitz Ottó)
Benkő Gyula (Krámer, besúgó)
Bárdy György (osztrák ezredes)
Márkus László (osztrák tiszt)
Somogyvári Rudolf (álruhás osztrák tiszt)
Greguss Zoltán (magyar tiszt)
Inke László (magyar tiszt)
Koncz Gábor (Franz, forradalmár)
Raksányi Gellért (vármegyei úr)
Bánhidi László (fogadós)
Polónyi Gyöngyi (Edit)
Kálmán György (Fritz Goldner)
Várkonyi Zoltán (Haynau)
Barsi Béla (Lánghy, lelkész)
Szendrő József (élelmezési tiszt)
Velenczei István (párbajsegéd)
Páger Antal (Öreg Pál)
Rajz János (Boros Mihály)
Gózon Gyula (kanonok)




Tartalom:
A császárpárti Baradlay Kázmér özvegye - szembeszegülve férje végakaratával, - jó magyarnak, boldog embernek szeretné látni a fiait. Hazahívja legidősebb fiát Ödönt Pétervárról, Richardot és Jenőt Bécsből. Kitört a forradalom. A forradalmár lelkületű Baradlayné biztatására fiai apjuk végakarata ellenére, 1848 ügye mellé állnak. A leggyengébbnek tűnő, fényes pálya előtt álló Jenő a szabadságharc leverése után az életét is feláldozza bátyjaiért.


A kőszívű ember fiai 1965 HDRIP.mp4
Méret: 2,25 GiB
Hossz: 02:38:44.006
Formátum: AVC (Advanced Video Codec)
Felbontás: 1280x720
Bitráta: 1 803 Kbps
Képkocka / mp: 25
Képarány: 16:9
Hangsávok száma: 1

Hangsáv #1
Formátum: AAC (Advanced Audio Codec)
Csatornák száma: 2
Bitráta: 237 Kbps
Mintavételezési frekvencia: 44.1 KHz


Kód:
https://aparat.cam/75w7cl1x2kz7/A_kőszívű_ember_fiai_1965_HD.mp4.html


vagy

Kód:
https://www.okstream.cc/9a833131fb9d/A-k__sz__v__-ember-fiai-1965-HD.mp4
 

papadi

Állandó Tag
Állandó Tag
Kötelező olvasmányok: Bánk bán - Katona József drámája (1987)

ae6998c502376f3e42f6f001d72d3ccd.jpg


Bánk Bán
Magyar film (1987)
Felirat: magyar (halláskárosultak részére)

Írta: Katona József
Zene: Rossa László
Fényképezte: Ráday Mihály

Főszereplők:
Bánk bán - Blaskó Péter
Gertrudis - Almási Éva
Melinda, Bánk felesége - Szirtes Ági
Soma, a fiacskájuk - Vincze Robert
Ottó - Bubik István
Biberach - Szilágyi Tibor
Petur - Kállai Ferenc
Tiborc - Koncz Gábor
Mikhál bán - Raksányi Gellért
Simon bán - Horesnyi László
II. Endre - Lukács Sándor
Myska bán - Fekete Tibor
Izidóra - Fehér Anna

Rendezte: Szőnyi G. Sándor

Magyarország 1213. Baljós esztendő. A király II. Endre távoli országban csatázik, eközben felesége, az idegen földről jött Gertrúd királyné ragadja magához a hatalmat. A királyné kiváltságokkal halmozza el a trón körül dőzsölő honfitársait. A békétlen magyar urak Petúr bán vezetésével összeesküvést szerveznek ellenük. Ezalatt az országot járó Bánk bán, a király helytartója egyre nagyobb szegénységgel találkozik. Távollétében nem is sejti, hogy Melindára a királyné öccse, Ottó vetette ki hálóját. (a borítóról)

Extra:
"Csak egy életed volt" - Katona József és drámája (16:45)

Média információ:

Video:
Kodek: MPEG-1/2 Video (mpgv)
Felbontás: 720x576
Képkockasebesség: 25
Képformátum: 1.33:1 (4:3)

Hang:
Kodek: A52 Audio (aka AC3) (a52)
Csatornák: Sztereó
Mintavételi frekvencia: 48000 Hz
Bitek mintánként: 32

Formátum: iso
Méret: 6,97 GB
Műsoridő: 2:22:32 (2:39:17)

(prémium)
Kód:
https://data.hu/get/12849267/D3154i.part1.rar
https://data.hu/get/12849271/D3154i.part2.rar
https://data.hu/get/12849266/D3154i.part3.rar
https://data.hu/get/12849269/D3154i.part4.rar
https://data.hu/get/12849272/D3154i.part5.rar
https://data.hu/get/12849273/D3154i.part6.rar
https://data.hu/get/12849268/D3154i.part7.rar
https://data.hu/get/12849274/D3154i.part8.rar

c53c833d8c05be43695519d0cd0852c5.jpg


Formátum: dvdrip/avi
Méret: 2,33 GB
Felbontás: 720x544
Mintavételi frekvencia: 48000 Hz
Bitsebesség: 226 kbps
Műsoridő: 2:22:32 (2:39:17)

Részletes média információ:
G:\0\DVD3\3154 - Bánk bán (1987)\avi\a - Bánk bán.avi
General
Complete name : G:\0\DVD3\3154 - Bánk bán (1987)\avi\a - Bánk bán.avi
Format : AVI
Format/Info : Audio Video Interleave
Format profile : OpenDML
File size : 2.09 GiB
Duration : 2 h 22 min
Overall bit rate mode : Variable
Overall bit rate : 2 101 kb/s
Writing application : VirtualDubMod 1.5.4.1 (build 2178/release)
Writing library : VirtualDubMod build 2178/release
Video #0
ID : 0
Format : MPEG-4 Visual
Format profile : Advanced [email protected]
Format settings : BVOP1 / Custom Matrix
Format settings, BVOP : 1
Format settings, QPel : No
Format settings, GMC : No warppoints
Format settings, Matrix : Custom
Codec ID : XVID
Codec ID/Hint : XviD
Duration : 2 h 22 min
Bit rate : 1 857 kb/s
Width : 720 pixels
Height : 544 pixels
Display aspect ratio : 4:3
Frame rate : 25.000 FPS
Color space : YUV
Chroma subsampling : 4:2:0
Bit depth : 8 bits
Scan type : Progressive
Compression mode : Lossy
Bits/(Pixel*Frame) : 0.190
Stream size : 1.85 GiB (88%)
Writing library : XviD 1.2.1 (UTC 2008-12-04)
Audio #1
ID : 1
Format : MPEG Audio
Format version : Version 1
Format profile : Layer 3
Format settings : Joint stereo
Codec ID : 55
Codec ID/Hint : MP3
Duration : 2 h 22 min
Bit rate mode : Variable
Bit rate : 227 kb/s
Channel(s) : 2 channels
Sampling rate : 48.0 kHz
Frame rate : 41.667 FPS (1152 SPF)
Compression mode : Lossy
Stream size : 231 MiB (11%)
Alignment : Aligned on interleaves
Interleave, duration : 24 ms (0.60 video frame)
Interleave, preload duration : 505 ms
Writing library : LAME3.98r
Encoding settings : -m j -V 4 -q 2 -lowpass 19.7 --abr

prémium
Kód:
https://data.hu/get/12849025/D3154a.part1.rar
https://data.hu/get/12849026/D3154a.part2.rar
https://data.hu/get/12849027/D3154a.part3.rar
 
Oldal tetejére