Magyar filmek III itt nincs kérés

FLAMINGO témája a 'Film, színház, tánc' fórumban , 2018 Február 3.

  1. papadi

    papadi Állandó Tag

    [​IMG]
    Uramisten
    Magyar film (1984)
    Főszereplők: Feleki Kamill, Eperjes Károly, Dörner György, Csákányi László, Garas Dezső, Tábori Nóra, Nyakó Júlia, Papp Vera, Tarján Györgyi, Ujlaki Dénes
    Rendezte: Gárdos Péter
    Magyar filmek gyűjteménye 25.
    Fantasy Film, 2006. október 26.
    Tartalom a borítóról:
    Sajek Oszkár (Eperjes Károly) cirkuszi akrobata, egy szerencsétlen baleset következtében kénytelen abbahagyni hordós ugrómutatványát. Új számot kell keresnie, és ő tudja is, mihez volna kedve. Az öreg szabaduló művész, Binder Lipót (Feleki Kamill) hajdani attrakcióját, "A Jégbe Zárt Ember" trükkjét szeretné megvásárolni. Egyetlen vágya, hogy ő is képes legyen órákat tölteni levegő nélkül, egy fagyos jégtömbbe zárva. E titok megfejtésére tesz fel mindent, ami az életben számára fontos. Lipi bácsi azonban makacs ember, ráadásul kegyetlen is. Kiélvezi a fiatalember rajongó érdeklődését, megalázkodó könyörgését, miközben esze ágában sincs elárulni a trükköt. Vajon ez a végletekig hiú ember a sírba is magával viszi a világszám titkát?
    Extrák:
    angol és magyar felirat
    Exluzív interjú Gárdos Péterrel pályájáról, filmjeiről (14:34)
    Gárdos Péter az Uramisten! forgatásáról (
    Gárdos Péter filmográfia
    Ajánló (2:31)
    Média információ:
    Video:
    Kodek: MPEG-1/2 Video (mpgv)
    Felbontás: 720x576
    Képkockasebesség: 25
    Képformátum: 1.37:1 (4:3)
    Hang:
    Kodek: A52 Audio (aka AC3) (a52)
    Csatornák: 3F2R/LFE
    Mintavételi frekvencia: 48000 Hz
    Bitsebesség: 448 kb/mp
    Formátum: iso
    Méret: 6,04 GB
    Műsoridő: 1:29:41 (2:09:49)
    (prémium)
    Rejtett tartalom:
    **Rejtett tartalom: A tartalom megjelenítéséhez kattints a 'Tetszik' gombra.**
    [​IMG]
    Formátum: dvdrip/avi
    Méret: 897 MB
    Felbontás: 720x544
    Mintavételi frekvencia: 48000 Hz
    Bitsebesség: 128 kbps
    Műsoridő: 1:29:40
    Részletes média információ:
    Show Spoiler

    I:\Video\25 - Uramisten.avi
    General
    Complete name : I:\Video\25 - Uramisten.avi
    Format : AVI
    Format/Info : Audio Video Interleave
    File size : 896 MiB
    Duration : 1 h 29 min
    Overall bit rate : 1 397 kb/s
    Writing application : VirtualDubMod 1.5.4.1 (build 2178/release)
    Writing library : VirtualDubMod build 2178/release
    Video #0
    ID : 0
    Format : MPEG-4 Visual
    Format profile : Advanced [email protected]
    Format settings, BVOP : 1
    Format settings, QPel : No
    Format settings, GMC : No warppoints
    Format settings, Matrix : Custom
    Codec ID : XVID
    Codec ID/Hint : XviD
    Duration : 1 h 29 min
    Bit rate : 1 261 kb/s
    Width : 720 pixels
    Height : 544 pixels
    Display aspect ratio : 4:3
    Frame rate : 25.000 FPS
    Color space : YUV
    Chroma subsampling : 4:2:0
    Bit depth : 8 bits
    Scan type : Progressive
    Compression mode : Lossy
    Bits/(Pixel*Frame) : 0.129
    Stream size : 809 MiB (90%)
    Writing library : XviD 1.2.1 (UTC 2008-12-04)
    Audio #1
    ID : 1
    Format : MPEG Audio
    Format version : Version 1
    Format profile : Layer 3
    Mode : Joint stereo
    Mode extension : MS Stereo
    Codec ID : 55
    Codec ID/Hint : MP3
    Duration : 1 h 29 min
    Bit rate mode : Constant
    Bit rate : 128 kb/s
    Channel(s) : 2 channels
    Sampling rate : 48.0 kHz
    Compression mode : Lossy
    Stream size : 82.1 MiB (9%)
    Alignment : Aligned on interleaves
    Interleave, duration : 80 ms (2.00 video frames)
    Interleave, preload duration : 504 ms
    Writing library : LAME3.98r
    Encoding settings : -m j -V 4 -q 2 -lowpass 17 -b 128

    Rejtett tartalom:
    **Rejtett tartalom: A tartalom megjelenítéséhez kattints a 'Tetszik' gombra.**
    vagy free
    Rejtett tartalom:
    **Rejtett tartalom: A tartalom megjelenítéséhez kattints a 'Tetszik' gombra.**
     
    hegyisas és nandus kedveli ezt.
  2. papadi

    papadi Állandó Tag

    [​IMG]
    Eldorádó
    Magyar filmdráma (1988)
    Főszereplők: Eperjes Károly, Pogány Judit, Eszenyi Enikő, Andorai Péter, Balkay Géza
    Rendezte: Bereményi Géza
    Magyar filmek gyűjteménye 26.
    Fantasy Film, 2006. október 26.
    Tartalom a borítóról:
    1945. Monori Sándor (Eperjes Károly) a Teleki téri piac királya, akit mindenki Sanyi bácsiként tisztel. Ő az, aki fittyet hány arra, milyen a politikai rendszer, hiszen számára egyetlen törvény létezik: arannyal mindent és mindenkit meg lehet vásárolni. Amikor lánya terhesen tér haza Bécsből, Monori két marék ékszer árán szabadul meg vejétől, hogy születendő unokáját maga nevelhesse fel, és megtanítsa arra, hogyan lehet ebben az országban túlélni - akár egy halálosnak hitt betegséget is. 1956-ban aztán mindent elkövet, hogy családját külföldre juttassa, de úgy tűnik, ekkor már az arany is kevés a túléléshez...
    Extrák:
    magyar felirat
    Ajánló (1:41)
    Média információ:
    Video:
    Kodek: MPEG-1/2 Video (mpgv)
    Felbontás: 720x576
    Képkockasebesség: 25
    Képformátum: 1.37:1 (4:3)
    Hang:
    Kodek: A52 Audio (aka AC3) (a52)
    Csatornák: 3F2R/LFE
    Mintavételi frekvencia: 48000 Hz
    Bitsebesség: 448 kb/mp
    Formátum: iso
    Méret: 4,06 GB
    Műsoridő: 1:39:07
    (prémium)
    Rejtett tartalom:
    **Rejtett tartalom: A tartalom megjelenítéséhez kattints a 'Tetszik' gombra.**
    [​IMG]
    Formátum: dvdrip/avi
    Méret: 991 MB
    Felbontás: 720x544
    Mintavételi frekvencia: 48000 Hz
    Bitsebesség: 128 kbps
    Műsoridő: 1:39:06
    Részletes média információ:
    Show Spoiler

    I:\Video\26 - Eldorádó.avi
    General
    Complete name : I:\Video\26 - Eldorádó.avi
    Format : AVI
    Format/Info : Audio Video Interleave
    File size : 990 MiB
    Duration : 1 h 39 min
    Overall bit rate : 1 397 kb/s
    Writing application : VirtualDubMod 1.5.4.1 (build 2178/release)
    Writing library : VirtualDubMod build 2178/release
    Video #0
    ID : 0
    Format : MPEG-4 Visual
    Format profile : Advanced [email protected]
    Format settings, BVOP : 1
    Format settings, QPel : No
    Format settings, GMC : No warppoints
    Format settings, Matrix : Custom
    Codec ID : XVID
    Codec ID/Hint : XviD
    Duration : 1 h 39 min
    Bit rate : 1 262 kb/s
    Width : 720 pixels
    Height : 544 pixels
    Display aspect ratio : 4:3
    Frame rate : 25.000 FPS
    Color space : YUV
    Chroma subsampling : 4:2:0
    Bit depth : 8 bits
    Scan type : Progressive
    Compression mode : Lossy
    Bits/(Pixel*Frame) : 0.129
    Stream size : 894 MiB (90%)
    Writing library : XviD 1.2.1 (UTC 2008-12-04)
    Audio #1
    ID : 1
    Format : MPEG Audio
    Format version : Version 1
    Format profile : Layer 3
    Mode : Joint stereo
    Mode extension : MS Stereo
    Codec ID : 55
    Codec ID/Hint : MP3
    Duration : 1 h 39 min
    Bit rate mode : Constant
    Bit rate : 128 kb/s
    Channel(s) : 2 channels
    Sampling rate : 48.0 kHz
    Compression mode : Lossy
    Stream size : 90.7 MiB (9%)
    Alignment : Aligned on interleaves
    Interleave, duration : 80 ms (2.00 video frames)
    Interleave, preload duration : 504 ms
    Writing library : LAME3.98r
    Encoding settings : -m j -V 4 -q 2 -lowpass 17 -b 128

    Rejtett tartalom:
    **Rejtett tartalom: A tartalom megjelenítéséhez kattints a 'Tetszik' gombra.**
    vagy free
    Rejtett tartalom:
    **Rejtett tartalom: A tartalom megjelenítéséhez kattints a 'Tetszik' gombra.**
     
  3. papadi

    papadi Állandó Tag

    [​IMG]
    Szamárköhögés
    Magyar tragikomédia (1987)
    Főszereplők: Törőcsik Mari, Garas Dezső, Hernádi Judit, Tóth Marcell, Kárász Eszter
    Rendezte: Gárdos Péter
    Magyar filmek gyűjteménye 27.
    Fantasy Film, 2006. október 26.
    Tartalom a borítóról:
    Tomi és Annamari családjának történetén keresztül 1956 őszének eseményei elevenednek meg Gárdos Péter filmjében, s a gyerekek elbeszéléséből érzékelhetővé válik számunkra a kor hangulata. A gyerekek számára különös egyveleget alkot az öröm, hogy nem kell iskolába menni és a döbbenet, hogy átlőtték a kenyeret, amit a nagymama hozott. Az izgalom, hogy másoknál lehet aludni és a rémület, amikor holtan találják a portást az iskolában. Mindez örök nyomot hagy a testvérek lelkében, akik csak azért maradtak Magyarországon, mert Annamari éppen szamárköhögés-gyanús volt abban a történelmi pillanatban, amikor el lehetett volna menni innen...
    Extrák:
    angol és magyar felirat
    Ajánló (1:41)
    Média információ:
    Video:
    Kodek: MPEG-1/2 Video (mpgv)
    Felbontás: 720x576
    Képkockasebesség: 25
    Képformátum: 1.37:1 (4:3)
    Hang:
    Kodek: A52 Audio (aka AC3) (a52)
    Csatornák: 3F2R/LFE
    Mintavételi frekvencia: 48000 Hz
    Bitsebesség: 448 kb/mp
    Formátum: iso
    Méret: 4,05 GB
    Műsoridő: 1:26:02
    (prémium)
    Rejtett tartalom:
    **Rejtett tartalom: A tartalom megjelenítéséhez kattints a 'Tetszik' gombra.**
    [​IMG]
    Formátum: dvdrip/avi
    Méret: 860 MB
    Felbontás: 720x544
    Mintavételi frekvencia: 48000 Hz
    Bitsebesség: 128 kbps
    Műsoridő: 1:26:01
    Részletes média információ:
    Show Spoiler

    I:\Video\27 - Szamárköhögés.avi
    General
    Complete name : I:\Video\27 - Szamárköhögés.avi
    Format : AVI
    Format/Info : Audio Video Interleave
    File size : 859 MiB
    Duration : 1 h 26 min
    Overall bit rate : 1 396 kb/s
    Writing application : VirtualDubMod 1.5.4.1 (build 2178/release)
    Writing library : VirtualDubMod build 2178/release
    Video #0
    ID : 0
    Format : MPEG-4 Visual
    Format profile : Advanced [email protected]
    Format settings, BVOP : 1
    Format settings, QPel : No
    Format settings, GMC : No warppoints
    Format settings, Matrix : Custom
    Codec ID : XVID
    Codec ID/Hint : XviD
    Duration : 1 h 26 min
    Bit rate : 1 261 kb/s
    Width : 720 pixels
    Height : 544 pixels
    Display aspect ratio : 4:3
    Frame rate : 25.000 FPS
    Color space : YUV
    Chroma subsampling : 4:2:0
    Bit depth : 8 bits
    Scan type : Progressive
    Compression mode : Lossy
    Bits/(Pixel*Frame) : 0.129
    Stream size : 776 MiB (90%)
    Writing library : XviD 1.2.1 (UTC 2008-12-04)
    Audio #1
    ID : 1
    Format : MPEG Audio
    Format version : Version 1
    Format profile : Layer 3
    Mode : Joint stereo
    Mode extension : MS Stereo
    Codec ID : 55
    Codec ID/Hint : MP3
    Duration : 1 h 26 min
    Bit rate mode : Constant
    Bit rate : 128 kb/s
    Channel(s) : 2 channels
    Sampling rate : 48.0 kHz
    Compression mode : Lossy
    Stream size : 78.8 MiB (9%)
    Alignment : Aligned on interleaves
    Interleave, duration : 80 ms (2.00 video frames)
    Interleave, preload duration : 504 ms
    Writing library : LAME3.98r
    Encoding settings : -m j -V 4 -q 2 -lowpass 17 -b 128

    Rejtett tartalom:
    **Rejtett tartalom: A tartalom megjelenítéséhez kattints a 'Tetszik' gombra.**
    vagy free
    Rejtett tartalom:
    **Rejtett tartalom: A tartalom megjelenítéséhez kattints a 'Tetszik' gombra.**
     
  4. papadi

    papadi Állandó Tag

    [​IMG]
    Régi idők focija
    Magyar vígjáték (1973)
    Főszereplők: Garas Dezső, Major Tamás, Márkus László, Temessy Hédi, Esztergályos Cecilia, Szabó Gabriella, Péter Gizi, Kern András, Vogt Károly, Benkóczi Zoltán, Verebes István
    Rendezte: Sándor Pál
    Magyar filmek gyűjteménye 28.
    Fantasy Film, 2006. október 26.
    Tartalom a borítóról:.
    Mert kell egy csapat! Minarik Ede, a mosodás él-hal a fociért és saját csapatáért, a Csabagyöngye SC-ért. A botcsinálta menedzser elsődleges célja, hogy bejussanak az első ligába és ennek érdekében hajlandó feláldozni mosodáját, összes pénzét, feleségét, sőt akár az életét is! Jöhetnek végrehajtók és vihetik, amit tudnak, gáncsolhatják gaz edzőtársak elcsábítva legjobb játékosait, Minarik csak megy előre és még az sem rendíti meg, amikor a kulcsmérkőzés előtt csodakapusa elszerződik.
    Extrák:
    angol és magyar felirat
    Ajánló (1:41)
    Média információ:
    Video:
    Kodek: MPEG-1/2 Video (mpgv)
    Felbontás: 720x576
    Képkockasebesség: 25
    Képformátum: 1.37:1 (4:3)
    Hang:
    Kodek: A52 Audio (aka AC3) (a52)
    Csatornák: 3F2R/LFE
    Mintavételi frekvencia: 48000 Hz
    Bitsebesség: 448 kb/mp
    Formátum: iso
    Méret: 3,94 GB
    Műsoridő: 1:18:05
    (prémium)
    Rejtett tartalom:
    **Rejtett tartalom: A tartalom megjelenítéséhez kattints a 'Tetszik' gombra.**
    [​IMG]
    Formátum: dvdrip/avi
    Méret: 781 MB
    Felbontás: 720x528
    Mintavételi frekvencia: 48000 Hz
    Bitsebesség: 128 kbps
    Műsoridő: 1:18:04
    Részletes média információ:
    Show Spoiler

    I:\Video\28 - Régi idök focija.avi
    General
    Complete name : I:\Video\28 - Régi idök focija.avi
    Format : AVI
    Format/Info : Audio Video Interleave
    File size : 779 MiB
    Duration : 1 h 18 min
    Overall bit rate : 1 395 kb/s
    Writing application : VirtualDubMod 1.5.4.1 (build 2178/release)
    Writing library : VirtualDubMod build 2178/release
    Video #0
    ID : 0
    Format : MPEG-4 Visual
    Format profile : Advanced [email protected]
    Format settings, BVOP : 1
    Format settings, QPel : No
    Format settings, GMC : No warppoints
    Format settings, Matrix : Custom
    Codec ID : XVID
    Codec ID/Hint : XviD
    Duration : 1 h 18 min
    Bit rate : 1 260 kb/s
    Width : 720 pixels
    Height : 528 pixels
    Display aspect ratio : 4:3
    Frame rate : 25.000 FPS
    Color space : YUV
    Chroma subsampling : 4:2:0
    Bit depth : 8 bits
    Scan type : Progressive
    Compression mode : Lossy
    Bits/(Pixel*Frame) : 0.133
    Stream size : 704 MiB (90%)
    Writing library : XviD 1.2.1 (UTC 2008-12-04)
    Audio #1
    ID : 1
    Format : MPEG Audio
    Format version : Version 1
    Format profile : Layer 3
    Mode : Joint stereo
    Mode extension : MS Stereo
    Codec ID : 55
    Codec ID/Hint : MP3
    Duration : 1 h 18 min
    Bit rate mode : Constant
    Bit rate : 128 kb/s
    Channel(s) : 2 channels
    Sampling rate : 48.0 kHz
    Compression mode : Lossy
    Stream size : 71.5 MiB (9%)
    Alignment : Aligned on interleaves
    Interleave, duration : 80 ms (2.00 video frames)
    Interleave, preload duration : 504 ms
    Writing library : LAME3.98r
    Encoding settings : -m j -V 4 -q 2 -lowpass 17 -b 128

    Rejtett tartalom:
    **Rejtett tartalom: A tartalom megjelenítéséhez kattints a 'Tetszik' gombra.**
    vagy free
    Rejtett tartalom:
    **Rejtett tartalom: A tartalom megjelenítéséhez kattints a 'Tetszik' gombra.**
     
    lavor, agyabugya, hegyisas és 1 másik tag kedveli ezt.
  5. papadi

    papadi Állandó Tag

    [​IMG]
    Bogáncs
    Fekete-fehér magyar film (1958)
    Főszereplők: Makláry Zoltán, Barsi Béla, Vass Éva, Szabó Ernő, Kiss Ferenc
    Rendezte: Fejér Tamás
    Magyar filmek gyűjteménye 29.
    Fantasy Film, 2007. január 12.
    Tartalom a borítóról:
    Bogáncs nemzetsége már ősidők óta kiválóan teljesíti szolgálatát a somodorpusztai pásztorok mellett. Egyszer azonban a kis puli túl messzire kóborol az erdőben, s csapdába kerül. Cirkuszosok szabadítják ki, és ettől kezdve Bogáncs élete kalandos fordulatot vesz. Kiderül, hogy a kutyus nem csak a birkaterelésben, de a cirkuszi komédiázásban is igen tehetséges. Ám sajnos a jólelkű mutatványosok is elveszítik őt. Bogáncs sintérkézre kerül. Mi lesz most nélküle a cirkuszi produkcióval? És vajon Mihály bácsi, a szőrösszívű kutyapecér valóban elpusztítja a kiskutyát? Vagy eredménnyel jár Máté, az öreg pásztor kutatása?
    Extrák:
    magyar felirat
    Fejér Tamás filmográfia
    Fekete István bibliográfia
    Ajánló (2:31)
    Média információ:
    Video:
    Kodek: MPEG-1/2 Video (mpgv)
    Felbontás: 720x576
    Képkockasebesség: 25
    Képformátum: 1.37:1 (4:3)
    Hang:
    Kodek: A52 Audio (aka AC3) (a52)
    Csatornák: 3F2R/LFE
    Mintavételi frekvencia: 48000 Hz
    Bitsebesség: 448 kb/mp
    Formátum: iso
    Méret: 4,23 GB
    Műsoridő: 1:19:56
    (prémium)
    Rejtett tartalom:
    **Rejtett tartalom: A tartalom megjelenítéséhez kattints a 'Tetszik' gombra.**
    [​IMG]
    Formátum: dvdrip/avi
    Méret: 797 MB
    Felbontás: 720x544
    Mintavételi frekvencia: 48000 Hz
    Bitsebesség: 128 kbps
    Műsoridő: 1:19:56
    Részletes média információ:
    Show Spoiler

    I:\Video\29 - Bogáncs.avi
    General
    Complete name : I:\Video\29 - Bogáncs.avi
    Format : AVI
    Format/Info : Audio Video Interleave
    File size : 796 MiB
    Duration : 1 h 19 min
    Overall bit rate : 1 393 kb/s
    Writing application : VirtualDubMod 1.5.4.1 (build 2178/release)
    Writing library : VirtualDubMod build 2178/release
    Video #0
    ID : 0
    Format : MPEG-4 Visual
    Format profile : Advanced [email protected]
    Format settings, BVOP : 1
    Format settings, QPel : No
    Format settings, GMC : No warppoints
    Format settings, Matrix : Custom
    Codec ID : XVID
    Codec ID/Hint : XviD
    Duration : 1 h 19 min
    Bit rate : 1 257 kb/s
    Width : 720 pixels
    Height : 544 pixels
    Display aspect ratio : 4:3
    Frame rate : 25.000 FPS
    Color space : YUV
    Chroma subsampling : 4:2:0
    Bit depth : 8 bits
    Scan type : Progressive
    Compression mode : Lossy
    Bits/(Pixel*Frame) : 0.128
    Stream size : 719 MiB (90%)
    Writing library : XviD 1.2.1 (UTC 2008-12-04)
    Audio #1
    ID : 1
    Format : MPEG Audio
    Format version : Version 1
    Format profile : Layer 3
    Mode : Joint stereo
    Mode extension : MS Stereo
    Codec ID : 55
    Codec ID/Hint : MP3
    Duration : 1 h 19 min
    Bit rate mode : Constant
    Bit rate : 128 kb/s
    Channel(s) : 2 channels
    Sampling rate : 48.0 kHz
    Compression mode : Lossy
    Stream size : 73.2 MiB (9%)
    Alignment : Aligned on interleaves
    Interleave, duration : 80 ms (2.00 video frames)
    Interleave, preload duration : 504 ms
    Writing library : LAME3.98r
    Encoding settings : -m j -V 4 -q 2 -lowpass 17 -b 128

    Rejtett tartalom:
    **Rejtett tartalom: A tartalom megjelenítéséhez kattints a 'Tetszik' gombra.**
    vagy free
    Rejtett tartalom:
    **Rejtett tartalom: A tartalom megjelenítéséhez kattints a 'Tetszik' gombra.**
     
  6. papadi

    papadi Állandó Tag

    [​IMG]
    Rosszemberek
    Magyar film (1978)
    Főszereplők: Dzsokó Roszics (Djoko Rosic), Kiss Mari, Derzsi János, Dörner György fh., Szabó László
    Rendezte: Szomjas György
    Magyar filmek gyűjteménye 30.
    Fantasy Film, 2007. január 12.
    Tartalom a borítóról:
    A kiegyezés előtti időkben járunk. Gelencsér Jóska, a hírhedt betyár szegénylegényekből verbuvált csapatával a környék összes Habsburg-barát nemesét végigrabolta már. A környező tanyák nincstelen lakói kiskirályként bánnak a fosztogató banda tagjaival. A hatóság emberei viszont aggódnak: ameddig ilyen barbár állapotok uralkodnak a vidéken, addig nem mernek vasútépítésbe kezdeni, pedig ez nélkülözhetetlen volna a gazdasági fejlődéshez.
    Amikor Jóska kegyetlenül végez a marcali bíróval, öccse gyilkosával, betelik a pohár. Hegyessy főszolgabírót utasítják felettesei, hogy bármi áron számoljon le a bandával. Gelencsér azonban nem adja könnyen a bőrét, a banda az utolsó emberig küzd. A lövöldözésben sok csendőr is vérével fizet a békéért, a betyárok dicsősége pedig mindörökre leáldozik.

    Extrák:
    magyar felirat
    Szomjas György filmográfia
    Ajánló (2:31)
    Média információ:
    Video:
    Kodek: MPEG-1/2 Video (mpgv)
    Felbontás: 720x576
    Képkockasebesség: 25
    Képformátum: 1.37:1 (4:3)
    Hang:
    Kodek: A52 Audio (aka AC3) (a52)
    Csatornák: 3F2R/LFE
    Mintavételi frekvencia: 48000 Hz
    Bitsebesség: 448 kb/mp
    Formátum: iso
    Méret: 4,35 GB
    Műsoridő: 1:29:10
    (prémium)
    Rejtett tartalom:
    **Rejtett tartalom: A tartalom megjelenítéséhez kattints a 'Tetszik' gombra.**
    [​IMG]
    Formátum: dvdrip/avi
    Méret: 894 MB
    Felbontás: 720x544
    Mintavételi frekvencia: 48000 Hz
    Bitsebesség: 128 kbps
    Műsoridő: 1:29:09
    Részletes média információ:
    Show Spoiler

    I:\Video\30 - Rosszemberek.avi
    General
    Complete name : I:\Video\30 - Rosszemberek.avi
    Format : AVI
    Format/Info : Audio Video Interleave
    File size : 890 MiB
    Duration : 1 h 29 min
    Overall bit rate : 1 395 kb/s
    Writing application : VirtualDubMod 1.5.4.1 (build 2178/release)
    Writing library : VirtualDubMod build 2178/release
    Video #0
    ID : 0
    Format : MPEG-4 Visual
    Format profile : Advanced [email protected]
    Format settings, BVOP : 1
    Format settings, QPel : No
    Format settings, GMC : No warppoints
    Format settings, Matrix : Custom
    Codec ID : XVID
    Codec ID/Hint : XviD
    Duration : 1 h 29 min
    Bit rate : 1 260 kb/s
    Width : 720 pixels
    Height : 544 pixels
    Display aspect ratio : 4:3
    Frame rate : 25.000 FPS
    Color space : YUV
    Chroma subsampling : 4:2:0
    Bit depth : 8 bits
    Scan type : Progressive
    Compression mode : Lossy
    Bits/(Pixel*Frame) : 0.129
    Stream size : 803 MiB (90%)
    Writing library : XviD 1.2.1 (UTC 2008-12-04)
    Audio #1
    ID : 1
    Format : MPEG Audio
    Format version : Version 1
    Format profile : Layer 3
    Mode : Joint stereo
    Mode extension : MS Stereo
    Codec ID : 55
    Codec ID/Hint : MP3
    Duration : 1 h 29 min
    Bit rate mode : Constant
    Bit rate : 128 kb/s
    Channel(s) : 2 channels
    Sampling rate : 48.0 kHz
    Compression mode : Lossy
    Stream size : 81.6 MiB (9%)
    Alignment : Aligned on interleaves
    Interleave, duration : 80 ms (2.00 video frames)
    Interleave, preload duration : 504 ms
    Writing library : LAME3.98r
    Encoding settings : -m j -V 4 -q 2 -lowpass 17 -b 128

    Rejtett tartalom:
    **Rejtett tartalom: A tartalom megjelenítéséhez kattints a 'Tetszik' gombra.**
    vagy free
    Rejtett tartalom:
    **Rejtett tartalom: A tartalom megjelenítéséhez kattints a 'Tetszik' gombra.**
     
  7. papadi

    papadi Állandó Tag

    [​IMG]

    Indul a bakterház
    Magyar vígjáték (1979)
    Főszereplők: Olvasztó Imre, Koltai Róbert, Horváth Teri, Haumann Péter, Pécsi Ildikó, Bánhidi László, Csákányi László
    Rendezte: Mihályfy Sándor
    MTV / MOKÉP, MOKÉP 015, 2003. április 8.

    Regős Bendegúzt anyja szolgálni küldi a lókupechez, akitől a fiú megszökik. A bakterhez keveredik, s itt kezdődnek el a vidám bonyodalmak. (a borítóról)

    Extrák: csaj a dvd-n
    Rendezői kommentár
    Rideg Sándor bibliográfia
    Mihályfy Sándor filmográfia
    Interjú - Ahogy a színész emlékezik (7:58)
    Mert hasonlítanak! – Két könyv, két kamasz (Ábel a rengetegben – filmrészletek) (5:30)
    Kölyökfilmek és jófej kölykök – filmrészletek:
    Hahó Öcsi (1:09)
    Égigérő fű (2:33)
    Hahó a tenger (1:25)
    Gyerekrablás a Palánk utcában (1:00)

    Média információ:
    Video:
    Kodek: MPEG-1/2 Video (mpgv)
    Felbontás: 720x576
    Képkockasebesség: 25
    Képformátum: 1.33:1 (4:3)
    Hang:
    Kodek: A52 Audio (aka AC3) (a52)
    Csatornák: Sztereó
    Mintavételi frekvencia: 48000 Hz
    Bitsebesség: 192 kb/mp
    Formátum: iso
    Méret: 4,16 GB
    Műsoridő: 1:06:10 (1:25:45)
    (prémium)
    Rejtett tartalom:
    **Rejtett tartalom: A tartalom megjelenítéséhez kattints a 'Tetszik' gombra.**
    [​IMG]
    Formátum: dvdrip/avi
    Méret: 880 MB
    Felbontás: 720x544
    Mintavételi frekvencia: 48000 Hz
    Bitsebesség: 128 kbps
    Műsoridő: 1:06:10
    Részletes média információ:
    Show Spoiler

    I:\Video\Indul a bakterház.avi
    General
    Complete name : I:\Video\Indul a bakterház.avi
    Format : AVI
    Format/Info : Audio Video Interleave
    File size : 879 MiB
    Duration : 1 h 6 min
    Overall bit rate : 1 856 kb/s
    Writing application : VirtualDubMod 1.5.4.1 (build 2178/release)
    Writing library : VirtualDubMod build 2178/release
    Video #0
    ID : 0
    Format : MPEG-4 Visual
    Format profile : Advanced [email protected]
    Format settings, BVOP : 1
    Format settings, QPel : No
    Format settings, GMC : No warppoints
    Format settings, Matrix : Custom
    Codec ID : XVID
    Codec ID/Hint : XviD
    Duration : 1 h 6 min
    Bit rate : 1 590 kb/s
    Width : 720 pixels
    Height : 544 pixels
    Display aspect ratio : 4:3
    Frame rate : 25.000 FPS
    Color space : YUV
    Chroma subsampling : 4:2:0
    Bit depth : 8 bits
    Scan type : Progressive
    Compression mode : Lossy
    Bits/(Pixel*Frame) : 0.162
    Stream size : 753 MiB (86%)
    Writing library : XviD 1.2.1 (UTC 2008-12-04)
    Audio #1
    ID : 1
    Format : MPEG Audio
    Format version : Version 1
    Format profile : Layer 3
    Mode : Joint stereo
    Mode extension : MS Stereo
    Codec ID : 55
    Codec ID/Hint : MP3
    Duration : 1 h 6 min
    Bit rate mode : Constant
    Bit rate : 128 kb/s
    Channel(s) : 2 channels
    Sampling rate : 48.0 kHz
    Compression mode : Lossy
    Stream size : 60.6 MiB (7%)
    Alignment : Aligned on interleaves
    Interleave, duration : 80 ms (2.00 video frames)
    Interleave, preload duration : 504 ms
    Writing library : LAME3.98r
    Encoding settings : -m j -V 4 -q 2 -lowpass 17 -b 128
    Audio #2
    ID : 2
    Format : MPEG Audio
    Format version : Version 1
    Format profile : Layer 3
    Mode : Joint stereo
    Mode extension : MS Stereo
    Codec ID : 55
    Codec ID/Hint : MP3
    Duration : 1 h 6 min
    Bit rate mode : Constant
    Bit rate : 128 kb/s
    Channel(s) : 2 channels
    Sampling rate : 48.0 kHz
    Compression mode : Lossy
    Stream size : 60.6 MiB (7%)
    Alignment : Aligned on interleaves
    Interleave, duration : 80 ms (2.00 video frames)
    Interleave, preload duration : 504 ms
    Writing library : LAME3.98r
    Encoding settings : -m j -V 4 -q 2 -lowpass 17 -b 128

    Rejtett tartalom:
    **Rejtett tartalom: A tartalom megjelenítéséhez kattints a 'Tetszik' gombra.**
    vagy free
    Rejtett tartalom:
    **Rejtett tartalom: A tartalom megjelenítéséhez kattints a 'Tetszik' gombra.**
     
  8. papadi

    papadi Állandó Tag

    Mephisto - magyar-német játékfilm (1981)
    iso + dvdrip/avi,dual

    [​IMG]

    Mephisto
    magyar-német játékfilm (1981)
    Főszereplők: Klaus Maria Brandauer, Rolf Hoppe, Bánsági Ildikó, Krystyna Janda, Karin Boyd, Christine Harbort, Cserhalmi György, Andorai Péter
    Rendezte: Szabó István
    MANDA. 2012. január 10.
    MANDA Magyar filmtörténeti sorozata 25
    Hang: magyar, német
    Felirat: angol (csak a dvd-n)

    A Klaus Mann azonos című regénye nyomán készült Oscar-díjas film az örök fausti kérdésre keresi a választ: mivé formálódik a személyiség Közép-Európában a történelem nyomása alatt. Hendrik Höfgen, a rendkívüli tehetségű, megfelelni vágyó színész pályája magasan ível a 30-as évek Németországában... (a borítóról)

    Extrák: csak a dvd-n
    Egy nemzedék története - Születésnapi beszélgetés Szabó Istvánnal.
    Szerkesztő-riporter: Wisinger István - részletek (1988) - 18:22

    Média információ:
    Video:
    Kodek: MPEG-1/2 Video (mpgv)
    Felbontás: 720x576
    Képkockasebesség: 25
    Képformátum: 1.66:1 (16:9)
    Hang:
    Kodek: A52 Audio (aka AC3) (a52)
    Csatornák: Dual-mono
    Mintavételi frekvencia: 48000 Hz
    Bitsebesség: 224 kb/mp
    Formátum: iso
    Méret: 7,75 GB
    Műsoridő: 2:19:00 (2:37:22)
    (prémium)
    Rejtett tartalom:
    **Rejtett tartalom: A tartalom megjelenítéséhez kattints a 'Tetszik' gombra.**
    [​IMG]
    Formátum: dvdrip/avi
    Méret: 1,80 GB
    Felbontás: 720x432
    Mintavételi frekvencia: 48000 Hz
    Bitsebesség: 128 kbps
    Műsoridő: 2:19:00
    Részletes média információ:
    Show Spoiler

    I:\Video\Mephisto.avi
    General
    Complete name : I:\Video\Mephisto.avi
    Format : AVI
    Format/Info : Audio Video Interleave
    File size : 1.81 GiB
    Duration : 2 h 19 min
    Overall bit rate : 1 860 kb/s
    Writing application : VirtualDubMod 1.5.4.1 (build 2178/release)
    Writing library : VirtualDubMod build 2178/release
    Video #0
    ID : 0
    Format : MPEG-4 Visual
    Format profile : Advanced [email protected]
    Format settings, BVOP : 1
    Format settings, QPel : No
    Format settings, GMC : No warppoints
    Format settings, Matrix : Custom
    Codec ID : XVID
    Codec ID/Hint : XviD
    Duration : 2 h 19 min
    Bit rate : 1 594 kb/s
    Width : 720 pixels
    Height : 432 pixels
    Display aspect ratio : 5:3
    Frame rate : 25.000 FPS
    Color space : YUV
    Chroma subsampling : 4:2:0
    Bit depth : 8 bits
    Scan type : Progressive
    Compression mode : Lossy
    Bits/(Pixel*Frame) : 0.205
    Stream size : 1.55 GiB (86%)
    Writing library : XviD 1.2.1 (UTC 2008-12-04)
    Audio #1
    ID : 1
    Format : MPEG Audio
    Format version : Version 1
    Format profile : Layer 3
    Mode : Joint stereo
    Mode extension : MS Stereo
    Codec ID : 55
    Codec ID/Hint : MP3
    Duration : 2 h 19 min
    Bit rate mode : Constant
    Bit rate : 128 kb/s
    Channel(s) : 2 channels
    Sampling rate : 48.0 kHz
    Compression mode : Lossy
    Stream size : 127 MiB (7%)
    Alignment : Aligned on interleaves
    Interleave, duration : 80 ms (2.00 video frames)
    Interleave, preload duration : 504 ms
    Writing library : LAME3.98r
    Encoding settings : -m j -V 4 -q 2 -lowpass 17 -b 128
    Audio #2
    ID : 2
    Format : MPEG Audio
    Format version : Version 1
    Format profile : Layer 3
    Mode : Joint stereo
    Mode extension : MS Stereo
    Codec ID : 55
    Codec ID/Hint : MP3
    Duration : 2 h 19 min
    Bit rate mode : Constant
    Bit rate : 128 kb/s
    Channel(s) : 2 channels
    Sampling rate : 48.0 kHz
    Compression mode : Lossy
    Stream size : 127 MiB (7%)
    Alignment : Aligned on interleaves
    Interleave, duration : 80 ms (2.00 video frames)
    Interleave, preload duration : 504 ms
    Writing library : LAME3.98r
    Encoding settings : -m j -V 4 -q 2 -lowpass 17 -b 128

    Rejtett tartalom:
    **Rejtett tartalom: A tartalom megjelenítéséhez kattints a 'Tetszik' gombra.**
    vagy free
    Rejtett tartalom:
    **Rejtett tartalom: A tartalom megjelenítéséhez kattints a 'Tetszik' gombra.**
     
    hegyisas és nandus kedveli ezt.
  9. Zauberfl

    Zauberfl Állandó Tag

    Doktor Senki 1977
    Magyar tévéfilm 83 perc

    [​IMG]

    Gábor Andor regényét
    Televízióra alkalmazta: Málnay Levente
    Szántó Erika
    Dramaturg: Schulze Éva
    Zeneszerző: Petrovics Emil
    Díszlettervező: Ruttka Ferenc
    Jelmeztervező: D. Forgó Teréz
    Rendező: Málnay Levente

    Szereplők:
    Schenk I.János - Oszter Sándor
    Czillérné, Adél - Małgorzata Braunek (Andai Györgyi)
    Elza - Małgorzata Kszevinszka (Zsurzs Kati)
    Porgesz - Páger Antal
    Prokesch - Márkus László
    Mlle. Nitouche - Békés Rita
    Emma - Soproni Ági
    Füredi Fábián - Benkő Gyula
    Szenitzey - Balázs Péter
    Rózsa Rezső - Sinkó László
    Csopaki - Horesnyi László
    Vámoscher - Mécs Károly
    báró Friedszky - Pethes Sándor
    Czeglédi Sándor
    Szénási Ernő
    Ruttka Ferenc
    Horkay János
    Kollár Béla
    Tyll Attila
    Adamcsák Ágnes
    Bessenyei Emma
    Kalmár Zsuzsa
    Kölgyesi György
    Ambrus András
    Bálint György
    Sárosi Gábor
    Sörös Sándor


    Schenk I. János kistisztviselő életének nagy álma az újságírás. Egy napon - különös véletlen következtében - teljesül az álom és Schenk I. János - alias Doktor Senki - a Függetlenség című ellenzéki orgánum tulajdonosa és főszerkesztője lesz. Az események viharos gyorsasággal peregnek, Dr. Senki - céljai eléréséhez minden lehetséges eszközt felhasználva - egyre magasabbra jut a társadalmi ranglétrán. A múlt század elején játszódó karriertörténet pontos látlelet, de nemcsak saját koráról.

    Format: Matroska at 2 051 kb/s
    Length: 1,20 GiB for 1 óra 23 perc 25 mp 840emp
    Video: AVC
    Aspect: 720 x 576 (1.250) at 25.000 fps
    Audio: AAC
    Infos: 2 csatorna, 48,0 kHz

    Feloldott tartalom:
    https://data.hu/dir/vf1la0zbti442330
     
  10. Zauberfl

    Zauberfl Állandó Tag

    A kertész kutyája 1984
    Magyar tévéjáték 85 perc

    [​IMG]

    Írta: Lope de Vega
    Fordította: Gáspár Endre
    Dramaturg: Lehel Judit
    Zene: Novák János
    Díszlet: Juhász Katalin
    Építész: Polgár Béla
    Jelmez: Witz Éva
    Maszk: Tomola Katalin
    Rendezte: Lengyel György

    Szereplők:
    Almási Éva
    Vass Gábor
    Cseke László
    Márkus László
    Tóth Enikő
    Mányai Zsuzsa
    Miklósy György
    Nagy Zoltán
    Székhelyi József
    Kerekes József
    Kováts Adél
    Likkai László
    Puskás Tamás


    Diana grófnő minden gazdag kérőjét elutasítja, de beleszeret saját írnokába, Teodoróba. A grófnő megtudja, hogy Teodoró titkon szobalányát, Marcellát látogatja és ekkor döbben rá, hogy szereti a férfit. Diana ügyes praktikákkal közli az érzelmeit az írnokkal. Teodoró gyorsan felejti a szobalányt és szerelemre gyullad a grófnő iránt, aki a gőg és a féltékenység között, a szerelem és büszkeség között ingadozik. Teodoró szolgája addig mesterkedik, míg talál urának egy grófi atyát, így végül is elhárul a köztük levő akadály és szabadon szerethetik egymást.

    Format: Matroska at 1 729 kb/s
    Length: 1,02 GiB for 1 óra 24 perc 26 mp 820emp
    Video: AVC at 1 500 kb/s
    Aspect: 720 x 576 (1.250) at 50.000 fps
    Audio: AC-3 at 224 kb/s
    Infos: 2 csatorna, 48,0 kHz

    Rejtett tartalom:
    **Rejtett tartalom: A tartalom megjelenítéséhez kattints a 'Tetszik' gombra.**
     
  11. Zauberfl

    Zauberfl Állandó Tag

    Egy hónap falun (Месяц в деревне)1980
    Magyar tévéjáték 83 perc

    [​IMG]

    Írta: Ivan Szergejevics Turgenyev
    Fordította: Elbert János
    Dramaturg: Szántó Erika
    Díszlettervező: Langmár András
    Jelmeztervező: Wieber Marianne
    Rendezte: Szirtes Tamás

    Szereplők
    Schaaf, német nevelő: Benedek Miklós
    Anna Szemjonovna, Iszlajev édesanyja: Gobbi Hilda
    Lizaveta, társalkodónő: Gyöngyössy Katalin
    Spiegelszkij: Haumann Péter
    Beljajev: Hegedűs D. Géza
    Iszlajev földbirtokos: Koltai János
    Vera, nevelt lányuk: Leviczky Klára
    Rakityin: Mensáros László
    Kátya, szolgálólány: Pap Vera
    Natalja, a felesége: Ruttkai Éva
    Matvej, szolga: Szénási Ernő
    Bolsincov, szomszéd: Vajda László

    Új tanító érkezik a birtokra Beljajev személyében. Natalja és Vera, a nevelt lánya is beleszeret az ifjúba. Natalját Rakityin is szereti. Kisebb-nagyobb bonyodalmak után Rakityin is, Beljajev is elutazik. Vera igent mond a szomszéd földbirtokosnak, pedig nem szereti. Iszlajev tud Rakatyin szerelméről, ezért örül a távozásnak, nem tudja, hogy felesége Beljajev miatt zokog.

    Format: Matroska at 2 051 kb/s
    Length: 1,18 GiB for 1 óra 22 perc 40 mp 128emp
    Video: AVC
    Aspect: 720 x 576 (1.250) at 25.000 fps
    Audio: AAC
    Infos: 2 csatorna, 48,0 kHz


    Rejtett tartalom:
    **Rejtett tartalom: A tartalom megjelenítéséhez kattints a 'Tetszik' gombra.**
     
  12. Zauberfl

    Zauberfl Állandó Tag

    Névtelen csillag (Steaua fără nume) 1971
    Magyar ff. tévéjáték 124 perc

    [​IMG]

    Írta: Mihail Sebastian
    Fordította, tévére alkalmazta: Ádám Ottó
    Dramaturg: Mészöly Dezső
    Díszlettervező: Mátay Lívia
    Jelmeztervező: Wieber Mariann
    Operatőr: Darvas Máté
    Rendezte: Ádám Ottó

    Szereplők:
    Haumann Péter - Marin Miroiu
    Almási Éva - Mona
    Szacsvay László - Udrea
    Lőte Attila - Mona barátja
    Muszte Anna fh. - Diáklány
    Békés Itala - Cucu kisasszony
    Basilides Zoltán - Állomásfőnök
    Szénási Ernő
    Horesnyi László
    Gyenge Árpád
    Bányai János

    A poros román kisváros vasútállomásán leszállítanak egy estélyi ruhás, nagyvilági hölgyet a vonatról, mert nincs sem jegye, sem pénze. A helybeli gimnázium tanára felajánlja a rendkívüli nőnek, hogy töltse az éjszakát a lakásán..

    Format: Matroska at 2 051 kb/s
    Length: 1,78 GiB for 2 óra 4 perc 25 mp 685emp
    Video: AVC
    Aspect: 720 x 576 (1.250) at 25.000 fps
    Audio: AAC
    Infos: 2 csatorna, 48,0 kHz


    Rejtett tartalom:
    **Rejtett tartalom: A tartalom megjelenítéséhez kattints a 'Tetszik' gombra.**
     
  13. csoroge

    csoroge Aktív tag

    A viszkis rabló balladája - Szökésben , dokumentum film

    (2005)



    [​IMG] [​IMG] [​IMG]
    Ambrus Attila nem tudott megélni hoki kapus fizetéséből. Ezért egy jóval veszélyesebb, ám annál jövedelmezőbb foglalkozás után nézett. Ő lett a rendszerváltás utáni Magyarország leghíresebb bűnözője.
    Több mint hét éven keresztül fosztogatta a pénzintézeteket, és borzolta a hatóságok idegeit. A Viszkis rablóként elhíresült bűnözőt a lakosság hamarosan egyfajta nemzeti hősnek tekintette. Annyira népszerűvé vált, hogy az emberek egyszerűen nem segítették a rendőrség munkáját. Így aztán a bűnüldöző hatóságoknak sokáig fogalmuk sem volt róla, kit is keresnek valójában.


    Rendező:Dean Balser
    Szereplők:
    Norman McIsaac


    Format : AVI at 1 810 kb/s
    Length : 670 MiB for 51 perc 44 mp 840emp
    Video #0 : MPEG-4 Visual at 1 672 kb/s
    Aspect : 704 x 448 (1.571) at 25.000 fps
    Audio #0 : MPEG Audio at 128 kb/s
    Infos : 2 csatorna, 48,0 kHz


    Letöltés:
    Rejtett tartalom:
    **Rejtett tartalom: A tartalom megjelenítéséhez kattints a 'Tetszik' gombra.**
     
    Utoljára módosítva: 2019 Január 12
    hegyisas kedveli ezt.
  14. Zauberfl

    Zauberfl Állandó Tag

    Gogol: A revizor
    magyar tévéfilm, 93 perc, 1984

    [​IMG]

    rendező: Gothár Péter
    zeneszerző: Selmeczi György
    dramaturg: Gothár Péter, Spiró György

    szereplő(k):
    Máté Gábor (Ivan A. Hlesztakov)
    Koltai Róbert
    Lázár Kati (a polgármester felesége)
    Csákányi Eszter (a polgármster lánya)
    Tóth Béla
    Spindler Béla
    Bezerédi Zoltán
    Lukáts Andor
    Gyuricza István
    Kósa Béla
    Karácsony Tamás
    Krum Ádám
    Lugosi György
    Serf Egyed

    Egy vidéki kisváros korrupt vezetői megtudják, hogy revizor érkezik Pétervárról. Ijedten próbálnak rendet teremteni. Hlesztakov, a pétervári tisztviselő napok óta éhezik a kisváros fogadójában, mivel minden pénzét elkártyázta, hitelt nem kap. Egy félreértés, és némi rájátszás folytán a város korrupt vezetői őt vélik revizornak. A hivatalok vezetői lesik minden gondolatát, a polgármester lányánál is sikere van. Mikor távozik, az egész város ünnepli és esküvőre várják vissza. Egy levélből azonban kiderül a csalás, s ugyanakkor érkezik meg a valódi revizor is.

    Format: Matroska at 1 869 kb/s
    Length: 1,21 GiB for 1 óra 32 perc 57 mp 560emp
    Video: AVC
    Aspect: 720 x 540 (1.333) at 25.000 fps
    Audio: AAC
    Infos: 2 csatorna, 48,0 kHz

    Rejtett tartalom:
    **Rejtett tartalom: A tartalom megjelenítéséhez kattints a 'Tetszik' gombra.**
     
  15. Zauberfl

    Zauberfl Állandó Tag

    Nem értem a nőket 1963
    Magyar fekete-fehér tvfilm 59 perc

    [​IMG]

    Szövegíró: Fedor Ágnes
    Forgatókönyv: Kertész Magda
    Díszlettervező: Barta László
    Jelmeztervező: Rimanóczy Yvonne
    Zeneszerző: Nádas Gábor
    Rendezte: Kalmár Tibor

    Szereplők:
    Kazal László (A férfi aki nem érti... Pincér, Postás, Hordár, Fodrász, stb.)
    Bársony Irén (Nő a fodrásznál II.)
    Berényi Ottó (Pincér)
    Békés Itala (Bejárónő)
    Bocskay Izabella (Nő a fodrásznál III.)
    Csala Zsuzsa (Az édesszájú nő)
    Dévay Hédi (Feleség aki nem féltékeny)
    Dévényi Cecília (Gépírónő IV.)
    Erdődy Kálmán (A férj akire nem féltékenyek)
    Felföldi Anikó (A végzet aszonya)
    Fónay Márta (Zsuzsa)
    Gobbi Hilda (Kozmetikai tanácsadó)
    Hacser Józsa (Eladónő I.)
    Kállay Ilona (Terike)
    Keleti László (Zsuzsa férje)
    Lehoczky Zsuzsa (Angyal)
    Lorán Lenke (Pénztárosnő)
    Magda Gabi (Gépírónő II.)
    Margitai Ági (Gépírónő I.)
    Máthé Erzsi (Feleség)
    Pagonyi János (Férj)
    Simonyi Magda (Kropacsek Malvin)
    Sólyom Ildikó (A művelt nő)
    Soós Edit (Eladónő II.)
    Szabó Ibolya (Mama)
    Szántó Klári (Nő a fodrásznál I.)
    Tímár Éva (Gépírónő III.)
    Vay Ilus (Barátnő)
    Velenczey István (A tudós férfi)
    Kovács P. József (Bemondó)
    Viola Mihály (Barát)

    Nádas Gábor és kisegyüttese

    Ha nőként tekintünk rájuk, megsértődnek. Ha nem nőként tekintünk rájuk, akkor is. Ki érti őket?

    Format: Matroska at 1 869 kb/s
    Length: 795 MiB for 59 perc 26 mp 800emp
    Video: AVC
    Aspect: 720 x 552 (1.304) at 25.000 fps
    Audio: AAC
    Infos: 2 csatorna, 48,0 kHz

    Rejtett tartalom:
    **Rejtett tartalom: A tartalom megjelenítéséhez kattints a 'Tetszik' gombra.**
     
  16. Zauberfl

    Zauberfl Állandó Tag

    Ember a vízben 1971
    Fekete-fehér tvfilm 80 perc

    [​IMG]

    Írta: Bánhidi László
    Dramaturg: Sipos Tamás
    Operatőr: Ráday Mihály
    Rendezte: Szőnyi G. Sándor

    Szereplők: Ambrus András (román hajós)
    Bánhidi László (Zács Gergely, kapitány)
    Baranyai Ibolya (Havas Mária)
    Fónay Márta (Mária anyja)
    Koncz Gábor (Molnár Károly, az új hajós)
    Máriáss József (Karl, Gergely sváb jobbkeze)
    Máthé Erzsi (osztrák hajós hölgy)
    Rákosi Mária (Prücsök, Mária huga)
    Siménfalvy Sándor (Mária nagyapja)
    Szirtes Ádám (Mária apja)
    Surányi Imre

    A zárkózott, szűkszavú, érdes modorú öreg Gergely hajós, miután kimenti a vízből és hajóján munkát ad az öngyilkosjelölt leányanyának, a külvilág szemének bekötésére eljátssza a szerető férj szerepét. Csakhogy a fiatal lány és az öreg hajós tisztessége nem tűrheti az őszintétlenséget. A természetellenes kapcsolat menthetetlenül életképtelen, az ideiglenesen összefonódó életutaknak el kell válniuk egymástól.

    Format: Matroska at 1 869 kb/s
    Length: 1,04 GiB for 1 óra 19 perc 19 mp 520emp
    Video: AVC
    Aspect: 720 x 548 (1.314) at 25.000 fps
    Audio: AAC
    Infos: 2 csatorna, 48,0 kHz

    Rejtett tartalom:
    **Rejtett tartalom: A tartalom megjelenítéséhez kattints a 'Tetszik' gombra.**
     
  17. Zauberfl

    Zauberfl Állandó Tag

    Prés 1971
    Fekete-fehér magyar film 67 perc

    [​IMG]

    Írta: Maár Gyula
    Operatőr: Koltai Lajos
    Rendezte: Maár Gyula

    Szereplők:
    Szilárdy István - Fiú
    Törőcsik Mari - Teréz
    Szilágyi Tibor - Bálint
    Kőmíves Sándor - Tábornok
    Gór Nagy Mária - Juli
    Farády István - Bőrkabátos
    Kalocsay Miklós
    Maróti Gábor
    Pelsőczy László - Levente

    Egy kastélyban különös kiképzésre gyűjtött össze fiúkat a Tábornok és Bálint. A leendő nagy akcióhoz akarják kiválasztani közülük a leginkább rátermettet. A választás a Fiúra esik, akinek küldetése előtt ki kell állnia az utolsó próbát. Verni fogják, de nem árulhatja el összekötője nevét. A Fiú a verés alatt nem törik meg, utána azonban apátiába esik, nem hajlandó kimozdulni a szobájából. Teréz beszél vele érzelmesen, fenyegetően, logikusan - de hiába. Mikor Teréz elmondja Bálintnak, hogy a Fiú nem fog felkelni, a férfi kegyetlen parancsot ad neki...

    Format: Matroska at 1 869 kb/s
    Length: 899 MiB for 1 óra 7 perc 13 mp 450emp
    Video: AVC
    Aspect: 720 x 576 (1.250) at 25.000 fps
    Audio: AAC
    Infos: 2 csatorna, 48,0 kHz


    Rejtett tartalom:
    **Rejtett tartalom: A tartalom megjelenítéséhez kattints a 'Tetszik' gombra.**
     
  18. csoroge

    csoroge Aktív tag

    Kincsem

    magyar romantikus kalandfilm, 121 perc, 2017




    [​IMG]


    Kritika: Kincsem - Megszelídíteni, nem betörni

    Blaskovich Ernő mindenét elvesztette a szabadságharc után. Céltalan, kicsapongó életet él, amikor egy nap megjelenik élete nagy lehetősége, Kincsem, a csodaló, akivel sikert sikerre halmoz az európai lóversenypályákon. Ezzel a sors tálcán kínálja neki az elégtételt, hogy nemes küzdelemben győzze le ősi ellenségét, von Oettingen bárót. Egyre durvuló rivalizálásukat azonban bonyolítja, hogy Ernő menthetetlenül beleszeret Klara von Oettingenbe, apja gyilkosának lányába. Vajon mi a fontosabb, a szerelem vagy a bosszú?


    Rendező:Gábor Herendi

    Szereplők:Ervin Nagy, Andrea Petrik, Tibor Gáspár, József Gyabronka

    Format : Matroska at 1 357 kb/s

    Length : 1,16 GiB for 2 óra 2 perc 4 mp 928emp

    Video #0 : AVC

    Aspect : 640 x 360 (1.778) at 24.000 fps

    Audio #0 : AAC

    Infos : 2 csatorna, 48,0 kHz


    Letöltés:

    Rejtett tartalom:
    **Rejtett tartalom: A tartalom megjelenítéséhez kattints a 'Tetszik' gombra.**



     
    datar, wagnerur100 és fabula8 kedveli ezt.
  19. Zauberfl

    Zauberfl Állandó Tag

    Ez a Józsi, ez a Józsi... 1978
    Magyar filmszatíra 57 perc

    [​IMG]

    Karinthy Ferenc Aranyidők c. kisregényéből
    Írta: SzŐnyi G. Sándor
    Dramaturg: Szántó Erika
    Díszlet: Varga Mátyás
    Jelmez: Szekulesz Judit
    Operatőr: Ráday Mihály
    Rendező: SzŐnyi G. Sándor

    Szereplők:
    Bede László
    Foda Márta (Adri Ferenczyné lánya)
    Gelecsényi Sára
    Gosztonyi János
    Hámori Ildikó (Nelli)
    Kádár Flóra (Cselédlány)
    Kerekes József
    Mitru Alice
    Patassy Imre (Gyulavári)
    Pécsi Ildikó (Mikuczné)
    Rákosi Mária (Huszárné)
    Rátonyi Róbert (Alezredes)
    Sütő Irén (Alezredesné)
    Sztankay István (Józsi)
    Tordai Teri (Ferenczyné)
    Varga Irén (Házmesterné)
    Zoltay Miklós

    Filmszatíra egy jóképű nőcsábászról, Józsiról (Sztankay István) aki minden sármját latba vetve próbálja túlélni Budapest ostromát.

    Format: Matroska at 1 927 kb/s
    Length: 789 MiB for 57 perc 13 mp 568emp
    Video: AVC at 1 700 kb/s
    Aspect: 720 x 576 (1.250) at 25.000 fps
    Audio: AC-3 at 224 kb/s
    Infos: 2 csatorna, 48,0 kHz

    Rejtett tartalom:
    **Rejtett tartalom: A tartalom megjelenítéséhez kattints a 'Tetszik' gombra.**
     
  20. Zauberfl

    Zauberfl Állandó Tag

    A nagy képmás 1988
    Magyar tévéfilm 57 perc

    [​IMG]

    Írta: Dino Buzzati
    Fordította: Szabolcsi Éva
    Forgatókönyv: Liska Dénes
    Dramaturg: Jánosi Antal
    Díszlettervező: Nagy Sándor
    Jelmeztervező: Szekulesz Judit
    Vezető operatőr: Bónis Gyula
    Rendezte: Rajnai András

    Szereplők:
    Győrffy György (Ezredes)
    Inke László (Endriade professzor)
    Juhász Jácint (Strobele professzor)
    Láng József (Vestro százados)
    Némethy Ferenc (Manunta)
    Sáfár Anikó (Olga)
    Sós László (Katona)
    Szalay Edit (Elisa)
    Tordai Teri (Laura)
    Velenczey István (Ismoni professzor)

    Lehet-e a valóságban találkozni egy elhagyott erdőszélen zavart tekintetű középkorú férfiakkal? Lehetséges, állítja A nagy képmás írója, Dino Buzzatti 1960-ban, csak legyünk vele óvatosak. Történetesen olyan telephelyről is menekülhet, ahol éppen Frankenstein - szerű kísérleteket folytatnak, akkor meg okosabb ha óvatos az erdőjáró.

    Format: Matroska at 1 869 kb/s
    Length: 757 MiB for 56 perc 36 mp 400emp
    Video: AVC
    Aspect: 720 x 576 (1.250) at 25.000 fps
    Audio: AAC
    Infos: 2 csatorna, 48,0 kHz

    Rejtett tartalom:
    **Rejtett tartalom: A tartalom megjelenítéséhez kattints a 'Tetszik' gombra.**
     

Megosztás