Magyar filmek III itt nincs kérés

papadi

Állandó Tag
Állandó Tag
3022660-20190102-VFPrX8.jpg

Talpuk alatt fütyül a szél
Magyar betyárfilm (1976)
Főszereplők: Djoko Rosic (Besaenyei Ferenc), Bujtor István, Vladan Holec (Cserhalmi György)
Rendezte: Szomjas György
Magyar filmek gyűjteménye 23.
Fantasy Film, 2007. január 12.
Tartalom a borítóról:
1837-ben járunk. Karcag városának elöljárói határtalan pénzéhségükben habozás nélkül feldúlják a város melletti, érintetlen pusztákat és megzavarják az ott legeltető pásztorok ősi életvitelét. Farkas Csapó Gyurka, a hírhedt betyár képes lenne megvédeni a puszta rendjét, de vajon kiállhatnak-e egy tömlöcből szökött rablógyilkos mellett a pusztaiak? Különösen nehéz kérdés ez Mérges Balázs csendbiztos számára, aki Gyurka legfőbb ellensége - mégis egyetlen igaz barátja. Egészen addig, míg egy betyárvezér meggyilkolását nem varrják a nyakába. Vérdíjat tűznek ki a fejére, s miután leszámolt ellenfelével, a pásztorok juttatják Gyurkát csendőrkézre és bitófára.
Extrák:
angol és magyar felirat
Ajánló (1:41)
Média információ:
Video:
Kodek: MPEG-1/2 Video (mpgv)
Felbontás: 720x576
Képkockasebesség: 25
Képformátum: 1.37:1 (4:3)
Hang:
Kodek: A52 Audio (aka AC3) (a52)
Csatornák: 3F2R/LFE
Mintavételi frekvencia: 48000 Hz
Bitsebesség: 448 kb/mp
Formátum: iso
Méret: 4,04 GB
Műsoridő: 1:27:17
(prémium)
[HIDE-THANKS]
Kód:
https://data.hu/get/11608303/D2416i.part1.rar
https://data.hu/get/11608301/D2416i.part2.rar
https://data.hu/get/11608306/D2416i.part3.rar
https://data.hu/get/11608309/D2416i.part4.rar
https://data.hu/get/11608310/D2416i.part5.rar
[/HIDE-THANKS]

3022661-20190102-O2u4Q4.jpg

Formátum: dvdrip/avi
Méret: 871 MB
Felbontás: 720x544
Mintavételi frekvencia: 48000 Hz
Bitsebesség: 128 kbps
Műsoridő: 1:27:17
Részletes média információ:
I:\Video\23 - Talpuk alatt fütyül a szél.avi
General
Complete name : I:\Video\23 - Talpuk alatt fütyül a szél.avi
Format : AVI
Format/Info : Audio Video Interleave
File size : 870 MiB
Duration : 1 h 27 min
Overall bit rate : 1 394 kb/s
Writing application : VirtualDubMod 1.5.4.1 (build 2178/release)
Writing library : VirtualDubMod build 2178/release
Video #0
ID : 0
Format : MPEG-4 Visual
Format profile : Advanced [email protected]
Format settings, BVOP : 1
Format settings, QPel : No
Format settings, GMC : No warppoints
Format settings, Matrix : Custom
Codec ID : XVID
Codec ID/Hint : XviD
Duration : 1 h 27 min
Bit rate : 1 259 kb/s
Width : 720 pixels
Height : 544 pixels
Display aspect ratio : 4:3
Frame rate : 25.000 FPS
Color space : YUV
Chroma subsampling : 4:2:0
Bit depth : 8 bits
Scan type : Progressive
Compression mode : Lossy
Bits/(Pixel*Frame) : 0.129
Stream size : 786 MiB (90%)
Writing library : XviD 1.2.1 (UTC 2008-12-04)
Audio #1
ID : 1
Format : MPEG Audio
Format version : Version 1
Format profile : Layer 3
Mode : Joint stereo
Mode extension : MS Stereo
Codec ID : 55
Codec ID/Hint : MP3
Duration : 1 h 27 min
Bit rate mode : Constant
Bit rate : 128 kb/s
Channel(s) : 2 channels
Sampling rate : 48.0 kHz
Compression mode : Lossy
Stream size : 79.9 MiB (9%)
Alignment : Aligned on interleaves
Interleave, duration : 80 ms (2.00 video frames)
Interleave, preload duration : 504 ms
Writing library : LAME3.98r
Encoding settings : -m j -V 4 -q 2 -lowpass 17 -b 128
[HIDE-THANKS]
Kód:
https://data.hu/get/11608307/D2416a.rar
[/HIDE-THANKS]
vagy free
[HIDE-THANKS]
Kód:
https://data.hu/get/11608305/D2416av.part1.rar
https://data.hu/get/11608302/D2416av.part2.rar
https://data.hu/get/11608300/D2416av.part3.rar
https://data.hu/get/11608308/D2416av.part4.rar
https://data.hu/get/11608304/D2416av.part5.rar
[/HIDE-THANKS]
 

papadi

Állandó Tag
Állandó Tag
3022662-20190102-6BTR3R.jpg

Szerencsés Dániel
Magyar filmdráma (1982)
Főszereplők: Törőcsik Mari, Garas Dezső, Margittay Ági, Major Tamás, Bodrogi Gyula, Kern András, Rudolf Péter, Zsótér Sándor
Rendezte: Sándor Pál
Magyar filmek gyűjteménye 24.
Fantasy Film, 2006. október 26.
Tartalom a borítóról:
Dani (Rudolf Péter) átlagos budapesti tizenéves a Garai utcából, akinek szerelme 1956 telén családjával együtt disszidál. Dani gondolkodás nélkül a szép Mariann után siet Ausztria felé, az egyik házban lakó fiú, Gyuri társaságában. Disszidensekkel és besúgókkal zsúfolásig tömött vonatuk nemsokára meg is érkezik a határ menti szállodához, ahol a menekülőknek be kell várni vezetőjüket. A szállodában várakozással töltött órák drámai hangulatban telnek. Mindenki számára eljött az utolsó lehetőség, hogy végiggondolja, megy-e vagy marad, hol és kivel éli le életét, s akar-e élni egyáltalán. A döntés csöppet sem könnyű, mert a történelem viharában szinte senkinek sem sikerül talpon maradnia, akármelyik oldalon is áll. Ráadásul az idősebbek éppoly tanácstalanul néznek a jövő elébe, mint a fiatalok.
Extrák:
magyar felirat
Interjú Sándor Pál rendezővel pályafutásáról (17:41)
Interjú Sándor Pállal a filmről (25:15)
Interjú Rudolf Péterrel (20:54)
Interjú Zsótér Sándorral (29:37)
Ajánló (2:31)
Média információ:
Video:
Kodek: MPEG-1/2 Video (mpgv)
Felbontás: 720x576
Képkockasebesség: 25
Képformátum: 1.37:1 (4:3)
Hang:
Kodek: A52 Audio (aka AC3) (a52)
Csatornák: 3F2R/LFE
Mintavételi frekvencia: 48000 Hz
Bitsebesség: 448 kb/mp
Formátum: iso
Méret: 7,77 GB
Műsoridő: 1:28:33 (3:04:31)
(prémium)
[HIDE-THANKS]
Kód:
https://data.hu/get/11608572/D2417i.part01.rar
https://data.hu/get/11608571/D2417i.part02.rar
https://data.hu/get/11608565/D2417i.part03.rar
https://data.hu/get/11608561/D2417i.part04.rar
https://data.hu/get/11608570/D2417i.part05.rar
https://data.hu/get/11608562/D2417i.part06.rar
https://data.hu/get/11608564/D2417i.part07.rar
https://data.hu/get/11608563/D2417i.part08.rar
[/HIDE-THANKS]

3022663-20190102-naLKon.jpg

Formátum: dvdrip/avi
Méret: 884 MB
Felbontás: 720x544
Mintavételi frekvencia: 48000 Hz
Bitsebesség: 128 kbps
Műsoridő: 1:28:32
Részletes média információ:
I:\Video\24 - Szerencsés Dániel.avi
General
Complete name : I:\Video\24 - Szerencsés Dániel.avi
Format : AVI
Format/Info : Audio Video Interleave
File size : 883 MiB
Duration : 1 h 28 min
Overall bit rate : 1 394 kb/s
Writing application : VirtualDubMod 1.5.4.1 (build 2178/release)
Writing library : VirtualDubMod build 2178/release
Video #0
ID : 0
Format : MPEG-4 Visual
Format profile : Advanced [email protected]
Format settings, BVOP : 1
Format settings, QPel : No
Format settings, GMC : No warppoints
Format settings, Matrix : Custom
Codec ID : XVID
Codec ID/Hint : XviD
Duration : 1 h 28 min
Bit rate : 1 259 kb/s
Width : 720 pixels
Height : 544 pixels
Display aspect ratio : 4:3
Frame rate : 25.000 FPS
Color space : YUV
Chroma subsampling : 4:2:0
Bit depth : 8 bits
Scan type : Progressive
Compression mode : Lossy
Bits/(Pixel*Frame) : 0.129
Stream size : 797 MiB (90%)
Writing library : XviD 1.2.1 (UTC 2008-12-04)
Audio #1
ID : 1
Format : MPEG Audio
Format version : Version 1
Format profile : Layer 3
Mode : Joint stereo
Mode extension : MS Stereo
Codec ID : 55
Codec ID/Hint : MP3
Duration : 1 h 28 min
Bit rate mode : Constant
Bit rate : 128 kb/s
Channel(s) : 2 channels
Sampling rate : 48.0 kHz
Compression mode : Lossy
Stream size : 81.1 MiB (9%)
Alignment : Aligned on interleaves
Interleave, duration : 80 ms (2.00 video frames)
Interleave, preload duration : 504 ms
Writing library : LAME3.98r
Encoding settings : -m j -V 4 -q 2 -lowpass 17 -b 128
[HIDE-THANKS]
Kód:
https://data.hu/get/11608566/D2417a.rar
[/HIDE-THANKS]
vagy free
[HIDE-THANKS]
Kód:
https://data.hu/get/11608560/D2417av.part1.rar
https://data.hu/get/11608567/D2417av.part2.rar
https://data.hu/get/11608569/D2417av.part3.rar
https://data.hu/get/11608568/D2417av.part4.rar
https://data.hu/get/11608573/D2417av.part5.rar
[/HIDE-THANKS]
 

papadi

Állandó Tag
Állandó Tag
3022666-20190102-NZ8IAr.jpg

Uramisten
Magyar film (1984)
Főszereplők: Feleki Kamill, Eperjes Károly, Dörner György, Csákányi László, Garas Dezső, Tábori Nóra, Nyakó Júlia, Papp Vera, Tarján Györgyi, Ujlaki Dénes
Rendezte: Gárdos Péter
Magyar filmek gyűjteménye 25.
Fantasy Film, 2006. október 26.
Tartalom a borítóról:
Sajek Oszkár (Eperjes Károly) cirkuszi akrobata, egy szerencsétlen baleset következtében kénytelen abbahagyni hordós ugrómutatványát. Új számot kell keresnie, és ő tudja is, mihez volna kedve. Az öreg szabaduló művész, Binder Lipót (Feleki Kamill) hajdani attrakcióját, "A Jégbe Zárt Ember" trükkjét szeretné megvásárolni. Egyetlen vágya, hogy ő is képes legyen órákat tölteni levegő nélkül, egy fagyos jégtömbbe zárva. E titok megfejtésére tesz fel mindent, ami az életben számára fontos. Lipi bácsi azonban makacs ember, ráadásul kegyetlen is. Kiélvezi a fiatalember rajongó érdeklődését, megalázkodó könyörgését, miközben esze ágában sincs elárulni a trükköt. Vajon ez a végletekig hiú ember a sírba is magával viszi a világszám titkát?
Extrák:
angol és magyar felirat
Exluzív interjú Gárdos Péterrel pályájáról, filmjeiről (14:34)
Gárdos Péter az Uramisten! forgatásáról (
Gárdos Péter filmográfia
Ajánló (2:31)
Média információ:
Video:
Kodek: MPEG-1/2 Video (mpgv)
Felbontás: 720x576
Képkockasebesség: 25
Képformátum: 1.37:1 (4:3)
Hang:
Kodek: A52 Audio (aka AC3) (a52)
Csatornák: 3F2R/LFE
Mintavételi frekvencia: 48000 Hz
Bitsebesség: 448 kb/mp
Formátum: iso
Méret: 6,04 GB
Műsoridő: 1:29:41 (2:09:49)
(prémium)
[HIDE-THANKS]
Kód:
https://data.hu/get/11609407/D2418i.part1.rar
https://data.hu/get/11609416/D2418i.part2.rar
https://data.hu/get/11609413/D2418i.part3.rar
https://data.hu/get/11609411/D2418i.part4.rar
https://data.hu/get/11609410/D2418i.part5.rar
https://data.hu/get/11609415/D2418i.part6.rar
[/HIDE-THANKS]

3022667-20190102-kdHHW7.jpg

Formátum: dvdrip/avi
Méret: 897 MB
Felbontás: 720x544
Mintavételi frekvencia: 48000 Hz
Bitsebesség: 128 kbps
Műsoridő: 1:29:40
Részletes média információ:
I:\Video\25 - Uramisten.avi
General
Complete name : I:\Video\25 - Uramisten.avi
Format : AVI
Format/Info : Audio Video Interleave
File size : 896 MiB
Duration : 1 h 29 min
Overall bit rate : 1 397 kb/s
Writing application : VirtualDubMod 1.5.4.1 (build 2178/release)
Writing library : VirtualDubMod build 2178/release
Video #0
ID : 0
Format : MPEG-4 Visual
Format profile : Advanced [email protected]
Format settings, BVOP : 1
Format settings, QPel : No
Format settings, GMC : No warppoints
Format settings, Matrix : Custom
Codec ID : XVID
Codec ID/Hint : XviD
Duration : 1 h 29 min
Bit rate : 1 261 kb/s
Width : 720 pixels
Height : 544 pixels
Display aspect ratio : 4:3
Frame rate : 25.000 FPS
Color space : YUV
Chroma subsampling : 4:2:0
Bit depth : 8 bits
Scan type : Progressive
Compression mode : Lossy
Bits/(Pixel*Frame) : 0.129
Stream size : 809 MiB (90%)
Writing library : XviD 1.2.1 (UTC 2008-12-04)
Audio #1
ID : 1
Format : MPEG Audio
Format version : Version 1
Format profile : Layer 3
Mode : Joint stereo
Mode extension : MS Stereo
Codec ID : 55
Codec ID/Hint : MP3
Duration : 1 h 29 min
Bit rate mode : Constant
Bit rate : 128 kb/s
Channel(s) : 2 channels
Sampling rate : 48.0 kHz
Compression mode : Lossy
Stream size : 82.1 MiB (9%)
Alignment : Aligned on interleaves
Interleave, duration : 80 ms (2.00 video frames)
Interleave, preload duration : 504 ms
Writing library : LAME3.98r
Encoding settings : -m j -V 4 -q 2 -lowpass 17 -b 128
[HIDE-THANKS]
Kód:
https://data.hu/get/11609404/D2418a.rar
[/HIDE-THANKS]
vagy free
[HIDE-THANKS]
Kód:
https://data.hu/get/11609405/D2418av.part1.rar
https://data.hu/get/11609412/D2418av.part2.rar
https://data.hu/get/11609403/D2418av.part3.rar
https://data.hu/get/11609414/D2418av.part4.rar
https://data.hu/get/11609408/D2418av.part5.rar
[/HIDE-THANKS]
 

papadi

Állandó Tag
Állandó Tag
3022668-20190102-42vlZz.jpg

Eldorádó
Magyar filmdráma (1988)
Főszereplők: Eperjes Károly, Pogány Judit, Eszenyi Enikő, Andorai Péter, Balkay Géza
Rendezte: Bereményi Géza
Magyar filmek gyűjteménye 26.
Fantasy Film, 2006. október 26.
Tartalom a borítóról:
1945. Monori Sándor (Eperjes Károly) a Teleki téri piac királya, akit mindenki Sanyi bácsiként tisztel. Ő az, aki fittyet hány arra, milyen a politikai rendszer, hiszen számára egyetlen törvény létezik: arannyal mindent és mindenkit meg lehet vásárolni. Amikor lánya terhesen tér haza Bécsből, Monori két marék ékszer árán szabadul meg vejétől, hogy születendő unokáját maga nevelhesse fel, és megtanítsa arra, hogyan lehet ebben az országban túlélni - akár egy halálosnak hitt betegséget is. 1956-ban aztán mindent elkövet, hogy családját külföldre juttassa, de úgy tűnik, ekkor már az arany is kevés a túléléshez...
Extrák:
magyar felirat
Ajánló (1:41)
Média információ:
Video:
Kodek: MPEG-1/2 Video (mpgv)
Felbontás: 720x576
Képkockasebesség: 25
Képformátum: 1.37:1 (4:3)
Hang:
Kodek: A52 Audio (aka AC3) (a52)
Csatornák: 3F2R/LFE
Mintavételi frekvencia: 48000 Hz
Bitsebesség: 448 kb/mp
Formátum: iso
Méret: 4,06 GB
Műsoridő: 1:39:07
(prémium)
[HIDE-THANKS]
Kód:
https://data.hu/get/11609727/D2419i.part1.rar
https://data.hu/get/11609729/D2419i.part2.rar
https://data.hu/get/11609726/D2419i.part3.rar
https://data.hu/get/11609724/D2419i.part4.rar
[/HIDE-THANKS]

3022669-20190102-Go5wlQ.jpg

Formátum: dvdrip/avi
Méret: 991 MB
Felbontás: 720x544
Mintavételi frekvencia: 48000 Hz
Bitsebesség: 128 kbps
Műsoridő: 1:39:06
Részletes média információ:
I:\Video\26 - Eldorádó.avi
General
Complete name : I:\Video\26 - Eldorádó.avi
Format : AVI
Format/Info : Audio Video Interleave
File size : 990 MiB
Duration : 1 h 39 min
Overall bit rate : 1 397 kb/s
Writing application : VirtualDubMod 1.5.4.1 (build 2178/release)
Writing library : VirtualDubMod build 2178/release
Video #0
ID : 0
Format : MPEG-4 Visual
Format profile : Advanced [email protected]
Format settings, BVOP : 1
Format settings, QPel : No
Format settings, GMC : No warppoints
Format settings, Matrix : Custom
Codec ID : XVID
Codec ID/Hint : XviD
Duration : 1 h 39 min
Bit rate : 1 262 kb/s
Width : 720 pixels
Height : 544 pixels
Display aspect ratio : 4:3
Frame rate : 25.000 FPS
Color space : YUV
Chroma subsampling : 4:2:0
Bit depth : 8 bits
Scan type : Progressive
Compression mode : Lossy
Bits/(Pixel*Frame) : 0.129
Stream size : 894 MiB (90%)
Writing library : XviD 1.2.1 (UTC 2008-12-04)
Audio #1
ID : 1
Format : MPEG Audio
Format version : Version 1
Format profile : Layer 3
Mode : Joint stereo
Mode extension : MS Stereo
Codec ID : 55
Codec ID/Hint : MP3
Duration : 1 h 39 min
Bit rate mode : Constant
Bit rate : 128 kb/s
Channel(s) : 2 channels
Sampling rate : 48.0 kHz
Compression mode : Lossy
Stream size : 90.7 MiB (9%)
Alignment : Aligned on interleaves
Interleave, duration : 80 ms (2.00 video frames)
Interleave, preload duration : 504 ms
Writing library : LAME3.98r
Encoding settings : -m j -V 4 -q 2 -lowpass 17 -b 128
[HIDE-THANKS]
Kód:
https://data.hu/get/11609734/D2419a.rar
[/HIDE-THANKS]
vagy free
[HIDE-THANKS]
Kód:
https://data.hu/get/11609733/D2419av.part1.rar
https://data.hu/get/11609723/D2419av.part2.rar
https://data.hu/get/11609730/D2419av.part3.rar
https://data.hu/get/11609732/D2419av.part4.rar
https://data.hu/get/11609731/D2419av.part5.rar
https://data.hu/get/11609728/D2419av.part6.rar
[/HIDE-THANKS]
 

papadi

Állandó Tag
Állandó Tag
3022670-20190102-WZQge9.jpg

Szamárköhögés
Magyar tragikomédia (1987)
Főszereplők: Törőcsik Mari, Garas Dezső, Hernádi Judit, Tóth Marcell, Kárász Eszter
Rendezte: Gárdos Péter
Magyar filmek gyűjteménye 27.
Fantasy Film, 2006. október 26.
Tartalom a borítóról:
Tomi és Annamari családjának történetén keresztül 1956 őszének eseményei elevenednek meg Gárdos Péter filmjében, s a gyerekek elbeszéléséből érzékelhetővé válik számunkra a kor hangulata. A gyerekek számára különös egyveleget alkot az öröm, hogy nem kell iskolába menni és a döbbenet, hogy átlőtték a kenyeret, amit a nagymama hozott. Az izgalom, hogy másoknál lehet aludni és a rémület, amikor holtan találják a portást az iskolában. Mindez örök nyomot hagy a testvérek lelkében, akik csak azért maradtak Magyarországon, mert Annamari éppen szamárköhögés-gyanús volt abban a történelmi pillanatban, amikor el lehetett volna menni innen...
Extrák:
angol és magyar felirat
Ajánló (1:41)
Média információ:
Video:
Kodek: MPEG-1/2 Video (mpgv)
Felbontás: 720x576
Képkockasebesség: 25
Képformátum: 1.37:1 (4:3)
Hang:
Kodek: A52 Audio (aka AC3) (a52)
Csatornák: 3F2R/LFE
Mintavételi frekvencia: 48000 Hz
Bitsebesség: 448 kb/mp
Formátum: iso
Méret: 4,05 GB
Műsoridő: 1:26:02
(prémium)
[HIDE-THANKS]
Kód:
https://data.hu/get/11609825/D2420i.part1.rar
https://data.hu/get/11609822/D2420i.part2.rar
https://data.hu/get/11609823/D2420i.part3.rar
https://data.hu/get/11609820/D2420i.part4.rar
https://data.hu/get/11609828/D2420i.part5.rar
[/HIDE-THANKS]

3022674-20190102-Wfak9L.jpg

Formátum: dvdrip/avi
Méret: 860 MB
Felbontás: 720x544
Mintavételi frekvencia: 48000 Hz
Bitsebesség: 128 kbps
Műsoridő: 1:26:01
Részletes média információ:
I:\Video\27 - Szamárköhögés.avi
General
Complete name : I:\Video\27 - Szamárköhögés.avi
Format : AVI
Format/Info : Audio Video Interleave
File size : 859 MiB
Duration : 1 h 26 min
Overall bit rate : 1 396 kb/s
Writing application : VirtualDubMod 1.5.4.1 (build 2178/release)
Writing library : VirtualDubMod build 2178/release
Video #0
ID : 0
Format : MPEG-4 Visual
Format profile : Advanced [email protected]
Format settings, BVOP : 1
Format settings, QPel : No
Format settings, GMC : No warppoints
Format settings, Matrix : Custom
Codec ID : XVID
Codec ID/Hint : XviD
Duration : 1 h 26 min
Bit rate : 1 261 kb/s
Width : 720 pixels
Height : 544 pixels
Display aspect ratio : 4:3
Frame rate : 25.000 FPS
Color space : YUV
Chroma subsampling : 4:2:0
Bit depth : 8 bits
Scan type : Progressive
Compression mode : Lossy
Bits/(Pixel*Frame) : 0.129
Stream size : 776 MiB (90%)
Writing library : XviD 1.2.1 (UTC 2008-12-04)
Audio #1
ID : 1
Format : MPEG Audio
Format version : Version 1
Format profile : Layer 3
Mode : Joint stereo
Mode extension : MS Stereo
Codec ID : 55
Codec ID/Hint : MP3
Duration : 1 h 26 min
Bit rate mode : Constant
Bit rate : 128 kb/s
Channel(s) : 2 channels
Sampling rate : 48.0 kHz
Compression mode : Lossy
Stream size : 78.8 MiB (9%)
Alignment : Aligned on interleaves
Interleave, duration : 80 ms (2.00 video frames)
Interleave, preload duration : 504 ms
Writing library : LAME3.98r
Encoding settings : -m j -V 4 -q 2 -lowpass 17 -b 128
[HIDE-THANKS]
Kód:
https://data.hu/get/11609821/D2420a.rar
[/HIDE-THANKS]
vagy free
[HIDE-THANKS]
Kód:
https://data.hu/get/11609824/D2420av.part1.rar
https://data.hu/get/11609827/D2420av.part2.rar
https://data.hu/get/11609830/D2420av.part3.rar
https://data.hu/get/11609829/D2420av.part4.rar
https://data.hu/get/11609826/D2420av.part5.rar
[/HIDE-THANKS]
 

papadi

Állandó Tag
Állandó Tag
3022675-20190102-h0UlNS.jpg

Régi idők focija
Magyar vígjáték (1973)
Főszereplők: Garas Dezső, Major Tamás, Márkus László, Temessy Hédi, Esztergályos Cecilia, Szabó Gabriella, Péter Gizi, Kern András, Vogt Károly, Benkóczi Zoltán, Verebes István
Rendezte: Sándor Pál
Magyar filmek gyűjteménye 28.
Fantasy Film, 2006. október 26.
Tartalom a borítóról:.
Mert kell egy csapat! Minarik Ede, a mosodás él-hal a fociért és saját csapatáért, a Csabagyöngye SC-ért. A botcsinálta menedzser elsődleges célja, hogy bejussanak az első ligába és ennek érdekében hajlandó feláldozni mosodáját, összes pénzét, feleségét, sőt akár az életét is! Jöhetnek végrehajtók és vihetik, amit tudnak, gáncsolhatják gaz edzőtársak elcsábítva legjobb játékosait, Minarik csak megy előre és még az sem rendíti meg, amikor a kulcsmérkőzés előtt csodakapusa elszerződik.
Extrák:
angol és magyar felirat
Ajánló (1:41)
Média információ:
Video:
Kodek: MPEG-1/2 Video (mpgv)
Felbontás: 720x576
Képkockasebesség: 25
Képformátum: 1.37:1 (4:3)
Hang:
Kodek: A52 Audio (aka AC3) (a52)
Csatornák: 3F2R/LFE
Mintavételi frekvencia: 48000 Hz
Bitsebesség: 448 kb/mp
Formátum: iso
Méret: 3,94 GB
Műsoridő: 1:18:05
(prémium)
[HIDE-THANKS]
Kód:
https://data.hu/get/11609987/D2056i.part1.rar
https://data.hu/get/11609952/D2056i.part2.rar
https://data.hu/get/11609947/D2056i.part3.rar
https://data.hu/get/11610007/D2056i.part4.rar
[/HIDE-THANKS]

3022676-20190102-UI6U3i.jpg

Formátum: dvdrip/avi
Méret: 781 MB
Felbontás: 720x528
Mintavételi frekvencia: 48000 Hz
Bitsebesség: 128 kbps
Műsoridő: 1:18:04
Részletes média információ:
I:\Video\28 - Régi idök focija.avi
General
Complete name : I:\Video\28 - Régi idök focija.avi
Format : AVI
Format/Info : Audio Video Interleave
File size : 779 MiB
Duration : 1 h 18 min
Overall bit rate : 1 395 kb/s
Writing application : VirtualDubMod 1.5.4.1 (build 2178/release)
Writing library : VirtualDubMod build 2178/release
Video #0
ID : 0
Format : MPEG-4 Visual
Format profile : Advanced [email protected]
Format settings, BVOP : 1
Format settings, QPel : No
Format settings, GMC : No warppoints
Format settings, Matrix : Custom
Codec ID : XVID
Codec ID/Hint : XviD
Duration : 1 h 18 min
Bit rate : 1 260 kb/s
Width : 720 pixels
Height : 528 pixels
Display aspect ratio : 4:3
Frame rate : 25.000 FPS
Color space : YUV
Chroma subsampling : 4:2:0
Bit depth : 8 bits
Scan type : Progressive
Compression mode : Lossy
Bits/(Pixel*Frame) : 0.133
Stream size : 704 MiB (90%)
Writing library : XviD 1.2.1 (UTC 2008-12-04)
Audio #1
ID : 1
Format : MPEG Audio
Format version : Version 1
Format profile : Layer 3
Mode : Joint stereo
Mode extension : MS Stereo
Codec ID : 55
Codec ID/Hint : MP3
Duration : 1 h 18 min
Bit rate mode : Constant
Bit rate : 128 kb/s
Channel(s) : 2 channels
Sampling rate : 48.0 kHz
Compression mode : Lossy
Stream size : 71.5 MiB (9%)
Alignment : Aligned on interleaves
Interleave, duration : 80 ms (2.00 video frames)
Interleave, preload duration : 504 ms
Writing library : LAME3.98r
Encoding settings : -m j -V 4 -q 2 -lowpass 17 -b 128
[HIDE-THANKS]
Kód:
https://data.hu/get/11610006/D2056a.rar
[/HIDE-THANKS]
vagy free
[HIDE-THANKS]
Kód:
https://data.hu/get/11610008/D2056av.part1.rar
https://data.hu/get/11610009/D2056av.part2.rar
https://data.hu/get/11609948/D2056av.part3.rar
https://data.hu/get/11609999/D2056av.part4.rar
https://data.hu/get/11609949/D2056av.part5.rar
[/HIDE-THANKS]
 

papadi

Állandó Tag
Állandó Tag
3022677-20190102-trbdUu.jpg

Bogáncs
Fekete-fehér magyar film (1958)
Főszereplők: Makláry Zoltán, Barsi Béla, Vass Éva, Szabó Ernő, Kiss Ferenc
Rendezte: Fejér Tamás
Magyar filmek gyűjteménye 29.
Fantasy Film, 2007. január 12.
Tartalom a borítóról:
Bogáncs nemzetsége már ősidők óta kiválóan teljesíti szolgálatát a somodorpusztai pásztorok mellett. Egyszer azonban a kis puli túl messzire kóborol az erdőben, s csapdába kerül. Cirkuszosok szabadítják ki, és ettől kezdve Bogáncs élete kalandos fordulatot vesz. Kiderül, hogy a kutyus nem csak a birkaterelésben, de a cirkuszi komédiázásban is igen tehetséges. Ám sajnos a jólelkű mutatványosok is elveszítik őt. Bogáncs sintérkézre kerül. Mi lesz most nélküle a cirkuszi produkcióval? És vajon Mihály bácsi, a szőrösszívű kutyapecér valóban elpusztítja a kiskutyát? Vagy eredménnyel jár Máté, az öreg pásztor kutatása?
Extrák:
magyar felirat
Fejér Tamás filmográfia
Fekete István bibliográfia
Ajánló (2:31)
Média információ:
Video:
Kodek: MPEG-1/2 Video (mpgv)
Felbontás: 720x576
Képkockasebesség: 25
Képformátum: 1.37:1 (4:3)
Hang:
Kodek: A52 Audio (aka AC3) (a52)
Csatornák: 3F2R/LFE
Mintavételi frekvencia: 48000 Hz
Bitsebesség: 448 kb/mp
Formátum: iso
Méret: 4,23 GB
Műsoridő: 1:19:56
(prémium)
[HIDE-THANKS]
Kód:
https://data.hu/get/11610351/D2115i.part1.rar
https://data.hu/get/11610343/D2115i.part2.rar
https://data.hu/get/11610345/D2115i.part3.rar
https://data.hu/get/11610341/D2115i.part4.rar
https://data.hu/get/11610349/D2115i.part5.rar
[/HIDE-THANKS]

3022678-20190102-pUFQr5.jpg

Formátum: dvdrip/avi
Méret: 797 MB
Felbontás: 720x544
Mintavételi frekvencia: 48000 Hz
Bitsebesség: 128 kbps
Műsoridő: 1:19:56
Részletes média információ:
I:\Video\29 - Bogáncs.avi
General
Complete name : I:\Video\29 - Bogáncs.avi
Format : AVI
Format/Info : Audio Video Interleave
File size : 796 MiB
Duration : 1 h 19 min
Overall bit rate : 1 393 kb/s
Writing application : VirtualDubMod 1.5.4.1 (build 2178/release)
Writing library : VirtualDubMod build 2178/release
Video #0
ID : 0
Format : MPEG-4 Visual
Format profile : Advanced [email protected]
Format settings, BVOP : 1
Format settings, QPel : No
Format settings, GMC : No warppoints
Format settings, Matrix : Custom
Codec ID : XVID
Codec ID/Hint : XviD
Duration : 1 h 19 min
Bit rate : 1 257 kb/s
Width : 720 pixels
Height : 544 pixels
Display aspect ratio : 4:3
Frame rate : 25.000 FPS
Color space : YUV
Chroma subsampling : 4:2:0
Bit depth : 8 bits
Scan type : Progressive
Compression mode : Lossy
Bits/(Pixel*Frame) : 0.128
Stream size : 719 MiB (90%)
Writing library : XviD 1.2.1 (UTC 2008-12-04)
Audio #1
ID : 1
Format : MPEG Audio
Format version : Version 1
Format profile : Layer 3
Mode : Joint stereo
Mode extension : MS Stereo
Codec ID : 55
Codec ID/Hint : MP3
Duration : 1 h 19 min
Bit rate mode : Constant
Bit rate : 128 kb/s
Channel(s) : 2 channels
Sampling rate : 48.0 kHz
Compression mode : Lossy
Stream size : 73.2 MiB (9%)
Alignment : Aligned on interleaves
Interleave, duration : 80 ms (2.00 video frames)
Interleave, preload duration : 504 ms
Writing library : LAME3.98r
Encoding settings : -m j -V 4 -q 2 -lowpass 17 -b 128
[HIDE-THANKS]
Kód:
https://data.hu/get/11610346/D2115a.rar
[/HIDE-THANKS]
vagy free
[HIDE-THANKS]
Kód:
https://data.hu/get/11610329/D2115av.part1.rar
https://data.hu/get/11610342/D2115av.part2.rar
https://data.hu/get/11610328/D2115av.part3.rar
https://data.hu/get/11610352/D2115av.part4.rar
https://data.hu/get/11610347/D2115av.part5.rar
[/HIDE-THANKS]
 

papadi

Állandó Tag
Állandó Tag
3022680-20190102-1oeN1U.jpg

Rosszemberek
Magyar film (1978)
Főszereplők: Dzsokó Roszics (Djoko Rosic), Kiss Mari, Derzsi János, Dörner György fh., Szabó László
Rendezte: Szomjas György
Magyar filmek gyűjteménye 30.
Fantasy Film, 2007. január 12.
Tartalom a borítóról:
A kiegyezés előtti időkben járunk. Gelencsér Jóska, a hírhedt betyár szegénylegényekből verbuvált csapatával a környék összes Habsburg-barát nemesét végigrabolta már. A környező tanyák nincstelen lakói kiskirályként bánnak a fosztogató banda tagjaival. A hatóság emberei viszont aggódnak: ameddig ilyen barbár állapotok uralkodnak a vidéken, addig nem mernek vasútépítésbe kezdeni, pedig ez nélkülözhetetlen volna a gazdasági fejlődéshez.
Amikor Jóska kegyetlenül végez a marcali bíróval, öccse gyilkosával, betelik a pohár. Hegyessy főszolgabírót utasítják felettesei, hogy bármi áron számoljon le a bandával. Gelencsér azonban nem adja könnyen a bőrét, a banda az utolsó emberig küzd. A lövöldözésben sok csendőr is vérével fizet a békéért, a betyárok dicsősége pedig mindörökre leáldozik.

Extrák:
magyar felirat
Szomjas György filmográfia
Ajánló (2:31)
Média információ:
Video:
Kodek: MPEG-1/2 Video (mpgv)
Felbontás: 720x576
Képkockasebesség: 25
Képformátum: 1.37:1 (4:3)
Hang:
Kodek: A52 Audio (aka AC3) (a52)
Csatornák: 3F2R/LFE
Mintavételi frekvencia: 48000 Hz
Bitsebesség: 448 kb/mp
Formátum: iso
Méret: 4,35 GB
Műsoridő: 1:29:10
(prémium)
[HIDE-THANKS]
Kód:
https://data.hu/get/11610692/D2421i.part1.rar
https://data.hu/get/11610699/D2421i.part2.rar
https://data.hu/get/11610686/D2421i.part3.rar
https://data.hu/get/11610700/D2421i.part4.rar
https://data.hu/get/11610677/D2421i.part5.rar
[/HIDE-THANKS]

3022681-20190102-2PN7Eh.jpg

Formátum: dvdrip/avi
Méret: 894 MB
Felbontás: 720x544
Mintavételi frekvencia: 48000 Hz
Bitsebesség: 128 kbps
Műsoridő: 1:29:09
Részletes média információ:
I:\Video\30 - Rosszemberek.avi
General
Complete name : I:\Video\30 - Rosszemberek.avi
Format : AVI
Format/Info : Audio Video Interleave
File size : 890 MiB
Duration : 1 h 29 min
Overall bit rate : 1 395 kb/s
Writing application : VirtualDubMod 1.5.4.1 (build 2178/release)
Writing library : VirtualDubMod build 2178/release
Video #0
ID : 0
Format : MPEG-4 Visual
Format profile : Advanced [email protected]
Format settings, BVOP : 1
Format settings, QPel : No
Format settings, GMC : No warppoints
Format settings, Matrix : Custom
Codec ID : XVID
Codec ID/Hint : XviD
Duration : 1 h 29 min
Bit rate : 1 260 kb/s
Width : 720 pixels
Height : 544 pixels
Display aspect ratio : 4:3
Frame rate : 25.000 FPS
Color space : YUV
Chroma subsampling : 4:2:0
Bit depth : 8 bits
Scan type : Progressive
Compression mode : Lossy
Bits/(Pixel*Frame) : 0.129
Stream size : 803 MiB (90%)
Writing library : XviD 1.2.1 (UTC 2008-12-04)
Audio #1
ID : 1
Format : MPEG Audio
Format version : Version 1
Format profile : Layer 3
Mode : Joint stereo
Mode extension : MS Stereo
Codec ID : 55
Codec ID/Hint : MP3
Duration : 1 h 29 min
Bit rate mode : Constant
Bit rate : 128 kb/s
Channel(s) : 2 channels
Sampling rate : 48.0 kHz
Compression mode : Lossy
Stream size : 81.6 MiB (9%)
Alignment : Aligned on interleaves
Interleave, duration : 80 ms (2.00 video frames)
Interleave, preload duration : 504 ms
Writing library : LAME3.98r
Encoding settings : -m j -V 4 -q 2 -lowpass 17 -b 128
[HIDE-THANKS]
Kód:
https://data.hu/get/11610695/D2421a.rar
[/HIDE-THANKS]
vagy free
[HIDE-THANKS]
Kód:
https://data.hu/get/11610682/D2421av.part1.rar
https://data.hu/get/11610689/D2421av.part2.rar
https://data.hu/get/11610683/D2421av.part3.rar
https://data.hu/get/11610680/D2421av.part4.rar
https://data.hu/get/11610687/D2421av.part5.rar
[/HIDE-THANKS]
 

papadi

Állandó Tag
Állandó Tag
3024715-20190104-TiFTrd.jpg


Indul a bakterház
Magyar vígjáték (1979)
Főszereplők: Olvasztó Imre, Koltai Róbert, Horváth Teri, Haumann Péter, Pécsi Ildikó, Bánhidi László, Csákányi László
Rendezte: Mihályfy Sándor
MTV / MOKÉP, MOKÉP 015, 2003. április 8.

Regős Bendegúzt anyja szolgálni küldi a lókupechez, akitől a fiú megszökik. A bakterhez keveredik, s itt kezdődnek el a vidám bonyodalmak. (a borítóról)

Extrák: csaj a dvd-n
Rendezői kommentár
Rideg Sándor bibliográfia
Mihályfy Sándor filmográfia
Interjú - Ahogy a színész emlékezik (7:58)
Mert hasonlítanak! – Két könyv, két kamasz (Ábel a rengetegben – filmrészletek) (5:30)
Kölyökfilmek és jófej kölykök – filmrészletek:
Hahó Öcsi (1:09)
Égigérő fű (2:33)
Hahó a tenger (1:25)
Gyerekrablás a Palánk utcában (1:00)

Média információ:
Video:
Kodek: MPEG-1/2 Video (mpgv)
Felbontás: 720x576
Képkockasebesség: 25
Képformátum: 1.33:1 (4:3)
Hang:
Kodek: A52 Audio (aka AC3) (a52)
Csatornák: Sztereó
Mintavételi frekvencia: 48000 Hz
Bitsebesség: 192 kb/mp
Formátum: iso
Méret: 4,16 GB
Műsoridő: 1:06:10 (1:25:45)
(prémium)
[HIDE-THANKS]
Kód:
https://data.hu/get/11614902/D0690i.part1.rar
https://data.hu/get/11614907/D0690i.part2.rar
https://data.hu/get/11614901/D0690i.part3.rar
https://data.hu/get/11614904/D0690i.part4.rar
https://data.hu/get/11614908/D0690i.part5.rar
[/HIDE-THANKS]

3024716-20190104-qtRJDp.jpg

Formátum: dvdrip/avi
Méret: 880 MB
Felbontás: 720x544
Mintavételi frekvencia: 48000 Hz
Bitsebesség: 128 kbps
Műsoridő: 1:06:10
Részletes média információ:
I:\Video\Indul a bakterház.avi
General
Complete name : I:\Video\Indul a bakterház.avi
Format : AVI
Format/Info : Audio Video Interleave
File size : 879 MiB
Duration : 1 h 6 min
Overall bit rate : 1 856 kb/s
Writing application : VirtualDubMod 1.5.4.1 (build 2178/release)
Writing library : VirtualDubMod build 2178/release
Video #0
ID : 0
Format : MPEG-4 Visual
Format profile : Advanced [email protected]
Format settings, BVOP : 1
Format settings, QPel : No
Format settings, GMC : No warppoints
Format settings, Matrix : Custom
Codec ID : XVID
Codec ID/Hint : XviD
Duration : 1 h 6 min
Bit rate : 1 590 kb/s
Width : 720 pixels
Height : 544 pixels
Display aspect ratio : 4:3
Frame rate : 25.000 FPS
Color space : YUV
Chroma subsampling : 4:2:0
Bit depth : 8 bits
Scan type : Progressive
Compression mode : Lossy
Bits/(Pixel*Frame) : 0.162
Stream size : 753 MiB (86%)
Writing library : XviD 1.2.1 (UTC 2008-12-04)
Audio #1
ID : 1
Format : MPEG Audio
Format version : Version 1
Format profile : Layer 3
Mode : Joint stereo
Mode extension : MS Stereo
Codec ID : 55
Codec ID/Hint : MP3
Duration : 1 h 6 min
Bit rate mode : Constant
Bit rate : 128 kb/s
Channel(s) : 2 channels
Sampling rate : 48.0 kHz
Compression mode : Lossy
Stream size : 60.6 MiB (7%)
Alignment : Aligned on interleaves
Interleave, duration : 80 ms (2.00 video frames)
Interleave, preload duration : 504 ms
Writing library : LAME3.98r
Encoding settings : -m j -V 4 -q 2 -lowpass 17 -b 128
Audio #2
ID : 2
Format : MPEG Audio
Format version : Version 1
Format profile : Layer 3
Mode : Joint stereo
Mode extension : MS Stereo
Codec ID : 55
Codec ID/Hint : MP3
Duration : 1 h 6 min
Bit rate mode : Constant
Bit rate : 128 kb/s
Channel(s) : 2 channels
Sampling rate : 48.0 kHz
Compression mode : Lossy
Stream size : 60.6 MiB (7%)
Alignment : Aligned on interleaves
Interleave, duration : 80 ms (2.00 video frames)
Interleave, preload duration : 504 ms
Writing library : LAME3.98r
Encoding settings : -m j -V 4 -q 2 -lowpass 17 -b 128
[HIDE-THANKS]
Kód:
https://data.hu/get/11614909/D0690a.rar
[/HIDE-THANKS]
vagy free
[HIDE-THANKS]
Kód:
https://data.hu/get/11614903/D0690av.part1.rar
https://data.hu/get/11614905/D0690av.part2.rar
https://data.hu/get/11614906/D0690av.part3.rar
https://data.hu/get/11614911/D0690av.part4.rar
https://data.hu/get/11614910/D0690av.part5.rar
[/HIDE-THANKS]
 

papadi

Állandó Tag
Állandó Tag
Mephisto - magyar-német játékfilm (1981)
iso + dvdrip/avi,dual

3027838-20190108-qgtS3S.jpg


Mephisto
magyar-német játékfilm (1981)
Főszereplők: Klaus Maria Brandauer, Rolf Hoppe, Bánsági Ildikó, Krystyna Janda, Karin Boyd, Christine Harbort, Cserhalmi György, Andorai Péter
Rendezte: Szabó István
MANDA. 2012. január 10.
MANDA Magyar filmtörténeti sorozata 25
Hang: magyar, német
Felirat: angol (csak a dvd-n)

A Klaus Mann azonos című regénye nyomán készült Oscar-díjas film az örök fausti kérdésre keresi a választ: mivé formálódik a személyiség Közép-Európában a történelem nyomása alatt. Hendrik Höfgen, a rendkívüli tehetségű, megfelelni vágyó színész pályája magasan ível a 30-as évek Németországában... (a borítóról)

Extrák: csak a dvd-n
Egy nemzedék története - Születésnapi beszélgetés Szabó Istvánnal.
Szerkesztő-riporter: Wisinger István - részletek (1988) - 18:22

Média információ:
Video:
Kodek: MPEG-1/2 Video (mpgv)
Felbontás: 720x576
Képkockasebesség: 25
Képformátum: 1.66:1 (16:9)
Hang:
Kodek: A52 Audio (aka AC3) (a52)
Csatornák: Dual-mono
Mintavételi frekvencia: 48000 Hz
Bitsebesség: 224 kb/mp
Formátum: iso
Méret: 7,75 GB
Műsoridő: 2:19:00 (2:37:22)
(prémium)
[HIDE-THANKS]
Kód:
https://data.hu/get/11620935/D3352i.part01.rar
https://data.hu/get/11620937/D3352i.part02.rar
https://data.hu/get/11620932/D3352i.part03.rar
https://data.hu/get/11620939/D3352i.part04.rar
https://data.hu/get/11620934/D3352i.part05.rar
https://data.hu/get/11620933/D3352i.part06.rar
https://data.hu/get/11620936/D3352i.part07.rar
https://data.hu/get/11620938/D3352i.part08.rar
[/HIDE-THANKS]

3027839-20190108-39PFn0.jpg

Formátum: dvdrip/avi
Méret: 1,80 GB
Felbontás: 720x432
Mintavételi frekvencia: 48000 Hz
Bitsebesség: 128 kbps
Műsoridő: 2:19:00
Részletes média információ:
I:\Video\Mephisto.avi
General
Complete name : I:\Video\Mephisto.avi
Format : AVI
Format/Info : Audio Video Interleave
File size : 1.81 GiB
Duration : 2 h 19 min
Overall bit rate : 1 860 kb/s
Writing application : VirtualDubMod 1.5.4.1 (build 2178/release)
Writing library : VirtualDubMod build 2178/release
Video #0
ID : 0
Format : MPEG-4 Visual
Format profile : Advanced [email protected]
Format settings, BVOP : 1
Format settings, QPel : No
Format settings, GMC : No warppoints
Format settings, Matrix : Custom
Codec ID : XVID
Codec ID/Hint : XviD
Duration : 2 h 19 min
Bit rate : 1 594 kb/s
Width : 720 pixels
Height : 432 pixels
Display aspect ratio : 5:3
Frame rate : 25.000 FPS
Color space : YUV
Chroma subsampling : 4:2:0
Bit depth : 8 bits
Scan type : Progressive
Compression mode : Lossy
Bits/(Pixel*Frame) : 0.205
Stream size : 1.55 GiB (86%)
Writing library : XviD 1.2.1 (UTC 2008-12-04)
Audio #1
ID : 1
Format : MPEG Audio
Format version : Version 1
Format profile : Layer 3
Mode : Joint stereo
Mode extension : MS Stereo
Codec ID : 55
Codec ID/Hint : MP3
Duration : 2 h 19 min
Bit rate mode : Constant
Bit rate : 128 kb/s
Channel(s) : 2 channels
Sampling rate : 48.0 kHz
Compression mode : Lossy
Stream size : 127 MiB (7%)
Alignment : Aligned on interleaves
Interleave, duration : 80 ms (2.00 video frames)
Interleave, preload duration : 504 ms
Writing library : LAME3.98r
Encoding settings : -m j -V 4 -q 2 -lowpass 17 -b 128
Audio #2
ID : 2
Format : MPEG Audio
Format version : Version 1
Format profile : Layer 3
Mode : Joint stereo
Mode extension : MS Stereo
Codec ID : 55
Codec ID/Hint : MP3
Duration : 2 h 19 min
Bit rate mode : Constant
Bit rate : 128 kb/s
Channel(s) : 2 channels
Sampling rate : 48.0 kHz
Compression mode : Lossy
Stream size : 127 MiB (7%)
Alignment : Aligned on interleaves
Interleave, duration : 80 ms (2.00 video frames)
Interleave, preload duration : 504 ms
Writing library : LAME3.98r
Encoding settings : -m j -V 4 -q 2 -lowpass 17 -b 128
[HIDE-THANKS]
Kód:
https://data.hu/get/11620810/D3352a.part1.rar
https://data.hu/get/11620809/D3352a.part2.rar
[/HIDE-THANKS]
vagy free
[HIDE-THANKS]
Kód:
https://data.hu/get/11620815/D3352av.part01.rar
https://data.hu/get/11620812/D3352av.part02.rar
https://data.hu/get/11620813/D3352av.part03.rar
https://data.hu/get/11620819/D3352av.part04.rar
https://data.hu/get/11620818/D3352av.part05.rar
https://data.hu/get/11620820/D3352av.part06.rar
https://data.hu/get/11620814/D3352av.part07.rar
https://data.hu/get/11620816/D3352av.part08.rar
https://data.hu/get/11620817/D3352av.part09.rar
https://data.hu/get/11620811/D3352av.part10.rar
[/HIDE-THANKS]
 

papadi

Állandó Tag
Állandó Tag
3047457-20190126-aeshTg.jpg

Sose halunk meg
Magyar film (1993)
Főszereplők: Koltai Róbert, Szabados Mihály, Máté Gábor, Jordán Tamás, Kathleen Gáti, Lukáts Andor, Pogány Judit, Csákányi László, Lontay Margit
Rendezte: Koltai Róbert
Hunnia Filmstúdió / Arriel International, 2002, november 22.
Hang: magyar
Felirat: angol, német (csak a dvd-n)

Tordai Imre színész munkája végeztével rohan az ügetőre. Szokása szerint veszít, de hirtelen felidéződik benne a kamaszkora, a hatvanas évek, amikor egyszer Gyuszi bácsival egyszer rengeteg pénzt nyertek. Vásározó vállfaárus nagybátyja vitte először lóversenyre, vidékre, vásárba, ő ismertette meg vele a szabadság, a nők, az élet ízeit néhány szertelen, furcsa nap alatt. Imi gátlásos, szorongó lénye értetlenül figyelte a nagy álmokat és kockázatot kergető nagybácsit...
Koltai Róbert első filmjét kitörő lelkesedéssel fogadta a kritika és - ami a lényeg - a közönség!
"Szívmelengető, szeretetreméltó utazás" - Kevin Thomas - Los Angeles Times
"A Sose halunk meg bemutatja, milyen is volt az élet Magyarországon a 60-as években. Jack Nicholson vagy Gene Hackman legnagyobb alakításaihoz hasonlóan Koltai Róbert Gyuszi bácsijából is sugárzik az élet szeretete a mostoha körülmények közepette is." - Michael Wilmington - Chicago Tribune
"A nevetés a legjobb orvosság. A Sose halunk meg milliónyi mosolyt ér." - Emily Mitchell - TIME
"Az utóbbi évek egyik legfelhőtlenebb szórakoztatást nyújtó vígjátéka Kelet-Európából" - Lloyd Sachs - Chicago Sun Times
"Régi szép idők, amikor lyukat rúghattunk az oroszok gólvonalán!..." - Farkasházy Tivadar


Extrák: (csak a dvd-n)
Koltai Róbert audiókommentárja
Vállfát (filmet) vegyenek! - werkfilm (59:56)

Média információ:
Video:
Kodek: MPEG-1/2 Video (mpgv)
Felbontás: 720x576
Képkockasebesség: 25
Képformátum: 1.78:1 (16:9)
Hang:
Kodek: A52 Audio (aka AC3) (a52)
Csatornák: Sztereó
Mintavételi frekvencia: 48000 Hz
Bitsebesség: 192 kb/mp
Formátum: iso
Méret: 7,11 GB
Műsoridő: 1:25:19 (2:25:35)
(prémium)
[HIDE-THANKS]
Kód:
https://data.hu/get/11653567/D0397i.part1.rar
https://data.hu/get/11653576/D0397i.part2.rar
https://data.hu/get/11653577/D0397i.part3.rar
https://data.hu/get/11653581/D0397i.part4.rar
https://data.hu/get/11653574/D0397i.part5.rar
https://data.hu/get/11653573/D0397i.part6.rar
https://data.hu/get/11653579/D0397i.part7.rar
https://data.hu/get/11653575/D0397i.part8.rar
[/HIDE-THANKS]

3047458-20190126-Iq4pmy.jpg

Formátum: dvdrip/avi
Méret: 1,10 MB
Felbontás: 720x416
Mintavételi frekvencia: 48000 Hz
Bitsebesség: 128 kbps
Műsoridő: 1:25:19
Részletes média információ:
I:\Video\Sose halunk meg.avi
General
Complete name : I:\Video\Sose halunk meg.avi
Format : AVI
Format/Info : Audio Video Interleave
File size : 1.11 GiB
Duration : 1 h 25 min
Overall bit rate : 1 860 kb/s
Writing application : VirtualDubMod 1.5.4.1 (build 2178/release)
Writing library : VirtualDubMod build 2178/release
Video #0
ID : 0
Format : MPEG-4 Visual
Format profile : Advanced [email protected]
Format settings, BVOP : 1
Format settings, QPel : No
Format settings, GMC : No warppoints
Format settings, Matrix : Custom
Codec ID : XVID
Codec ID/Hint : XviD
Duration : 1 h 25 min
Bit rate : 1 594 kb/s
Width : 720 pixels
Height : 416 pixels
Display aspect ratio : 1.731
Frame rate : 25.000 FPS
Color space : YUV
Chroma subsampling : 4:2:0
Bit depth : 8 bits
Scan type : Progressive
Compression mode : Lossy
Bits/(Pixel*Frame) : 0.213
Stream size : 973 MiB (86%)
Writing library : XviD 1.2.1 (UTC 2008-12-04)
Audio #1
ID : 1
Format : MPEG Audio
Format version : Version 1
Format profile : Layer 3
Mode : Joint stereo
Mode extension : MS Stereo
Codec ID : 55
Codec ID/Hint : MP3
Duration : 1 h 25 min
Bit rate mode : Constant
Bit rate : 128 kb/s
Channel(s) : 2 channels
Sampling rate : 48.0 kHz
Compression mode : Lossy
Stream size : 78.0 MiB (7%)
Alignment : Aligned on interleaves
Interleave, duration : 80 ms (2.00 video frames)
Interleave, preload duration : 504 ms
Writing library : LAME3.98r
Encoding settings : -m j -V 4 -q 2 -lowpass 17 -b 128
Audio #2
ID : 2
Format : MPEG Audio
Format version : Version 1
Format profile : Layer 3
Mode : Joint stereo
Mode extension : MS Stereo
Codec ID : 55
Codec ID/Hint : MP3
Duration : 1 h 25 min
Bit rate mode : Constant
Bit rate : 128 kb/s
Channel(s) : 2 channels
Sampling rate : 48.0 kHz
Compression mode : Lossy
Stream size : 78.0 MiB (7%)
Alignment : Aligned on interleaves
Interleave, duration : 80 ms (2.00 video frames)
Interleave, preload duration : 504 ms
Writing library : LAME3.98r
Encoding settings : -m j -V 4 -q 2 -lowpass 17 -b 128
[HIDE-THANKS]
Kód:
https://data.hu/get/11653570/D0397a.part1.rar
https://data.hu/get/11653571/D0397a.part2.rar
[/HIDE-THANKS]
vagy free
[HIDE-THANKS]
Kód:
https://data.hu/get/11653572/D0397av.part1.rar
https://data.hu/get/11653582/D0397av.part2.rar
https://data.hu/get/11653565/D0397av.part3.rar
https://data.hu/get/11653578/D0397av.part4.rar
https://data.hu/get/11653566/D0397av.part5.rar
https://data.hu/get/11653568/D0397av.part6.rar
[/HIDE-THANKS]
 

uzi9mm

Állandó Tag
Állandó Tag


Fekete Rózsa (1980)TVRip
magyar bűnügyi



mho0lhxg2jhg7qfkpzev.jpg


fuy68cobjg7ntnfg1sex.png


rendező:
Szőnyi G. Sándor

szereplők:
Bujtor István
Bod Teréz
Csomós Mari
Kovács János
Apor Noémi
Bánfalvy Ágnes
Szoboszlay Sándor
Ábrahám Edit


Gyilkosság történt 1961-ben, faluszéli portáján reggelre holtan találták Sajgó Dávid középkorú férfit, családapát. A rendőrségi vizsgálat során megállapítást nyert, hogy a meggyilkolt előző este felkereste a faluban Töre Annát, szerelmi ajánlatával ostromolta, ismételten házassági ajánlatot tett neki. A szemrevaló Töre Anna három gyermekét nevelte egyedül, három különböző apától, különcnek számított a közösségben. Meggyanúsították a haláleset kapcsán.


Kép
Kódek azonosító/Tipp : XviD
Időtartam : 82 perc
Adatsebesség : 1 397 kb/s
Szélesség : 640 képpont
Magasság : 480 képpont
Képarány : 4:3
Képkockasebesség : 25,000 FPS

Hang
Kódek azonosító/Tipp : MP3
Adatsebesség : 128 kb/s
Csatornák száma : 2 csatorna

o9coav6dmfz0td4envkf.gif

[HIDE-THANKS][/HIDE-THANKS]​
[HIDE-THANKS]
https://www.ulozto.net/!VbWSqsgPx9Jn/fekete-rozsa-1980-tvrip-xvid-hun-avi
[/HIDE-THANKS]
 

uzi9mm

Állandó Tag
Állandó Tag

Party (1977) TVRip

6cw9q5y4jz7cabfesjzi.jpg


fuy68cobjg7ntnfg1sex.png


rendezte:
Gábor Pál

szereplők:
Horváth Sándor
Bódis Irén
Gurnik Ilona
Szirtes Ádám
Bácskai Zoltán...

Kép
Kódek azonosító/Tipp : XviD
Időtartam : 44 perc 38 mp
Adatsebesség : 2 053 kb/s
Szélesség : 704 képpont
Magasság : 528 képpont
Képarány : 4:3
Képkockasebesség : 25,000 FPS

Hang
Kódek azonosító/Tipp : MP3
Adatsebesség : 128 kb/s
Csatornák száma : 2 csatorna
Mintavételezési gyakoriság : 48,0 kHz

o9coav6dmfz0td4envkf.gif

[HIDE-THANKS][/HIDE-THANKS]​
[HIDE-THANKS]
https://www.ulozto.net/!8EtmtBC55h1x/party-1977-tvrip-xvid-hun-avi
[/HIDE-THANKS]
 

uzi9mm

Állandó Tag
Állandó Tag



Könnyű Kis Gyilkosság (1967)
zenés vígjáték


btn169zv47jrlk0h58mn.jpg


fuy68cobjg7ntnfg1sex.png


rendező:
Rényi Tamás

Szereplők
Darvas Iván
Tordai Teri
Váradi Hédi
Bárdy György
Márkus László
Lőte Attila
Misoga László
Pongrácz Imre
Zentai Ferenc
Buss Gyula...

A film - alcíme szerint - ál-bűnűgyi komédia. És valóban. Izgalom, humor, fülbemászó muzsika és éneklő filmsztárok - Darvas Iván, Tordai Teri, Márkus László, Bárdy György, Váradi Hédi - mi kell még egy lebilincselő krimihez? Darvas Iván, a lezser éneklő nyomozó megbízást kap az evangélista társaságban történt gyilkosság kinyomozására. Vajon ki a gyilkos? És hogy jön a képbe Giuseppe Verdi?

Kép
Kódek azonosító/Tipp : XviD
Időtartam : 1 óra
Adatsebesség : 1 589 kb/s
Szélesség : 640 képpont
Magasság : 480 képpont
Képarány : 4:3
Képkockasebesség : 25,000 FPS

Hang
Időtartam : 1 óra
Adatsebesség mód : állandó
Adatsebesség : 128 kb/s
Csatornák száma : 2 csatorna

o9coav6dmfz0td4envkf.gif

[HIDE-THANKS][/HIDE-THANKS]​
[HIDE-THANKS]
https://www.ulozto.net/!SOjS4sZK4irC/konnyu-kis-gyilkossag-1967-tvrip-xvid-hun-avi
[/HIDE-THANKS]
 

uzi9mm

Állandó Tag
Állandó Tag


A nagyenyedi két fűzfa (1979)TVRip

gb1ne4qgmvkpaxakvsiu.jpg


fuy68cobjg7ntnfg1sex.png


rendező:
Bán Róbert

szereplők:
Józsa Imre
Sinkovits Vitai András
Málnay Zsuzsa
Kézdy György
Bencze Ferenc
Szoboszlay Sándor
Dánffy Sándor...

Az Enyed és Felvinc közötti úton egy patak partján két hatalmas fűzfa áll. Históriai emlék fűződik hozzájuk. Ezt az emléket eleveníti fel a történet, a kuruc-labanc háború idejéből. Bemutatja, hogyan mentették meg a várost a kollégium diákjai.


Kép
Kódek azonosító/Tipp : XviD
Időtartam : 78 perc
Adatsebesség : 1 460 kb/s
Szélesség : 704 képpont
Magasság : 528 képpont
Képarány : 4:3
Képkockasebesség : 25,000 FPS

Hang
Kódek azonosító/Tipp : MP3
Adatsebesség : 128 kb/s
Csatornák száma : 2 csatorna


o9coav6dmfz0td4envkf.gif

[HIDE-THANKS][/HIDE-THANKS]​
[HIDE-THANKS]
https://www.ulozto.net/!UHm704Wlml2k/a-nagyenyedi-ket-fuzfa-1979-tvrip-xvid-hun-avi
[/HIDE-THANKS]
 

uzi9mm

Állandó Tag
Állandó Tag


Utolsó Alkalom (1981) TVRip

7c2ptpwk04aosc4qpjy0.jpg


fuy68cobjg7ntnfg1sex.png


rendező:
Bácskai Lauró István

Szereplők:
Cserhalmi György (Kocsis nyomozó)
Bencze Ferenc (Matejka)
Makay Sándor (Feri)
Kenderesi Tibor (főnök)
Gera Zoltán (Sréth Kálmán)
Szabó Sándor (Sréth Jenő)
Máthé Erzsi (Sréthné)
Tábori Nóra (Szirmainé)
Dózsa László (Lucien)
Bánfalvy Ágnes (Hosszúpuska)
Mikó István (Gömbi)
Cserhalmi Erzsébet (Kocsisné)
Máriáss József (zongorista)
Mezey Lajos (orvos)
Dávid Ágnes (Erzsike)
Ullmann Mónika (kislány)
Ambrus András (házmester)
Kun Vilmos (tanú)
Markaly Gábor (nyomozó)
Molnár Miklós (technikus)

Az idős és gazdag Sréth Jolán első ránézésre egyértelműen rablógyilkosság áldozatává vált, de a nyomozás során egyre több múltbéli tragédia és beteljesületlen szerelmi történet lát napvilágot, mely teljesen új megvilágításba helyezi a bűncselekményt.

Kép
Kódek azonosító/Tipp : XviD
Időtartam : 75 perc
Adatsebesség : 1 526 kb/s
Szélesség : 704 képpont
Magasság : 528 képpont
Képarány : 4:3
Képkockasebesség : 25,000 FPS

Hang
Kódek azonosító/Tipp : MP3
Adatsebesség : 128 kb/s
Csatornák száma : 2 csatorna

o9coav6dmfz0td4envkf.gif

[HIDE-THANKS][/HIDE-THANKS]​
[HIDE-THANKS]
https://www.ulozto.net/!K27xZ8xsSEXL/utolso-alkalom-1981-tvrip-xvid-hun-avi
[/HIDE-THANKS]
 

uzi9mm

Állandó Tag
Állandó Tag



Mérsékelt Égöv (1970) TVRip

szzovtuw2qcnn78mvs68.jpg


fuy68cobjg7ntnfg1sex.png


rendező:
Kézdi-Kovács Zsolt

Szereplők
Törőcsik Mari
Kozák András
Somogyvári Rudolf
Benkő Péter
Kállai Ferenc
Raksányi Gellért
Szirtes Ádám
Molnár Tibor
Gellért Marcell
Körtvélyessy Zsolt
Kiss Gábor
Szersén Gyula...

A hegyektől elzárt kis faluban élő Kalán Imre körorvoshoz látogatók érkeznek. Két rokon fiú és barátjuk, a pályakezdő doktor, Király András, Kalán fiatal feleségének egykori nagy szerelme. Az ortodox sztálinista Kalán életét teljesen betölti legfőbb szenvedélye, a vadászat. András előtt lassan feltárul a vidék fontos embereinek belterjes, fullasztó világa. Látja, hogy Mari nem szereti férjét. Megpróbál közeledni hozzá, de a nő elutasítja. A féltékeny és agresszív Kalán azonban mit sem törődik ezzel.

Kép
Kódek azonosító/Tipp : XviD
Időtartam : 1 óra
Adatsebesség : 1 105 kb/s
Szélesség : 704 képpont
Magasság : 288 képpont
Képarány : 2,40:1
Képkockasebesség : 25,000 FPS7

Hang
Kódek azonosító/Tipp : MP3
Adatsebesség : 128 kb/s
Csatornák száma : 2 csatora

o9coav6dmfz0td4envkf.gif

[HIDE-THANKS][/HIDE-THANKS]​
[HIDE-THANKS]
https://www.ulozto.net/!JpKZjFPnT5fH/mersekelt-egov-1970-tvrip-xvid-hun-avi
[/HIDE-THANKS]
 

uzi9mm

Állandó Tag
Állandó Tag


Nyom Nékül (1982) TVRip
Magyar Krimi


0ygnz0dorkd89dymunm7.jpg


fuy68cobjg7ntnfg1sex.png


rendező:
Fábry Péter

szereplők:
Cseh Tamás
Eperjes Károly
Hunyadkürti István
Szacsvay László
Bezerédi Zoltán
Gera Zoltán
Reviczky Gábor
Töreky Zsuzsa
Sir Kati
Temessy Hédi

Buksi, a csempész találkozik az értelmiségi Péterrel, akit már régóta foglalkoztat a tökéletes, nyom nélküli bűntény gondolata. A csempész rábeszéli, hogy dolgozzanak együtt: Péter kiterveli az akciót, Buksi haverjai pedig végrehajtják. Nyom nélkül.


Kép
Kódek azonosító/Tipp : XviD
Időtartam : 82 perc
Adatsebesség : 1 388 kb/s
Szélesség : 704 képpont
Magasság : 512 képpont
Képarány : 1,375
Képkockasebesség : 25,000 FPS

Hang
Kódek azonosító/Tipp : MP3
Adatsebesség : 132 kb/s
Csatornák száma : 2 csatorna
Mintavételezési gyakoriság : 48,0 kHz

o9coav6dmfz0td4envkf.gif

[HIDE-THANKS]
https://ulozto.net/!GF2RCM3GuPwD/nyom-nelkul-1982-tvrip-xvid-hun-avi
[/HIDE-THANKS]​
 

uzi9mm

Állandó Tag
Állandó Tag


Bolondok Kvártélya (1979) TVRip


lynmdjdyxdh4p08xqpa5.jpg


fuy68cobjg7ntnfg1sex.png


rendező:
Horváth Z. Gergely

szereplők:
Kozák András
Teresa Magda
Novák István
Bence Ferenc
Őze Lajos
Garas Dezső
Bessenyei Ferenc
Haumann Péter
Szacsvay László
Szegedi Erika
Kiss Mari
Szirtes Ági
Temessy Hédi
Gobbi Hilda
Tábori Nóra...

A kocsma filozófusai, piroslámpás házak törzsvendégei, a nők hajlékony lelkű pártfogoltjai, a szerelem szenvedő, lelkesült és cinikus lovagjai: a legismerősebb Krúdy-hősök elevenednek meg ebben a filmben.

Kép
Kódek azonosító/Tipp : XviD
Időtartam : 79 perc
Adatsebesség : 1 449 kb/s
Szélesség : 704 képpont
Magasság : 512 képpont
Képkockasebesség : 25,000 FPS

Hang
Kódek azonosító/Tipp : MP3
Adatsebesség : 128 kb/s
Csatornák száma : 2 csatorna

o9coav6dmfz0td4envkf.gif

[HIDE-THANKS][/HIDE-THANKS]​
[HIDE-THANKS]
https://www.ulozto.net/!DasuqUuFDWRc/bolondok-kvartelya-1979-tvrip-xvid-hun-avi
[/HIDE-THANKS]
 

uzi9mm

Állandó Tag
Állandó Tag

Gúnyos Mosoly (1973) TVRip

e57c4qsl7o66mecx050k.jpg


fuy68cobjg7ntnfg1sex.png


rendező:
Nemere László

szereplők:
Drahota Andrea
Papp János
Szemes Mari
György László
Bara Margit
Rajz János
Pécsi Ildikó
Hacser Józsa
Petényi Ilona
Inke László
Tándor Lajos
Kelemen Éva

Móricz Virág azonos című kisregényéből készült tévéfilm. A színhely a Dunakanyar egy kis faluja, ahová nemrégiben fiatal patikus-orvos házaspár érkezett három gyerekkel. A falu közössége mindent elkövet, hogy helyben tartsa őket, de az idős doktor bácsihoz ragaszkodnak, így a fiatalasszonynak nincs munkája. Ráadásul az ifjú patikuson minden asszonynak megakad a szeme.


Kép
Kódek azonosító/Tipp : XviD
Időtartam : 83 perc
Adatsebesség : 1 724 kb/s
Szélesség : 704 képpont
Magasság : 528 képpont
Képarány : 4:3
Képkockasebesség : 25,000 FPS

Hang
Kódek azonosító/Tipp : MP3
Adatsebesség : 128 kb/s
Csatornák száma : 2 csatorna
Mintavételezési gyakoriság : 48,0 kHz


o9coav6dmfz0td4envkf.gif

[HIDE-THANKS][/HIDE-THANKS]​
[HIDE-THANKS]
https://ulozto.net/!oPO0rE5V1vYx/gunyos-mosoly-1973-tvrip-xvid-hun-avi
[/HIDE-THANKS]
 
Oldal tetejére