Természet és dokumentumfilmek vagy sorozataik

ARoland témája a 'Film, színház, tánc' fórumban , 2010 Május 14.

  1. loborj

    loborj Állandó Tag

    Törvénytelenek krónikái: A pokol angyalai
    (Outlaw Chronicles: Hells Angels) 2015
    színes, magyarul beszélő, amerikai dokumentum (1-6 rész)

    [​IMG]


    Rendező: Josh Richards

    Szereplők:
    George Christie, Jay Dobyns, Julian Sher, Jeremiah Benjamin, Beach Eastwood


    A Pokol angyalai (Hells Angels) a világ leghírhedtebb motoros klubja, egy bűnszervezet, melyet titkos homály fed, ami csak növeli félelmetes hírét. George Christie a Ventura csoportot vezette 35 éven át, mint klubelnök. Christie maga meséli el a nyilvánosság számára eddig ismeretlen történeteket. A "betyár" értelmezése szerint mesél a bandáról, nyíltan beszél a beavatási szertartásokról és a bérgyilkosságokról. A sorozat bepillantást enged a hírhedt motorosbanda életébe.



    Video: mkv, 210 MiB, 42min, 720x404 pixels, 25.000 fps
    Audio: AAC, 2 channels, 48.0 KHz, Hungarian
    Free könyvtár:

    Rejtett tartalom:
    **Rejtett tartalom: A tartalom megjelenítéséhez kattints a 'Tetszik' gombra.**
     
    Utoljára módosítva a moderátor által: 2018 Augusztus 13
  2. atesz5

    atesz5 Állandó Tag

    Az utolsó prémvadász (The Last Trapper/Le dernier trappeur) 2004
    Dvdrip Hundub Openload.co
    színes, magyarul beszélő, francia-kanadai-svájci-német-olasz dokumentum-kalandfilm, 100 perc,

    [​IMG]

    rendező: Nicolas Vanier
    forgatókönyvíró: Nicolas Vanier
    zeneszerző: Krishna Levy
    operatőr: Thierry Machado
    producer: Jean-Pierre Bailly
    vágó: Yves Chaput

    szereplők:
    Norman Winther,
    May Loo,
    Alex Van Bibber,
    Ken Bolton,
    Denny Denison

    Az. utolso.premvadász.2004.Custom.Hun.NTSC.DVDRip.XVID-Buksza
    Videó információk:

    Méret: 1,08 GB
    Hossz: 1:40:43
    Típus: AVI (XviD - XviD project)
    Felbontás: 704 x 336 pixel
    Bitráta: 1 333 Kbps
    Képkockák száma/mp: 23.976
    Oldalarány: 2.095

    Audió információk:
    Audiósávok száma: 1
    Audiosáv #1 adatai:
    Audiósáv típusa: AC3 (AC3)
    Csatornák száma: 2
    Bitráta: 192 Kbps CBR
    Mintavételezési frekvencia: 48.0 KHz

    A francia dokumentum-kalandfilm Norman Winther életét mutatja be, aki feleségével és kutyáival harcol az életben maradásért a kanadai Yukon hófödte tájain. Norman nem véreskezű vadász, csupán a túlélésért van szüksége az állatokra. Az életben maradás pedig nem is olyan egyszerű, mert a természet mellett az ipar folyamatos térhódításával is meg kell küzdenie. Az utolsó prémvadász című film valóságosan mutatja be az ember és természet közötti egyensúlyt, a dokumentumfilm hitelességével és elbeszélő részekkel színesítve!

    [​IMG]


    Rejtett tartalom:
    **Rejtett tartalom: A tartalom megjelenítéséhez kattints a 'Tetszik' gombra.**
     
    Utoljára módosítva a moderátor által: 2018 Augusztus 14
  3. jencuska

    jencuska Állandó Tag

    [​IMG]
    A hét törpe Auschwitz-ban
    Standing Tall at Auschwitz
    TVRip.Hun
    (2006)
    dokumentumfilm, 46 perc,

    forgatókönyvíró: Bill Brummel
    szereplő(k): Meredith Eaton

    Kód:
    http://www.imdb.com/title/tt0795477/
    Kód:
    http://www.port.hu/a_het_torpe_auschwitz-ban_standing_tall_at_auschwitz/pls/w/films.film_page?i_film_id=175101
    Kód:
    https://www.amazon.com/Standing-Tall-At-Auschwitz-at/dp/B002O142DE/189-0689612-1241645?ie=UTF8&*Version*=1&*entries*=0
    Nem mesebeli történet
    A bevagonírozott magyarországi zsidókhoz hasonlóan a lilliputiak sem tudták, hogy a három napon át tartó vonatút végén a náci Németország leghírhedtebb megsemmisítő táborába érkeztek. Az auschwitz-birkenaui koncentrációs tábor – amely három fő táborból és 40-50 kisebb táborból állt – területén mintegy 1,1 millió embert gyilkoltak meg, többségükben (90 százalék) zsidókat. Amint az SS-tiszt felocsúdott a kezdeti döbbenetből, nyomban parancsba adta, hogy „ébresszék fel a doktort”.

    Egyetlen törpe miatt talán fel sem ébredt volna mély álmából 1944 májusának egyik hajnalán Joseph Mengele, de egy család – amely ráadásul hét tagból áll – már a sokat látott orvos érdeklődését is felkeltette. A partiumi Máramaros megyéből származó Ovitz-család legifjabbik tagja, a 23 éves Perla Ovitz eleinte – látva az építmény tetején füstölő két hatalmas kéményt – pékségre gyanakodott, de az egyik, a vonatról történő leszállításban segédkező, csíkos rabruhát viselő zsidó hamar felvilágosította: itt nem kenyeret sütnek, hanem embereket küldenek a másvilágra.

    Mengele 1943-ban érkezett Auschwitzba, hogy az ikerszületések titkát kutassa. Első feladata az volt, hogy megoldást találjon az egyik női táborban kitörő tífuszjárványra; Mengele erre egy egész női barakkot a gázkamrába küldött. Fanatikus kísérletezései során semmitől sem riadt vissza, volt, akiknek összevarrta vénáit, hogy mesterségesen sziámi ikrekké tegye őket. Érdekelték a szemszínnel kapcsolatos vizsgálatok is: előfordult, hogy páciensei szemének színét úgy akarta megváltoztatni, hogy kék festéket fecskendezett bele, ez azonban legtöbbször csak fájdalomhoz és vaksághoz vezetett.

    Rejtett tartalom:
    **Rejtett tartalom: A tartalom megjelenítéséhez kattints a 'Tetszik' gombra.**
     
    Utoljára módosítva a moderátor által: 2018 Augusztus 13
  4. rigojozsef

    rigojozsef Őstag

    David Attenborough: Madagaszkár (Madagascar)
    színes, angol természetfilm-sorozat, 2011
    Blu-ray Rip, HD 720p, DualAudio (Hun&Eng)


    Az Afrika partjai mellett fekvő Madagaszkár misztikus hegyek, trópusi esőerdők és fura tüskés cserje-sivatagok földje.
    Állatvilága elszigetelten fejlődött, ezért bizarr és különleges. A Föld azon néhány területe közé tartozik,
    ahol a vadvilág még tartogat felfedezésre váró rejtélyeket.
    Ez a háromrészes sorozat bemutatja az eső áztatta erdőktől a száraz vidékek fantasztikus növényvilágát,
    a különleges állatvilágot: ezt a lenyűgöző, de törékeny szigetet, melyhez hasonló nincs a föld kerekén.

    [​IMG]


    Technikai info

    Általános
    Formátum: mkv
    Időtartam: kb. 51 perc
    Méret: kb. 1 GB

    Kép
    Formátum: H.264/AVC
    Felbontás: 1280x720 (720p)
    Képarány: 16:9
    Képkockasebesség: 25 fps

    Hang #1
    Nyelv: magyar
    Forrás: HDTV-adás
    Formátum: MP3
    Csatornák száma: 2 (sztereó)
    Adatsebesség: 128 Kbps
    Mintavételezési gyakoriság: 44,1 KHz

    Hang #2
    Nyelv: angol
    Forrás: Blu-ray
    Formátum: MP3
    Csatornák száma: 2 (sztereó)
    Adatsebesség: 128 Kbps
    Mintavételezési gyakoriság: 44,1 KHz

    Vágott változat!
    A magyarok az eredeti változatból néhány percet kivágtak.
    A kivágott jelenetek nincsenek pótolva, tehát a magyar hangsáv teljes mértékben magyar hangsáv, nincs belefoldozva az angolból.
    KIVÉTEL: a 3. rész utolsó kb. fél percében David Attenborough néhány mondatot mond angolul, ehhez van mellékelve felirat a matroska fájlban.

    1. Csodák szigete

    Rejtett tartalom:
    **Rejtett tartalom: A tartalom megjelenítéséhez kattints a 'Tetszik' gombra.**
    2. Elveszett világok

    Rejtett tartalom:
    **Rejtett tartalom: A tartalom megjelenítéséhez kattints a 'Tetszik' gombra.**
    3. A hőség és por földje

    Rejtett tartalom:
    **Rejtett tartalom: A tartalom megjelenítéséhez kattints a 'Tetszik' gombra.**
    Mappalink:
    Rejtett tartalom:
    **Rejtett tartalom: A tartalom megjelenítéséhez kattints a 'Tetszik' gombra.**

    Jó szórakozást! :)
     
    Utoljára módosítva a moderátor által: 2018 Augusztus 9
  5. uzi9mm

    uzi9mm Állandó Tag




    Az Amerikai Stici - American Pimp (1999) TVRip
    szinkronizált,amerikai dokumentum


    [​IMG]

    [​IMG]

    [​IMG]

    rendezte:
    Albert Hughes,Allen Hughes

    Szereplők:
    Too $hort
    John S. Dickson
    Heidi Fleiss
    Hugh M. Hefner
    Dennis Hof
    Link Brown
    Antonio Fargas
    Max Julien
    L. Hammond
    Rudy Ray Moore (Dolemite)
    Carol Speed

    A popkultúra ikonikus figuráiról, a prostik futtatóiról kialakított kép darabokra hullik ebben a mai stricikről szóló dokumentumfilmben. Interjúkból, térfigyelő kamerás felvételekból és klasszikus filmrészletekből áll össze a városi testkereskedőkról készített film, amely bár részvéttel tekint szereplőire, bemutatja az erőszak és kizsákmányolás világát, ahol a stricik a teljhatalmú urak.

    Kép
    Kódek azonosító/Tipp : XviD
    Időtartam : 85 perc
    Adatsebesség : 1 274 kb/s
    Szélesség : 704 képpont
    Magasság : 400 képpont
    Képarány : 16:9
    Képkockasebesség : 25,000 FPS

    Hang
    Kódek azonosító/Tipp : MP3
    Adatsebesség : 192 kb/s
    Csatornák száma : 2 csatorna
    Mintavételezési gyakoriság : 48,0 kHz

    [​IMG]

    Rejtett tartalom:
    **Rejtett tartalom: A tartalom megjelenítéséhez kattints a 'Tetszik' gombra.**
     
    Utoljára módosítva a moderátor által: 2018 Augusztus 9
  6. atesz5

    atesz5 Állandó Tag

    Dubaj Az olajban született oázis (Dubai: oasis born from oil) 2017
    PDTV Hundub Openload.co
    színes, magyar ismeretterjesztő film,

    [​IMG]

    Rendező:
    Jurkovics Milán

    Színész
    -Jurkovics Milán


    Dubaj.az.olajban.szuletett.oazis.2017.HDTV.x264.Hun-MrX.mkv
    Videó információk:

    Méret: 201,70 MB
    Hossz: 0:34:48
    Típus: MPEG-4 (AVC - Advanced Video Codec)
    Felbontás: 720 x 404 pixel
    Bitráta: 644 Kbps
    Képkockák száma/mp: 25.000
    Oldalarány: 16/9

    Audió információk:
    Audiósávok száma: 1
    Audiosáv #1 adatai:
    Audiósáv típusa: A_AAC/MPEG4/LC (AAC LC)
    Csatornák száma: 2
    Bitráta: 160 Kbps VBR
    Mintavételezési frekvencia: 48.0 KHz

    Dubaj a legek városa, bolygónk legdinamikusabban növekvő települése. Kevés olyan ember él a Földön, akinek ne lenne róla markáns véleménye. Egyesek csodálják monumentális építészetét és csillogását, mások felháborodnak az itt élők pazarló életvitelén. A világgazdasági és a természeti kihívásokra eddig megfelelő választ adott a vezetés. De Földünkön a gigaberuházásokkal hatalmas ökológiai lábnyomot hagytak maguk után. A film fenntartható fejlődés szemszögéből szeretné bemutatni ezt a sivatagból kinőtt megapoliszt. Vajon mi lesz Dubajjal 50 év múlva? Képes lesz-e a változásra, vagy hollywoodi apokaliptikus filmek forgatási helyszíne lesz?

    Rejtett tartalom:
    **Rejtett tartalom: A tartalom megjelenítéséhez kattints a 'Tetszik' gombra.**
     
    Utoljára módosítva a moderátor által: 2018 Augusztus 9
  7. atesz5

    atesz5 Állandó Tag

    Az utolsó háborús hősök (World War II Last War Heroes) 2011
    TVrip Hundub Openload.co
    Angol , szinkronizált dokumentumfilm, 45 perc

    [​IMG]

    Rendező:
    Paul Kilback,
    Crispin Reece

    Szereplők:Jeremy Llewellyn-Jones

    Az utolso haborus hosok-
    Videó információk:

    Méret: 913,14 MB
    Hossz: 0:44:59
    Típus: Matroska (AVC - Advanced Video Codec)
    Felbontás: 1280 x 720 pixel
    Bitráta: 2 556 Kbps
    Képkockák száma/mp: 25.000
    Oldalarány: 16/9

    Audió információk:
    Audiósávok száma: 1
    Audiosáv #1 adatai:
    Audiósáv típusa: AC3 (AC3)
    Csatornák száma: 2
    Bitráta: 160 Kbps CBR
    Mintavételezési frekvencia: 44.1 KHz

    Berlin bevétele
    Kitörés Normandiából
    A partraszállás napja
    A Caeni csata
    Az ardenneki csata
    Az arnhemi híd


    Normandia és Berlin között nem akkora a távolság, hogy az ember megerőltetőnek érezné az utazást – kivéve, ha a német hadsereg páncélosaival és katonáival kénytelen megküzdeni minden egyes méterért... A National Geographic új sorozatában épületek és hidak robbannak, s egykori szövetséges katonák vallanak frontvonalon szerzett tapasztalataikról.

    Rejtett tartalom:
    **Rejtett tartalom: A tartalom megjelenítéséhez kattints a 'Tetszik' gombra.**
    [​IMG]
     
    Utoljára módosítva a moderátor által: 2018 Augusztus 9
  8. papadi

    papadi Állandó Tag

    [​IMG]

    Rock lexikon 1: Benkő László / Szörényi Levente
    Riport-dokumentumfilm (2007)
    Riporter: Nagy György

    1a - Benkő László (50'10)
    1b - Szörényi Levente (49'58)

    (dvdrip - avi - 1,75 GB - 720x544 - 1'40'08)
    Rejtett tartalom:
    **Rejtett tartalom: A tartalom megjelenítéséhez kattints a 'Tetszik' gombra.**
    [​IMG]

    Rock lexikon 2: Bergendy István / Zalatmay Sarolta
    Riport-dokumentumfilm (2007)
    Riporter: Nagy György

    2a - Bergendy István (49'52)
    2b - Zalatnay Sarolta (49'48)

    (dvdrip - avi - 1,75 GB - 720x544 - 1'39'40)
    Rejtett tartalom:
    **Rejtett tartalom: A tartalom megjelenítéséhez kattints a 'Tetszik' gombra.**
    [​IMG]

    Rock lexikon 3: Charlie / Zorán
    Riport-dokumentumfilm (2007)
    Riporter: Nagy György

    3a - Charlie (50'10)
    3b - Zorán (50'12)

    (dvdrip - avi - 1,75 GB - 720x544 - 1'40'22)
    Rejtett tartalom:
    **Rejtett tartalom: A tartalom megjelenítéséhez kattints a 'Tetszik' gombra.**
     
    Utoljára módosítva a moderátor által: 2018 Augusztus 13
  9. papadi

    papadi Állandó Tag

    [​IMG]

    Privát rocktörténet [15] - úravágva! - A Kispál és a Borz
    Riport-dokumentumfilm (2007/2011)
    Riporter: Veress Dóra, narrátor: Magyar Kinga
    Szerkesztő-rendező: Gellért Gábor

    1 - Kispál és a Borz (974 MB - 1'04'51)
    2 - Kispál és a Borz (az eredeti film) (925 MB - 59'58)
    3a - VOLT fesztivál (350 MB - 21'09)
    3b - Próba (59,9 MB - 3'39)

    (dvdrip - avi - 2,25 GB - 720x416 - 2'29'38)
    Rejtett tartalom:
    **Rejtett tartalom: A tartalom megjelenítéséhez kattints a 'Tetszik' gombra.**
    [​IMG]

    Privát rocktörténet [1] - újravágva! - Az Omega
    Riport-dokumentumfilm (2007/2011)
    Riporter: Veress Dóra, narrátor: Magyar Kinga
    Szerkesztő-rendező: Gellért Gábor

    1 - Az Omega (975 MB - 1'04'48)
    2 - Próba (175 MB - 10'39)
    3 - Az Omega (az eredeti film) (874 MB - 57'18)

    (dvdrip - avi - 1,97 GB - 720x416 - 2'12'46)
    Rejtett tartalom:
    **Rejtett tartalom: A tartalom megjelenítéséhez kattints a 'Tetszik' gombra.**
    [​IMG]

    Privát rocktörténet [49-50] - Az Illés I-II
    Riport-dokumentumfilm (2007/2011)
    Riporter: Veress Dóra, narrátor: Magyar Kinga
    Szerkesztő-rendező: Gellért Gábor

    1 - Az Illés 1 (850 MB - 54'44)
    2 - Az Illés 2 (850 MB - 56'31)
    3a - Saját számok magyarul (20,0 MB - 1'41)
    3b - Névadás (19,9 MB - 1'08)
    3c - A szerzőpáros egymásra talál (19,8 MB - 1'59)
    3d - Bródy és a szövegírás (19,9 MB - 1'49)

    (dvdrip - avi - 1,73 GB - 720x416 - 1'57'54)
    Rejtett tartalom:
    **Rejtett tartalom: A tartalom megjelenítéséhez kattints a 'Tetszik' gombra.**
    [​IMG]

    Privát rocktörténet 10 - A Hobo Blues Band
    Riport-dokumentumfilm (2006)
    Riporter: Veress Dóra, narrátor: Magyar Kinga
    Szerkesztő-rendező: Gellért Gábor

    Megjegyzés: a Kopaszkutya dvd extrája

    (dvdrip - avi - 691 MB - 720x432 - 59'06)
    Rejtett tartalom:
    **Rejtett tartalom: A tartalom megjelenítéséhez kattints a 'Tetszik' gombra.**
     
    Utoljára módosítva a moderátor által: 2018 Augusztus 13
  10. papadi

    papadi Állandó Tag

    Néhány további rész a netről gyűjtve - ismét köszönet a feltöltőknek

    [​IMG]

    Privát rocktörténet 3 - Piramis
    Riport-dokumentumfilm (2006)
    Riporter: Veress Dóra, narrátor: Magyar Kinga
    Szerkesztő-rendező: Gellért Gábor

    (tvrip - avi - 419 MB - 560x336 - 59'14)
    Rejtett tartalom:
    **Rejtett tartalom: A tartalom megjelenítéséhez kattints a 'Tetszik' gombra.**
    [​IMG]

    Privát rocktörténet 5 - A Korál
    Riport-dokumentumfilm (2006)
    Riporter: Veress Dóra, narrátor: Magyar Kinga
    Szerkesztő-rendező: Gellért Gábor

    (tvrip - avi - 419 MB - 576x336 - 59'33)
    Rejtett tartalom:
    **Rejtett tartalom: A tartalom megjelenítéséhez kattints a 'Tetszik' gombra.**
    [​IMG]

    Privát rocktörténet 6 - A Karthago
    Riport-dokumentumfilm (2006)
    Riporter: Veress Dóra, narrátor: Magyar Kinga
    Szerkesztő-rendező: Gellért Gábor

    (tvrip - avi - 418 MB - 560x336 - 59'40)
    Rejtett tartalom:
    **Rejtett tartalom: A tartalom megjelenítéséhez kattints a 'Tetszik' gombra.**
    [​IMG]

    Privát rocktörténet 7 - A Beatrice
    Riport-dokumentumfilm (2006)
    Riporter: Veress Dóra, narrátor: Magyar Kinga
    Szerkesztő-rendező: Gellért Gábor

    (tvrip - avi - 411 MB - 560x336 - 59'18)
    Rejtett tartalom:
    **Rejtett tartalom: A tartalom megjelenítéséhez kattints a 'Tetszik' gombra.**
    [​IMG]

    Privát rocktörténet 8 - A Bikini
    Riport-dokumentumfilm (2006)
    Riporter: Veress Dóra, narrátor: Magyar Kinga
    Szerkesztő-rendező: Gellért Gábor

    (tvrip - avi - 427 MB - 560x336 - 59'47)
    Rejtett tartalom:
    **Rejtett tartalom: A tartalom megjelenítéséhez kattints a 'Tetszik' gombra.**
    [​IMG]

    Privát rocktörténet 11 - Az Edda Művek
    Riport-dokumentumfilm (2006)
    Riporter: Veress Dóra, narrátor: Magyar Kinga
    Szerkesztő-rendező: Gellért Gábor

    (tvrip - avi - 439 MB - 672x504 - 58'35)
    Rejtett tartalom:
    **Rejtett tartalom: A tartalom megjelenítéséhez kattints a 'Tetszik' gombra.**
    [​IMG]

    Privát rocktörténet 12 - A Skorpió
    Riport-dokumentumfilm (2006)
    Riporter: Veress Dóra, narrátor: Magyar Kinga
    Szerkesztő-rendező: Gellért Gábor

    (tvrip - avi - 436 MB - 544x336 - 57'22)
    Rejtett tartalom:
    **Rejtett tartalom: A tartalom megjelenítéséhez kattints a 'Tetszik' gombra.**
    [​IMG]

    Privát rocktörténet 17 - Az LGT
    Riport-dokumentumfilm (2006)
    Riporter: Veress Dóra, narrátor: Magyar Kinga
    Szerkesztő-rendező: Gellért Gábor

    (tvrip - avi - 406 MB - 672x504 - 58'41)
    Rejtett tartalom:
    **Rejtett tartalom: A tartalom megjelenítéséhez kattints a 'Tetszik' gombra.**
    [​IMG]

    Privát rocktörténet 20 - A Bonanza Banzai
    Riport-dokumentumfilm (2007)
    Riporter: Veress Dóra, narrátor: Magyar Kinga
    Szerkesztő-rendező: Gellért Gábor

    (tvrip - avi - 393 MB - 640x368 - 59'51)
    Rejtett tartalom:
    **Rejtett tartalom: A tartalom megjelenítéséhez kattints a 'Tetszik' gombra.**
    [​IMG]

    Privát rocktörténet 22 - Charlie és az új Generál
    Riport-dokumentumfilm (2007)
    Riporter: Veress Dóra, narrátor: Magyar Kinga
    Szerkesztő-rendező: Gellért Gábor

    (tvrip - avi - 700 MB - 640x400 - 59'54)
    Rejtett tartalom:
    **Rejtett tartalom: A tartalom megjelenítéséhez kattints a 'Tetszik' gombra.**
    [​IMG]

    Privát rocktörténet 44 - A Bergendy
    Riport-dokumentumfilm (2008)
    Riporter: Veress Dóra, narrátor: Magyar Kinga
    Szerkesztő-rendező: Gellért Gábor

    (tvrip - avi - 700 MB - 640x384 - 54'43)
    Rejtett tartalom:
    **Rejtett tartalom: A tartalom megjelenítéséhez kattints a 'Tetszik' gombra.**
     
    Utoljára módosítva a moderátor által: 2018 Augusztus 13
  11. papadi

    papadi Állandó Tag

    [​IMG]

    VOLT Fesztivál - archív felvételek 2000-2004
    Zenés összeállítás (2004)

    1. IX. VOLT Fesztivál (2001) Szerkesztő-riporter: Rieger Johanna, Rendezte: Seres Tamás (52΄44)
    2. X. VOLT Fesztivál (2002) A Magyar Televízió Bónusz című műsora. Riporter: Demény Rózsa, Szerkesztő: Szilágyi Anna (25΄06)
    3. Ember a VOLT-on (2002) Főszereplő: Hubanov Zoltán, Készítette: Bolyoczki Botond, Putz Attila, Koller László (Qka MC), Dósa Richárd (Ricsi Pí) (21΄04)
    4. XI. VOLT Fesztivál (2003) A Magyar Televízió Bónusz című műsora. Szerkesztő-riporter: Szilágyi Anna (23΄27)
    5. XII. VOLT Fesztivál (2004) A Magyar Televízió Bónusz című műsora. Szerkesztő-riporter: Szilágyi Anna (24΄13)

    Extrák:
    Reklámspotok
    IX. VOLT Fesztivál reklámspot (2001) (0΄31)
    X. VOLT Fesztivál reklámspot (2002) (0΄31)
    XI. VOLT Fesztivál reklámspot (2003) (0΄31)
    XII. VOLT Fesztivál reklámspot (2004) (0΄31)

    Videoklipek
    Thievery Corporation: Warning Shots (3΄27)
    Client: Rock and Roll Machine (3΄34)
    Saint Privat: Tous Les Jours (2΄30)
    Deledap: Angelo (3΄46)
    Moby Dick: Lélekromboló torpedó (3΄36)
    Tankcsapda: Azt mondom állj! (4΄29)
    Ákos: Keresem az utam (koncertfelvétel, 2004) (5΄07)
    Animal Cannibals & Nyers: Soha többet együtt! - a VOLT Fesztivál dala (2002) (3΄45)
    Anima Sound System: More fire (3΄18)

    (2005 - dvd9 - iso – 7,26 GB - 720x576 px - 256 kbps - 3΄02΄10)
    Rejtett tartalom:
    **Rejtett tartalom: A tartalom megjelenítéséhez kattints a 'Tetszik' gombra.**
     
    őrszem, vaniliaalomkex és saci.sikeres kedveli ezt.
  12. hangay13

    hangay13 Állandó Tag

    Én is, más is többször kerestem a "Kati és a vadmacska" c. filmet.
    A YouTube-on már megtalálható!
     
    Utoljára módosítva a moderátor által: 2018 Augusztus 9
  13. papadi

    papadi Állandó Tag

    [​IMG]

    Csodálatos Görögország
    Magyar útifilmsorozat
    Készítették: Molnár Z. Tamás, Németh Nándor, Német Tamás, Pápai Elvira, Por Zoltán, Tóth János
    Narrátor: Dobránszki Zoltán
    Computer Panoráma 2003/09-2004/03

    A sorozat rövíditett változata

    2003-04 - dvdrip - avi - 720x544 px - 128 kbps - 3:19:34

    1. Rodosz (348 MB - 34:45)
    Rejtett tartalom:
    **Rejtett tartalom: A tartalom megjelenítéséhez kattints a 'Tetszik' gombra.**
    2. Szantorini (322 MB - 32:14)
    Rejtett tartalom:
    **Rejtett tartalom: A tartalom megjelenítéséhez kattints a 'Tetszik' gombra.**
    3. Kréta (320 MB - 33:07)
    Rejtett tartalom:
    **Rejtett tartalom: A tartalom megjelenítéséhez kattints a 'Tetszik' gombra.**
    4. Jón-szigetek (297 MB - 29:42)
    Rejtett tartalom:
    **Rejtett tartalom: A tartalom megjelenítéséhez kattints a 'Tetszik' gombra.**
    5. Görögország (352 MB - 35:20)
    Rejtett tartalom:
    **Rejtett tartalom: A tartalom megjelenítéséhez kattints a 'Tetszik' gombra.**
    6. Korfu (344 MB - 34:26)
    Rejtett tartalom:
    **Rejtett tartalom: A tartalom megjelenítéséhez kattints a 'Tetszik' gombra.**
     
  14. papadi

    papadi Állandó Tag

    [​IMG]

    David Suchet az Orient expresszen
    (David Suchet on the Orient Express)
    Feliratos angol dokumentumfilm (2010)
    Rendezte: Chris Malone

    David Suchet (Agatha Christie Poirotja) az Orient expressz titokzatos múltja, történelme és romantikája után nyomoz. Az Orient expressz neve első útja óta, melyet Párizsból Bécsbe tett meg 1883-ban egyet jelent a luxussal. Nem csak utasokat szállít lenyűgöző tájakon keresztül, hanem visszaviszi őket egy elbűvölő régmúlt világba.
    David Suchet amellett, hogy beszélget utasokkal és élvezi ezt az életre szóló utazást, találkozik azokkal, akik életben tartják ezt a fantáziát.


    [​IMG]

    Formátum: dvdrip/avi
    Méret: 588 MB
    Felbontás: 720x400
    Mintavételi frekvencia: 48000 Hz
    Bitsebesség: 111 kbps
    Műsoridő: 46:59
    Részletes média információ:
    Show Spoiler

    I:\GYILKOSSAG_AZ_ORIENT_EXPRESSZEN\VIDEO_TS\David Suchet az Orient Expresszen.avi
    General
    Complete name : I:\GYILKOSSAG_AZ_ORIENT_EXPRESSZEN\VIDEO_TS\David Suchet az Orient Expresszen.avi
    Format : AVI
    Format/Info : Audio Video Interleave
    File size : 588 MiB
    Duration : 46 min
    Overall bit rate mode : Variable
    Overall bit rate : 1 750 kb/s
    Writing application : VirtualDubMod 1.5.4.1 (build 2178/release)
    Writing library : VirtualDubMod build 2178/release
    Video #0
    ID : 0
    Format : MPEG-4 Visual
    Format profile : Advanced [email protected]
    Format settings, BVOP : 1
    Format settings, QPel : No
    Format settings, GMC : No warppoints
    Format settings, Matrix : Custom
    Codec ID : XVID
    Codec ID/Hint : XviD
    Duration : 46 min
    Bit rate : 1 626 kb/s
    Width : 720 pixels
    Height : 400 pixels
    Display aspect ratio : 16:9
    Frame rate : 25.000 FPS
    Color space : YUV
    Chroma subsampling : 4:2:0
    Bit depth : 8 bits
    Scan type : Progressive
    Compression mode : Lossy
    Bits/(Pixel*Frame) : 0.226
    Stream size : 547 MiB (93%)
    Writing library : XviD 1.2.1 (UTC 2008-12-04)
    Audio #1
    ID : 1
    Format : MPEG Audio
    Format version : Version 1
    Format profile : Layer 3
    Mode : Joint stereo
    Mode extension : MS Stereo
    Codec ID : 55
    Codec ID/Hint : MP3
    Duration : 46 min
    Bit rate mode : Variable
    Bit rate : 111 kb/s
    Nominal bit rate : 128 kb/s
    Channel(s) : 2 channels
    Sampling rate : 48.0 kHz
    Compression mode : Lossy
    Stream size : 37.2 MiB (6%)
    Alignment : Aligned on interleaves
    Interleave, duration : 24 ms (0.60 video frame)
    Interleave, preload duration : 555 ms
    Writing library : LAME3.98r
    Encoding settings : -m j -V 4 -q 2 -lowpass 17 --abr 128

    Rejtett tartalom:
    **Rejtett tartalom: A tartalom megjelenítéséhez kattints a 'Tetszik' gombra.**
    vagy free
    Rejtett tartalom:
    **Rejtett tartalom: A tartalom megjelenítéséhez kattints a 'Tetszik' gombra.**
     
  15. papadi

    papadi Állandó Tag

    Nagy hódítók - Amerikai ismeretterjesztõ filmek (1996)

    [​IMG] [​IMG]

    Nagy hódítók: Nagy Szulejmán
    (Conquerors - Suleyman the Magnicifent)
    Amerikai ismeretterjesztõ film (1996)
    Rendezte: Robert Marshall
    Computer Panoráma 2005/09

    Nevének hallatán egész Európa rettegett. Ötven évig tartó uralkodása alatt felépítette az Oszmán Birodalmat, országának határait három kontinensre terjesztette ki. Bár a nyugati világ barbár hadúrként ismerte, a szultán rendkívül művelt személy volt, aki pártfogolta a művészetet, és csodálatos építészeti remekműveket hozott létre. Kivételes személyisége átformálta korának társadalmát, és azóta sem szárnyalt senki olyan magasra, mint Nagy Szulejmán.

    Média információ:
    Video:
    Kodek: MPEG-1/2 Video (mpgv)
    Felbontás: 720x576
    Képkockasebesség: 25
    Hang:
    Kodek: A52 Audio (aka AC3) (a52)
    Csatornák: Sztereó
    Mintavételi frekvencia: 48000 Hz
    Bitsebesség: 192 kb/mp
    Formátum: dvd
    Méret: 3,33 GB
    Műsoridő: 51:01
    (prémium)
    Rejtett tartalom:
    **Rejtett tartalom: A tartalom megjelenítéséhez kattints a 'Tetszik' gombra.**
    [​IMG]

    Formátum: dvdrip/avi
    Méret: 511 MB
    Felbontás: 720x544
    Mintavételi frekvencia: 48000 Hz
    Bitsebesség: 128 kbps
    Műsoridő: 51:01
    Részletes média információ:
    Show Spoiler

    I:\Video\Nagy Szulejmán.avi
    General
    Complete name : I:\Video\Nagy Szulejmán.avi
    Format : AVI
    Format/Info : Audio Video Interleave
    File size : 509 MiB
    Duration : 51 min
    Overall bit rate : 1 394 kb/s
    Writing application : VirtualDubMod 1.5.4.1 (build 2178/release)
    Writing library : VirtualDubMod build 2178/release
    Video #0
    ID : 0
    Format : MPEG-4 Visual
    Format profile : Advanced [email protected]
    Format settings, BVOP : 1
    Format settings, QPel : No
    Format settings, GMC : No warppoints
    Format settings, Matrix : Custom
    Codec ID : XVID
    Codec ID/Hint : XviD
    Duration : 51 min
    Bit rate : 1 259 kb/s
    Width : 720 pixels
    Height : 544 pixels
    Display aspect ratio : 4:3
    Frame rate : 25.000 FPS
    Color space : YUV
    Chroma subsampling : 4:2:0
    Bit depth : 8 bits
    Scan type : Progressive
    Compression mode : Lossy
    Bits/(Pixel*Frame) : 0.129
    Stream size : 459 MiB (90%)
    Writing library : XviD 1.2.1 (UTC 2008-12-04)
    Audio #1
    ID : 1
    Format : MPEG Audio
    Format version : Version 1
    Format profile : Layer 3
    Mode : Joint stereo
    Mode extension : MS Stereo
    Codec ID : 55
    Codec ID/Hint : MP3
    Duration : 51 min
    Bit rate mode : Constant
    Bit rate : 128 kb/s
    Channel(s) : 2 channels
    Sampling rate : 48.0 kHz
    Compression mode : Lossy
    Stream size : 46.7 MiB (9%)
    Alignment : Aligned on interleaves
    Interleave, duration : 80 ms (2.00 video frames)
    Interleave, preload duration : 504 ms
    Writing library : LAME3.98r
    Encoding settings : -m j -V 4 -q 2 -lowpass 17 -b 128

    Rejtett tartalom:
    **Rejtett tartalom: A tartalom megjelenítéséhez kattints a 'Tetszik' gombra.**
    vagy free
    Rejtett tartalom:
    **Rejtett tartalom: A tartalom megjelenítéséhez kattints a 'Tetszik' gombra.**
     
    munin, Mcecil, brunó1945 és 1 másik tag kedveli ezt.
  16. papadi

    papadi Állandó Tag

    [​IMG] [​IMG]

    Nagy hódítók: Nagy Sándor
    (Conquerors - Alexander the Great)
    Amerikai ismeretterjeszõ film (1996)
    Rendezte: Robert Marschall
    Computer Panoráma 2005/10

    Városépítő, katona, uralkodó, hős. Vagyona páratlan, bátorsága emberfeletti volt. Soha egyetlen csatát sem vesztett el, népe istenként tisztelte. Ő alapította többek között az ókor történelmének egyik messzeföldön híres városát, melyet Alexandriának nevezett el. A nagy hadvezérek legendáinak alapjait Nagy Sándor rakta le. Meghódította a nyugati világ jelentős részét, és korának legnagyobb hatalmait törölte el a Föld színéről.

    Média információ:
    Video:
    Kodek: MPEG-1/2 Video (mpgv)
    Felbontás: 720x576
    Képkockasebesség: 25
    Hang:
    Kodek: A52 Audio (aka AC3) (a52)
    Csatornák: Sztereó
    Mintavételi frekvencia: 48000 Hz
    Bitsebesség: 192 kb/mp
    Formátum: dvd
    Méret: 3,39 GB
    Műsoridő: 52:00
    (prémium)
    Rejtett tartalom:
    **Rejtett tartalom: A tartalom megjelenítéséhez kattints a 'Tetszik' gombra.**
    [​IMG]

    Formátum: dvdrip/avi
    Méret: 521 MB
    Felbontás: 720x544
    Mintavételi frekvencia: 48000 Hz
    Bitsebesség: 128 kbps
    Műsoridő: 52:00
    Részletes média információ:
    Show Spoiler

    I:\Video\Nagy Sándor.avi
    General
    Complete name : I:\Video\Nagy Sándor.avi
    Format : AVI
    Format/Info : Audio Video Interleave
    File size : 519 MiB
    Duration : 52 min
    Overall bit rate : 1 395 kb/s
    Writing application : VirtualDubMod 1.5.4.1 (build 2178/release)
    Writing library : VirtualDubMod build 2178/release
    Video #0
    ID : 0
    Format : MPEG-4 Visual
    Format profile : Advanced [email protected]
    Format settings, BVOP : 1
    Format settings, QPel : No
    Format settings, GMC : No warppoints
    Format settings, Matrix : Custom
    Codec ID : XVID
    Codec ID/Hint : XviD
    Duration : 52 min
    Bit rate : 1 260 kb/s
    Width : 720 pixels
    Height : 544 pixels
    Display aspect ratio : 4:3
    Frame rate : 25.000 FPS
    Color space : YUV
    Chroma subsampling : 4:2:0
    Bit depth : 8 bits
    Scan type : Progressive
    Compression mode : Lossy
    Bits/(Pixel*Frame) : 0.129
    Stream size : 469 MiB (90%)
    Writing library : XviD 1.2.1 (UTC 2008-12-04)
    Audio #1
    ID : 1
    Format : MPEG Audio
    Format version : Version 1
    Format profile : Layer 3
    Mode : Joint stereo
    Mode extension : MS Stereo
    Codec ID : 55
    Codec ID/Hint : MP3
    Duration : 52 min
    Bit rate mode : Constant
    Bit rate : 128 kb/s
    Channel(s) : 2 channels
    Sampling rate : 48.0 kHz
    Compression mode : Lossy
    Stream size : 47.6 MiB (9%)
    Alignment : Aligned on interleaves
    Interleave, duration : 80 ms (2.00 video frames)
    Interleave, preload duration : 504 ms
    Writing library : LAME3.98r
    Encoding settings : -m j -V 4 -q 2 -lowpass 17 -b 128

    Rejtett tartalom:
    **Rejtett tartalom: A tartalom megjelenítéséhez kattints a 'Tetszik' gombra.**
    vagy free
    Rejtett tartalom:
    **Rejtett tartalom: A tartalom megjelenítéséhez kattints a 'Tetszik' gombra.**
     
    őrszem és phm kedveli ezt.
  17. papadi

    papadi Állandó Tag

    [​IMG]

    Nagy hódítók: Bonaparte Napóleon
    (Conquerors - Bonaparte Napoleon)
    Amerikai ismeretterjesztõ film (1996)
    Rendezte: Nigel Maslin
    Computer Panoráma 2005/11

    Kevés olyan jellegzetes szereplője van történelemnek, mint Napóleon Bonaparte és akár katonai zseniként csodáljuk, zsarnokként gúnyoljuk, vagy csak egyszerűen nejével Josephine-nel a történelem egyik leghíresebb párjaként emlékszünk rá, Napóleon ma is ugyanolyan lenyűgöző, mint valaha. Amikor az apróbb részletek kerülnek szóba, közülünk csak kevesen tudják a fentieket kiegészíteni, de ez a Napóleon életét és korát ábrázoló film teljesebb képet ad erről a közismert férfiról. Kövessük nyomon életét a vadregényes Korzika szigetétől Párizs elegáns ragyogásáig, ahol Napóleon jelenlétének bizonyítékait majdnem mindenhol megtalálhatjuk, ahova csak tekintünk. Ezt követően megtekinthetik Napóleon katonai hadjáratait, és megtapasztalhatják, hogy követte példaképe, Nagy Sándor világ hódítási céljait.

    Média információ:
    Video:
    Kodek: MPEG-1/2 Video (mpgv)
    Felbontás: 720x576
    Képkockasebesség: 25
    Hang:
    Kodek: A52 Audio (aka AC3) (a52)
    Csatornák: Sztereó
    Mintavételi frekvencia: 48000 Hz
    Bitsebesség: 192 kb/mp
    Formátum: dvd
    Méret: 3,06 GB
    Műsoridő: 52:11
    (prémium)
    Rejtett tartalom:
    **Rejtett tartalom: A tartalom megjelenítéséhez kattints a 'Tetszik' gombra.**
    [​IMG]

    Formátum: dvdrip/avi
    Méret: 522 MB
    Felbontás: 720x544
    Mintavételi frekvencia: 48000 Hz
    Bitsebesség: 128 kbps
    Műsoridő: 52:11
    Részletes média információ:
    Show Spoiler

    I:\Video\Napóleon.avi
    General
    Complete name : I:\Video\Napóleon.avi
    Format : AVI
    Format/Info : Audio Video Interleave
    File size : 521 MiB
    Duration : 52 min
    Overall bit rate : 1 395 kb/s
    Writing application : VirtualDubMod 1.5.4.1 (build 2178/release)
    Writing library : VirtualDubMod build 2178/release
    Video #0
    ID : 0
    Format : MPEG-4 Visual
    Format profile : Advanced [email protected]
    Format settings, BVOP : 1
    Format settings, QPel : No
    Format settings, GMC : No warppoints
    Format settings, Matrix : Custom
    Codec ID : XVID
    Codec ID/Hint : XviD
    Duration : 52 min
    Bit rate : 1 260 kb/s
    Width : 720 pixels
    Height : 544 pixels
    Display aspect ratio : 4:3
    Frame rate : 25.000 FPS
    Color space : YUV
    Chroma subsampling : 4:2:0
    Bit depth : 8 bits
    Scan type : Progressive
    Compression mode : Lossy
    Bits/(Pixel*Frame) : 0.129
    Stream size : 470 MiB (90%)
    Writing library : XviD 1.2.1 (UTC 2008-12-04)
    Audio #1
    ID : 1
    Format : MPEG Audio
    Format version : Version 1
    Format profile : Layer 3
    Mode : Joint stereo
    Mode extension : MS Stereo
    Codec ID : 55
    Codec ID/Hint : MP3
    Duration : 52 min
    Bit rate mode : Constant
    Bit rate : 128 kb/s
    Channel(s) : 2 channels
    Sampling rate : 48.0 kHz
    Compression mode : Lossy
    Stream size : 47.8 MiB (9%)
    Alignment : Aligned on interleaves
    Interleave, duration : 80 ms (2.00 video frames)
    Interleave, preload duration : 504 ms
    Writing library : LAME3.98r
    Encoding settings : -m j -V 4 -q 2 -lowpass 17 -b 128

    Rejtett tartalom:
    **Rejtett tartalom: A tartalom megjelenítéséhez kattints a 'Tetszik' gombra.**
    vagy free
    Rejtett tartalom:
    **Rejtett tartalom: A tartalom megjelenítéséhez kattints a 'Tetszik' gombra.**
     
    Szisszi, őrszem, phm és 1 másik tag kedveli ezt.
  18. papadi

    papadi Állandó Tag

    [​IMG]

    Nagy hódítók: Nagy Péter
    (Conquerors - Peter the Great)
    Amerikai ismeretterjesztõ film (1996)
    Rendezte: Nigel Maslin
    Computer Panoráma 2005/12

    Minden idők legnagyobb cárja a középkor sötétségéből egy új nemzetet hozott létre. Kiváló hadvezérként hitte: a harc során nem a nemesség határoz, hanem a tapasztalat és az érdem. Célja Oroszország modern társadalommá formálása, és országa nevének megismertetése Európával. Egyik legnagyobb teljesítménye, hogy felépíttette a nevét viselő lenyűgöző várost: Szentpétervárt. Tervének megvalósítsa azonban harmincezer ember életét követelte.

    Média információ:
    Video:
    Kodek: MPEG-1/2 Video (mpgv)
    Felbontás: 720x576
    Képkockasebesség: 25
    Hang:
    Kodek: A52 Audio (aka AC3) (a52)
    Csatornák: Sztereó
    Mintavételi frekvencia: 48000 Hz
    Bitsebesség: 192 kb/mp
    Formátum: dvd
    Méret: 3,20 GB
    Műsoridő: 50:10
    (prémium)
    Rejtett tartalom:
    **Rejtett tartalom: A tartalom megjelenítéséhez kattints a 'Tetszik' gombra.**
    [​IMG]

    Formátum: dvdrip/avi
    Méret: 502 MB
    Felbontás: 720x544
    Mintavételi frekvencia: 48000 Hz
    Bitsebesség: 128 kbps
    Műsoridő: 50:10
    Részletes média információ:
    Show Spoiler

    I:\Video\Nagy Péter.avi
    General
    Complete name : I:\Video\Nagy Péter.avi
    Format : AVI
    Format/Info : Audio Video Interleave
    File size : 501 MiB
    Duration : 50 min
    Overall bit rate : 1 396 kb/s
    Writing application : VirtualDubMod 1.5.4.1 (build 2178/release)
    Writing library : VirtualDubMod build 2178/release
    Video #0
    ID : 0
    Format : MPEG-4 Visual
    Format profile : Advanced [email protected]
    Format settings, BVOP : 1
    Format settings, QPel : No
    Format settings, GMC : No warppoints
    Format settings, Matrix : Custom
    Codec ID : XVID
    Codec ID/Hint : XviD
    Duration : 50 min
    Bit rate : 1 260 kb/s
    Width : 720 pixels
    Height : 544 pixels
    Display aspect ratio : 4:3
    Frame rate : 25.000 FPS
    Color space : YUV
    Chroma subsampling : 4:2:0
    Bit depth : 8 bits
    Scan type : Progressive
    Compression mode : Lossy
    Bits/(Pixel*Frame) : 0.129
    Stream size : 452 MiB (90%)
    Writing library : XviD 1.2.1 (UTC 2008-12-04)
    Audio #1
    ID : 1
    Format : MPEG Audio
    Format version : Version 1
    Format profile : Layer 3
    Mode : Joint stereo
    Mode extension : MS Stereo
    Codec ID : 55
    Codec ID/Hint : MP3
    Duration : 50 min
    Bit rate mode : Constant
    Bit rate : 128 kb/s
    Channel(s) : 2 channels
    Sampling rate : 48.0 kHz
    Compression mode : Lossy
    Stream size : 45.9 MiB (9%)
    Alignment : Aligned on interleaves
    Interleave, duration : 80 ms (2.00 video frames)
    Interleave, preload duration : 504 ms
    Writing library : LAME3.98r
    Encoding settings : -m j -V 4 -q 2 -lowpass 17 -b 128

    Rejtett tartalom:
    **Rejtett tartalom: A tartalom megjelenítéséhez kattints a 'Tetszik' gombra.**
    vagy free
    Rejtett tartalom:
    **Rejtett tartalom: A tartalom megjelenítéséhez kattints a 'Tetszik' gombra.**
     
  19. papadi

    papadi Állandó Tag

    [​IMG]

    Fáraók és királyok. A Biblia nyomában
    (Pharaohs and Kings: A Biblical Quest)
    Amerikai ismeretterjesztõ film David M. Rohl könyve alapján (1995)
    Rendezte: Timothy Copestake
    Computer Panoráma 2006/01-03

    David Rohl író egy olyan Egyiptomba kalauzol bennünket, amely egyetlen utazási iroda ajánlatában sem található meg. A "fáraók földje" meghatározó volt az ókori világ történelmében, de még napjainkban is titkokat rejteget. John Woodhead régészprofesszor archeológiai bizonyítékok alapján állítja: "a régészek alapvető hibákat követnek el a régészeti emlékek azonosításakor…" A rejtélyek megfejtéséhez új időrendbe kell állítani a Bibliai történeteket és új szempontok alapján kell vizsgálni a régészeti felfedezéseket.
    Egyiptomtól eltérően az izraeli régészeti helyszíneken csak kevés írásos emlék maradt fenn, nincsenek "beszélő kövek", mint a fáraók földjén. A régészeti leletek bibliai kormeghatározásához egyiptomi építményeket használnak fel. David Rohl író szükségesnek tartja az új történelmi időszámítás alapján az Ószövetség és a Biblia néhány ismert történetének újraértelmezését: Joshua meghódítja a Kánaánt, ami Jeriko falainak lerombolásával kezdődik, vagy Mózes és az izraeliek kiüldözése Egyiptomból. A legtöbb régész ezeket a történeteket csak kalandos legendáknak tekinti, amelyeknek nincs köze a valósághoz…
    (a borítóról)

    [​IMG]

    1. rész

    Média információ:
    Video:
    Kodek: MPEG-1/2 Video (mpgv)
    Felbontás: 720x576
    Képkockasebesség: 25
    Hang:
    Kodek: A52 Audio (aka AC3) (a52)
    Csatornák: Sztereó
    Mintavételi frekvencia: 48000 Hz
    Bitsebesség: 192 kb/mp
    Formátum: dvd
    Méret: 3,26 GB
    Műsoridő: 49:58
    (prémium)
    Rejtett tartalom:
    **Rejtett tartalom: A tartalom megjelenítéséhez kattints a 'Tetszik' gombra.**
    [​IMG]

    Formátum: dvdrip/avi
    Méret: 500 MB
    Felbontás: 720x448
    Mintavételi frekvencia: 48000 Hz
    Bitsebesség: 128 kbps
    Műsoridő: 49:58
    Részletes média információ:
    Show Spoiler

    I:\0000\CP 2006-01 Frak s kirlyok 1\CP 2006-01 Fáraók és királyok 1\Fáraók és királyok - A Biblia nyomában 1.avi
    General
    Complete name : I:\0000\CP 2006-01 Frak s kirlyok 1\CP 2006-01 Fáraók és királyok 1\Fáraók és királyok - A Biblia nyomában 1.avi
    Format : AVI
    Format/Info : Audio Video Interleave
    File size : 499 MiB
    Duration : 49 min
    Overall bit rate : 1 395 kb/s
    Writing application : VirtualDubMod 1.5.4.1 (build 2178/release)
    Writing library : VirtualDubMod build 2178/release
    Video #0
    ID : 0
    Format : MPEG-4 Visual
    Format profile : Advanced [email protected]
    Format settings, BVOP : 1
    Format settings, QPel : No
    Format settings, GMC : No warppoints
    Format settings, Matrix : Custom
    Codec ID : XVID
    Codec ID/Hint : XviD
    Duration : 49 min
    Bit rate : 1 260 kb/s
    Width : 720 pixels
    Height : 448 pixels
    Display aspect ratio : 16:10
    Frame rate : 25.000 FPS
    Color space : YUV
    Chroma subsampling : 4:2:0
    Bit depth : 8 bits
    Scan type : Progressive
    Compression mode : Lossy
    Bits/(Pixel*Frame) : 0.156
    Stream size : 450 MiB (90%)
    Writing library : XviD 1.2.1 (UTC 2008-12-04)
    Audio #1
    ID : 1
    Format : MPEG Audio
    Format version : Version 1
    Format profile : Layer 3
    Mode : Joint stereo
    Mode extension : MS Stereo
    Codec ID : 55
    Codec ID/Hint : MP3
    Duration : 49 min
    Bit rate mode : Constant
    Bit rate : 128 kb/s
    Channel(s) : 2 channels
    Sampling rate : 48.0 kHz
    Compression mode : Lossy
    Stream size : 45.8 MiB (9%)
    Alignment : Aligned on interleaves
    Interleave, duration : 80 ms (2.00 video frames)
    Interleave, preload duration : 504 ms
    Writing library : LAME3.98r
    Encoding settings : -m j -V 4 -q 2 -lowpass 17 -b 128

    Rejtett tartalom:
    **Rejtett tartalom: A tartalom megjelenítéséhez kattints a 'Tetszik' gombra.**
    vagy free
    Rejtett tartalom:
    **Rejtett tartalom: A tartalom megjelenítéséhez kattints a 'Tetszik' gombra.**
    [​IMG]

    2. rész

    Média információ:
    Video:
    Kodek: MPEG-1/2 Video (mpgv)
    Felbontás: 720x576
    Képkockasebesség: 25
    Hang:
    Kodek: A52 Audio (aka AC3) (a52)
    Csatornák: Sztereó
    Mintavételi frekvencia: 48000 Hz
    Bitsebesség: 192 kb/mp
    Formátum: dvd
    Méret: 3,29 GB
    Műsoridő: 50:30
    (prémium)
    Rejtett tartalom:
    **Rejtett tartalom: A tartalom megjelenítéséhez kattints a 'Tetszik' gombra.**
    [​IMG]

    Formátum: dvdrip/avi
    Méret: 506 MB
    Felbontás: 720x448
    Mintavételi frekvencia: 48000 Hz
    Bitsebesség: 128 kbps
    Műsoridő: 50:30
    Részletes média információ:
    Show Spoiler

    I:\0000\CP 2006-02 Frak s kirlyok 2\CP 2006-02 Fáraók és királyok 2\Fáraók és királyok - A Biblia nyomában 2.avi
    General
    Complete name : I:\0000\CP 2006-02 Frak s kirlyok 2\CP 2006-02 Fáraók és királyok 2\Fáraók és királyok - A Biblia nyomában 2.avi
    Format : AVI
    Format/Info : Audio Video Interleave
    File size : 504 MiB
    Duration : 50 min
    Overall bit rate : 1 396 kb/s
    Writing application : VirtualDubMod 1.5.4.1 (build 2178/release)
    Writing library : VirtualDubMod build 2178/release
    Video #0
    ID : 0
    Format : MPEG-4 Visual
    Format profile : Advanced [email protected]
    Format settings, BVOP : 1
    Format settings, QPel : No
    Format settings, GMC : No warppoints
    Format settings, Matrix : Custom
    Codec ID : XVID
    Codec ID/Hint : XviD
    Duration : 50 min
    Bit rate : 1 261 kb/s
    Width : 720 pixels
    Height : 448 pixels
    Display aspect ratio : 16:10
    Frame rate : 25.000 FPS
    Color space : YUV
    Chroma subsampling : 4:2:0
    Bit depth : 8 bits
    Scan type : Progressive
    Compression mode : Lossy
    Bits/(Pixel*Frame) : 0.156
    Stream size : 455 MiB (90%)
    Writing library : XviD 1.2.1 (UTC 2008-12-04)
    Audio #1
    ID : 1
    Format : MPEG Audio
    Format version : Version 1
    Format profile : Layer 3
    Mode : Joint stereo
    Mode extension : MS Stereo
    Codec ID : 55
    Codec ID/Hint : MP3
    Duration : 50 min
    Bit rate mode : Constant
    Bit rate : 128 kb/s
    Channel(s) : 2 channels
    Sampling rate : 48.0 kHz
    Compression mode : Lossy
    Stream size : 46.2 MiB (9%)
    Alignment : Aligned on interleaves
    Interleave, duration : 80 ms (2.00 video frames)
    Interleave, preload duration : 504 ms
    Writing library : LAME3.98r
    Encoding settings : -m j -V 4 -q 2 -lowpass 17 -b 128

    Rejtett tartalom:
    **Rejtett tartalom: A tartalom megjelenítéséhez kattints a 'Tetszik' gombra.**
    vagy free
    Rejtett tartalom:
    **Rejtett tartalom: A tartalom megjelenítéséhez kattints a 'Tetszik' gombra.**
    [​IMG]

    3. rész

    Média információ:
    Video:
    Kodek: MPEG-1/2 Video (mpgv)
    Felbontás: 720x576
    Képkockasebesség: 25
    Hang:
    Kodek: A52 Audio (aka AC3) (a52)
    Csatornák: Sztereó
    Mintavételi frekvencia: 48000 Hz
    Bitsebesség: 192 kb/mp
    Formátum: dvd
    Méret: 3,34 GB
    Műsoridő: 51:14
    (prémium)
    Rejtett tartalom:
    **Rejtett tartalom: A tartalom megjelenítéséhez kattints a 'Tetszik' gombra.**
    [​IMG]

    Formátum: dvdrip/avi
    Méret: 513 MB
    Felbontás: 720x448
    Mintavételi frekvencia: 48000 Hz
    Bitsebesség: 128 kbps
    Műsoridő: 51:14
    Részletes média információ:
    Show Spoiler

    I:\0000\CP 2006-03 Frak s kirlyok 3\CP 2006-03 Fáraók és királyok 3\Fáraók és királyok - A Biblia nyomában 3.avi
    General
    Complete name : I:\0000\CP 2006-03 Frak s kirlyok 3\CP 2006-03 Fáraók és királyok 3\Fáraók és királyok - A Biblia nyomában 3.avi
    Format : AVI
    Format/Info : Audio Video Interleave
    File size : 512 MiB
    Duration : 51 min
    Overall bit rate : 1 397 kb/s
    Writing application : VirtualDubMod 1.5.4.1 (build 2178/release)
    Writing library : VirtualDubMod build 2178/release
    Video #0
    ID : 0
    Format : MPEG-4 Visual
    Format profile : Advanced [email protected]
    Format settings, BVOP : 1
    Format settings, QPel : No
    Format settings, GMC : No warppoints
    Format settings, Matrix : Custom
    Codec ID : XVID
    Codec ID/Hint : XviD
    Duration : 51 min
    Bit rate : 1 262 kb/s
    Width : 720 pixels
    Height : 448 pixels
    Display aspect ratio : 16:10
    Frame rate : 25.000 FPS
    Color space : YUV
    Chroma subsampling : 4:2:0
    Bit depth : 8 bits
    Scan type : Progressive
    Compression mode : Lossy
    Bits/(Pixel*Frame) : 0.156
    Stream size : 462 MiB (90%)
    Writing library : XviD 1.2.1 (UTC 2008-12-04)
    Audio #1
    ID : 1
    Format : MPEG Audio
    Format version : Version 1
    Format profile : Layer 3
    Mode : Joint stereo
    Mode extension : MS Stereo
    Codec ID : 55
    Codec ID/Hint : MP3
    Duration : 51 min
    Bit rate mode : Constant
    Bit rate : 128 kb/s
    Channel(s) : 2 channels
    Sampling rate : 48.0 kHz
    Compression mode : Lossy
    Stream size : 46.9 MiB (9%)
    Alignment : Aligned on interleaves
    Interleave, duration : 80 ms (2.00 video frames)
    Interleave, preload duration : 504 ms
    Writing library : LAME3.98r
    Encoding settings : -m j -V 4 -q 2 -lowpass 17 -b 128

    Rejtett tartalom:
    **Rejtett tartalom: A tartalom megjelenítéséhez kattints a 'Tetszik' gombra.**
    vagy free
    Rejtett tartalom:
    **Rejtett tartalom: A tartalom megjelenítéséhez kattints a 'Tetszik' gombra.**
     
  20. papadi

    papadi Állandó Tag

    [​IMG]

    Szellemkastélyok Skóciában
    (Castle Ghosts of Scotland)
    Skót tudományos-ismeretterjesztõ film (1996)
    Készítette: Robert Hardy
    Computer Panoráma 2006/04

    Mit gondol Ön a természetfeletti jelenségekről? Skóciában a lakosság fele hisz a szellemekben és minden hetedik személy állítja, hogy látott már kísértetet.
    A film titokzatos ősi kastélyokba visz el bennünket, ahol megelevenednek a leghátborzongatóbb szellemtörténetek. Szemtől szembe kerülhetünk a mai tudomány által megmagyarázhatatlan, rejtélyes eseményekkel. Ha azt hiszi, hogy a kísértetek csak a képzelet szüleményei, akkor bizonyára Ön is szeretné megtudni a filmben bemutatott paranormális jelenségek titkát ...
    (a borítóról)

    Média információ:
    Video:
    Kodek: MPEG-1/2 Video (mpgv)
    Felbontás: 720x576
    Képkockasebesség: 25
    Képformátum: 1.33:1 (4:3)
    Hang:
    Kodek: A52 Audio (aka AC3) (a52)
    Csatornák: Sztereó
    Mintavételi frekvencia: 48000 Hz
    Bitsebesség: 192 kb/mp
    Formátum: iso
    Méret: 3,39 GB
    Műsoridő: 52:01
    (prémium)
    Rejtett tartalom:
    **Rejtett tartalom: A tartalom megjelenítéséhez kattints a 'Tetszik' gombra.**
    [​IMG]

    Formátum: dvdrip/avi
    Méret: 520 MB
    Felbontás: 720x448
    Mintavételi frekvencia: 48000 Hz
    Bitsebesség: 128 kbps
    Műsoridő: 52:01
    Részletes média információ:
    Show Spoiler

    I:\Video\Szellemkastélyok Skóciában.avi
    General
    Complete name : I:\Video\Szellemkastélyok Skóciában.avi
    Format : AVI
    Format/Info : Audio Video Interleave
    File size : 519 MiB
    Duration : 52 min
    Overall bit rate : 1 395 kb/s
    Writing application : VirtualDubMod 1.5.4.1 (build 2178/release)
    Writing library : VirtualDubMod build 2178/release
    Video #0
    ID : 0
    Format : MPEG-4 Visual
    Format profile : Advanced [email protected]
    Format settings, BVOP : 1
    Format settings, QPel : No
    Format settings, GMC : No warppoints
    Format settings, Matrix : Custom
    Codec ID : XVID
    Codec ID/Hint : XviD
    Duration : 52 min
    Bit rate : 1 259 kb/s
    Width : 720 pixels
    Height : 448 pixels
    Display aspect ratio : 16:10
    Frame rate : 25.000 FPS
    Color space : YUV
    Chroma subsampling : 4:2:0
    Bit depth : 8 bits
    Scan type : Progressive
    Compression mode : Lossy
    Bits/(Pixel*Frame) : 0.156
    Stream size : 469 MiB (90%)
    Writing library : XviD 1.2.1 (UTC 2008-12-04)
    Audio #1
    ID : 1
    Format : MPEG Audio
    Format version : Version 1
    Format profile : Layer 3
    Mode : Joint stereo
    Mode extension : MS Stereo
    Codec ID : 55
    Codec ID/Hint : MP3
    Duration : 52 min
    Bit rate mode : Constant
    Bit rate : 128 kb/s
    Channel(s) : 2 channels
    Sampling rate : 48.0 kHz
    Compression mode : Lossy
    Stream size : 47.6 MiB (9%)
    Alignment : Aligned on interleaves
    Interleave, duration : 80 ms (2.00 video frames)
    Interleave, preload duration : 504 ms
    Writing library : LAME3.98r
    Encoding settings : -m j -V 4 -q 2 -lowpass 17 -b 128

    Rejtett tartalom:
    **Rejtett tartalom: A tartalom megjelenítéséhez kattints a 'Tetszik' gombra.**
    vagy free
    Rejtett tartalom:
    **Rejtett tartalom: A tartalom megjelenítéséhez kattints a 'Tetszik' gombra.**
     

Megosztás