Ha sorozatot kerestek...2014 (de ne itt kérd!)

jbaj témája a 'Film, színház, tánc' fórumban , 2010 Április 11.

  1. papadi

    papadi Állandó Tag

    [​IMG]

    40-41. (ötödik évad - 7-8.) rész

    Halott ember tükre
    (Dead Man's Mirror)
    Rendete: Brian Farnham
    Bemutató: 1993. február 28.
    Hang: magyar, angol
    Felirat: magyar, angol

    Gervase Chevenix egyáltalán nem örvend nagy népszerűségnek. Anglia egyik ősi családjának legexcentrikusabb tagja levelet ír Poirotnak, kérés helyett utasítva, hogy legyen szolgálatára. A kackiás bajszú belga meglehetősen dühös, de már csak azért is meglátogatja leendő ügyfelét birtokán. A vacsora előtt érkezik meg a kastélyba, de pontosságáról ismert vendéglátója nem kerül elő. Nem csoda, hiszen holtan fekszik dolgozószobájában... (a borítóról)

    Ékszerrablás a Grand Metropolitanben
    (Jewel Robbery at the Grand Metropolitan)
    Rendete: Andrew Grieve
    Bemutató: 1993. március 7.
    Hang: magyar, angol
    Felirat: magyar, angol

    Hasting kapitány meghívja Poirot egy brighton-i hétvégére. Egyik este a fényűző Grand Metropolitanben vacsoráznak, ahol az arisztokrácia krémje képviselteti magát. Megismerkednek Hastings ismerőseivel, az Opalsen családdal. A férj gazdag részvénytulajdonos, aki feleségének nemrégiben egy gyöngysort ajándékozott. Poirot érdeklődésére az asszony szívesen megmutatná sokat érő kincsét, de amikor felszalad érte a szobájába, annak hűlt helyét találja... (a borítóról)

    Média információ:
    Video:
    Kodek: MPEG-1/2 Video (mpgv)
    Felbontás: 720x576
    Képkockasebesség: 25
    Hang:
    Kodek: A52 Audio (aka AC3) (a52)
    Csatornák: 3F2R/LFE
    Mintavételi frekvencia: 48000 Hz
    Bitsebesség: 192/448 kb/mp
    Formátum: iso
    Méret: 4,15 GB
    Műsoridő: 50:50+49:55
    (prémium)
    Rejtett tartalom:
    **Rejtett tartalom: A tartalom megjelenítéséhez kattints a 'Tetszik' gombra.**
    [​IMG]

    [​IMG]

    Formátum: dvdrip/avi
    Méret: 0,98 GB
    Felbontás: 720x544
    Mintavételi frekvencia: 48000 Hz
    Bitsebesség: 128 kbps
    Műsoridő: 50:50+49:55
    Részletes média információ:
    Show Spoiler

    J:\40 - Halott ember tükre.avi
    General
    Complete name : J:\40 - Halott ember tükre.avi
    Format : AVI
    Format/Info : Audio Video Interleave
    File size : 507 MiB
    Duration : 50 min
    Overall bit rate : 1 393 kb/s
    Writing application : VirtualDubMod 1.5.4.1 (build 2178/release)
    Writing library : VirtualDubMod build 2178/release
    Video #0
    ID : 0
    Format : MPEG-4 Visual
    Format profile : Advanced [email protected]
    Format settings, BVOP : 1
    Format settings, QPel : No
    Format settings, GMC : No warppoints
    Format settings, Matrix : Custom
    Codec ID : XVID
    Codec ID/Hint : XviD
    Duration : 50 min
    Bit rate : 1 128 kb/s
    Width : 720 pixels
    Height : 544 pixels
    Display aspect ratio : 4:3
    Frame rate : 25.000 FPS
    Color space : YUV
    Chroma subsampling : 4:2:0
    Bit depth : 8 bits
    Scan type : Progressive
    Compression mode : Lossy
    Bits/(Pixel*Frame) : 0.115
    Stream size : 410 MiB (81%)
    Writing library : XviD 1.2.1 (UTC 2008-12-04)
    Audio #1
    ID : 1
    Format : MPEG Audio
    Format version : Version 1
    Format profile : Layer 3
    Mode : Joint stereo
    Mode extension : MS Stereo
    Codec ID : 55
    Codec ID/Hint : MP3
    Duration : 50 min
    Bit rate mode : Constant
    Bit rate : 128 kb/s
    Channel(s) : 2 channels
    Sampling rate : 48.0 kHz
    Compression mode : Lossy
    Stream size : 46.5 MiB (9%)
    Alignment : Aligned on interleaves
    Interleave, duration : 80 ms (2.00 video frames)
    Interleave, preload duration : 504 ms
    Writing library : LAME3.98r
    Encoding settings : -m j -V 4 -q 2 -lowpass 17 -b 128
    Audio #2
    ID : 2
    Format : MPEG Audio
    Format version : Version 1
    Format profile : Layer 3
    Mode : Joint stereo
    Mode extension : MS Stereo
    Codec ID : 55
    Codec ID/Hint : MP3
    Duration : 50 min
    Bit rate mode : Constant
    Bit rate : 128 kb/s
    Channel(s) : 2 channels
    Sampling rate : 48.0 kHz
    Compression mode : Lossy
    Stream size : 46.5 MiB (9%)
    Alignment : Aligned on interleaves
    Interleave, duration : 80 ms (2.00 video frames)
    Interleave, preload duration : 504 ms
    Writing library : LAME3.98r
    Encoding settings : -m j -V 4 -q 2 -lowpass 17 -b 128
    J:\41 - Ékszerrablás a Grand Metropolitanban.avi
    General
    Complete name : J:\41 - Ékszerrablás a Grand Metropolitanban.avi
    Format : AVI
    Format/Info : Audio Video Interleave
    File size : 498 MiB
    Duration : 49 min
    Overall bit rate : 1 394 kb/s
    Writing application : VirtualDubMod 1.5.4.1 (build 2178/release)
    Writing library : VirtualDubMod build 2178/release
    Video #0
    ID : 0
    Format : MPEG-4 Visual
    Format profile : Advanced [email protected]
    Format settings, BVOP : 1
    Format settings, QPel : No
    Format settings, GMC : No warppoints
    Format settings, Matrix : Custom
    Codec ID : XVID
    Codec ID/Hint : XviD
    Duration : 49 min
    Bit rate : 1 129 kb/s
    Width : 720 pixels
    Height : 544 pixels
    Display aspect ratio : 4:3
    Frame rate : 25.000 FPS
    Color space : YUV
    Chroma subsampling : 4:2:0
    Bit depth : 8 bits
    Scan type : Progressive
    Compression mode : Lossy
    Bits/(Pixel*Frame) : 0.115
    Stream size : 403 MiB (81%)
    Writing library : XviD 1.2.1 (UTC 2008-12-04)
    Audio #1
    ID : 1
    Format : MPEG Audio
    Format version : Version 1
    Format profile : Layer 3
    Mode : Joint stereo
    Mode extension : MS Stereo
    Codec ID : 55
    Codec ID/Hint : MP3
    Duration : 49 min
    Bit rate mode : Constant
    Bit rate : 128 kb/s
    Channel(s) : 2 channels
    Sampling rate : 48.0 kHz
    Compression mode : Lossy
    Stream size : 45.7 MiB (9%)
    Alignment : Aligned on interleaves
    Interleave, duration : 80 ms (2.00 video frames)
    Interleave, preload duration : 504 ms
    Writing library : LAME3.98r
    Encoding settings : -m j -V 4 -q 2 -lowpass 17 -b 128
    Audio #2
    ID : 2
    Format : MPEG Audio
    Format version : Version 1
    Format profile : Layer 3
    Mode : Joint stereo
    Mode extension : MS Stereo
    Codec ID : 55
    Codec ID/Hint : MP3
    Duration : 49 min
    Bit rate mode : Constant
    Bit rate : 128 kb/s
    Channel(s) : 2 channels
    Sampling rate : 48.0 kHz
    Compression mode : Lossy
    Stream size : 45.7 MiB (9%)
    Alignment : Aligned on interleaves
    Interleave, duration : 80 ms (2.00 video frames)
    Interleave, preload duration : 504 ms
    Writing library : LAME3.98r
    Encoding settings : -m j -V 4 -q 2 -lowpass 17 -b 128

    Rejtett tartalom:
    **Rejtett tartalom: A tartalom megjelenítéséhez kattints a 'Tetszik' gombra.**
    vagy free
    Rejtett tartalom:
    **Rejtett tartalom: A tartalom megjelenítéséhez kattints a 'Tetszik' gombra.**
     
  2. papadi

    papadi Állandó Tag

    [​IMG]

    42. (hatodik évad - 1.) rész

    Poirot karácsonya
    (Hercule Poirot's Christmas)
    Rendezte: Edward Bennett
    Bemutató: 1994. december 25.
    Hang: magyar, angol
    Felirat: magyar, angol

    A jó öreg Poirot is a Karcsonyra készül, de lakásában elromlik a fűtés és nincs is esély arra, hogy az ünnepekig megjavítsák. Ezért kénytelen elfogadni Simeon Lee, a dúsgazdag és kibírhatatlan természetéről híres öregúr meghívását, aki arra kéri, hogy lakjon pár napig a házában. Az annak idején a Dél-Afrikai aranybányáiból egy csapásra meggazdagodott Lee galád tervet főzött ki az ünnepekre összegyűlő családtagjai számára. Gondoskodik róla, hogy mindegyikük meghallja az ügyvédjével folytatott beszélgetését a hatalmas végrendeletről, majd kitagadja őket egytől egyig az örökségből. A karácsonyi vacsorára való készülődés közben Simeon Lee hajmeresztő sikoltása hallatszik az emeletről. Az öregembert megölték és a gyémántjai is eltűntek a széfből. Poirot karácsonya ezúttal nyomozással telik, és az ajándék egy rendkívül csavaros bűntény, amire senki sem mert gondolni... (a borítóról)

    Média információ:
    Video:
    Kodek: MPEG-1/2 Video (mpgv)
    Felbontás: 720x576
    Képkockasebesség: 25
    Hang:
    Kodek: A52 Audio (aka AC3) (a52)
    Csatornák: Sztereó
    Mintavételi frekvencia: 48000 Hz
    Bitsebesség: 192 kb/mp
    Formátum: iso
    Méret: 4,02 GB
    Műsoridő: 1:42:40
    (prémium)
    Rejtett tartalom:
    **Rejtett tartalom: A tartalom megjelenítéséhez kattints a 'Tetszik' gombra.**
    [​IMG]

    Formátum: dvdrip/avi
    Méret: 1,00 GB
    Felbontás: 720x544
    Mintavételi frekvencia: 48000 Hz
    Bitsebesség: 128 kbps
    Műsoridő: 1:42:40
    Részletes média információ:
    Show Spoiler

    J:\42 - Poirot karácsonya.avi
    General
    Complete name : J:\42 - Poirot karácsonya.avi
    Format : AVI
    Format/Info : Audio Video Interleave
    File size : 1.00 GiB
    Duration : 1 h 42 min
    Overall bit rate : 1 396 kb/s
    Writing application : VirtualDubMod 1.5.4.1 (build 2178/release)
    Writing library : VirtualDubMod build 2178/release
    Video #0
    ID : 0
    Format : MPEG-4 Visual
    Format profile : Advanced [email protected]
    Format settings, BVOP : 1
    Format settings, QPel : No
    Format settings, GMC : No warppoints
    Format settings, Matrix : Custom
    Codec ID : XVID
    Codec ID/Hint : XviD
    Duration : 1 h 42 min
    Bit rate : 1 130 kb/s
    Width : 720 pixels
    Height : 544 pixels
    Display aspect ratio : 4:3
    Frame rate : 25.000 FPS
    Color space : YUV
    Chroma subsampling : 4:2:0
    Bit depth : 8 bits
    Scan type : Progressive
    Compression mode : Lossy
    Bits/(Pixel*Frame) : 0.115
    Stream size : 830 MiB (81%)
    Writing library : XviD 1.2.1 (UTC 2008-12-04)
    Audio #1
    ID : 1
    Format : MPEG Audio
    Format version : Version 1
    Format profile : Layer 3
    Mode : Joint stereo
    Mode extension : MS Stereo
    Codec ID : 55
    Codec ID/Hint : MP3
    Duration : 1 h 42 min
    Bit rate mode : Constant
    Bit rate : 128 kb/s
    Channel(s) : 2 channels
    Sampling rate : 48.0 kHz
    Compression mode : Lossy
    Stream size : 94.0 MiB (9%)
    Alignment : Aligned on interleaves
    Interleave, duration : 80 ms (2.00 video frames)
    Interleave, preload duration : 504 ms
    Writing library : LAME3.98r
    Encoding settings : -m j -V 4 -q 2 -lowpass 17 -b 128
    Audio #2
    ID : 2
    Format : MPEG Audio
    Format version : Version 1
    Format profile : Layer 3
    Mode : Joint stereo
    Mode extension : MS Stereo
    Codec ID : 55
    Codec ID/Hint : MP3
    Duration : 1 h 42 min
    Bit rate mode : Constant
    Bit rate : 128 kb/s
    Channel(s) : 2 channels
    Sampling rate : 48.0 kHz
    Compression mode : Lossy
    Stream size : 94.0 MiB (9%)
    Alignment : Aligned on interleaves
    Interleave, duration : 80 ms (2.00 video frames)
    Interleave, preload duration : 504 ms
    Writing library : LAME3.98r
    Encoding settings : -m j -V 4 -q 2 -lowpass 17 -b 128

    Rejtett tartalom:
    **Rejtett tartalom: A tartalom megjelenítéséhez kattints a 'Tetszik' gombra.**
    vagy free
    Rejtett tartalom:
    **Rejtett tartalom: A tartalom megjelenítéséhez kattints a 'Tetszik' gombra.**
     
  3. papadi

    papadi Állandó Tag

    [​IMG]

    43. (hatodik évad - 2.) rész

    A kisegér mindent lát
    (Hickory Dickory Dock)
    Rendezte: Andrew Grieve
    Bemutató: 1995. február 12.
    Hang: magyar, angol
    Felirat: magyar, angol

    Óriási baj van Poirot-éknál. Miss Lemon, a titkárnők gyöngye három gépelési hibát ejt egy oldalon, noha ez idáig túlzott pedánságáról volt híres. Mint kiderül, Miss Lemon nővére, Florance házvezetőnő lett egy diákszállón, ahol rejtélyes események történnek: furcsa tárgyak tűnnek el egymás után. A halálos morfium viszont az egyik diákot örök álomba ringatja. Az eset egyetlen szemtanúja egy kisegér.
    Poirotnak fel van adva a lecke.
    (a borítóról)

    Média információ:
    Video:
    Kodek: MPEG-1/2 Video (mpgv)
    Felbontás: 720x576
    Képkockasebesség: 25
    Hang:
    Kodek: A52 Audio (aka AC3) (a52)
    Csatornák: Sztereó
    Mintavételi frekvencia: 48000 Hz
    Bitsebesség: 192 kb/mp
    Formátum: iso
    Méret: 4,02 GB
    Műsoridő: 1:42:33
    (prémium)
    Rejtett tartalom:
    **Rejtett tartalom: A tartalom megjelenítéséhez kattints a 'Tetszik' gombra.**
    [​IMG]
    Formátum: dvdrip/avi
    Méret: 1,00 GB
    Felbontás: 720x544
    Mintavételi frekvencia: 48000 Hz
    Bitsebesség: 128 kbps
    Műsoridő: 1:42:33
    Részletes média információ:
    Show Spoiler

    J:\43 - A kisegér mindent lát.avi
    General
    Complete name : J:\43 - A kisegér mindent lát.avi
    Format : AVI
    Format/Info : Audio Video Interleave
    File size : 1.00 GiB
    Duration : 1 h 42 min
    Overall bit rate : 1 397 kb/s
    Writing application : VirtualDubMod 1.5.4.1 (build 2178/release)
    Writing library : VirtualDubMod build 2178/release
    Video #0
    ID : 0
    Format : MPEG-4 Visual
    Format profile : Advanced [email protected]
    Format settings, BVOP : 1
    Format settings, QPel : No
    Format settings, GMC : No warppoints
    Format settings, Matrix : Custom
    Codec ID : XVID
    Codec ID/Hint : XviD
    Duration : 1 h 42 min
    Bit rate : 1 132 kb/s
    Width : 720 pixels
    Height : 544 pixels
    Display aspect ratio : 4:3
    Frame rate : 25.000 FPS
    Color space : YUV
    Chroma subsampling : 4:2:0
    Bit depth : 8 bits
    Scan type : Progressive
    Compression mode : Lossy
    Bits/(Pixel*Frame) : 0.116
    Stream size : 830 MiB (81%)
    Writing library : XviD 1.2.1 (UTC 2008-12-04)
    Audio #1
    ID : 1
    Format : MPEG Audio
    Format version : Version 1
    Format profile : Layer 3
    Mode : Joint stereo
    Mode extension : MS Stereo
    Codec ID : 55
    Codec ID/Hint : MP3
    Duration : 1 h 42 min
    Bit rate mode : Constant
    Bit rate : 128 kb/s
    Channel(s) : 2 channels
    Sampling rate : 48.0 kHz
    Compression mode : Lossy
    Stream size : 93.9 MiB (9%)
    Alignment : Aligned on interleaves
    Interleave, duration : 80 ms (2.00 video frames)
    Interleave, preload duration : 504 ms
    Writing library : LAME3.98r
    Encoding settings : -m j -V 4 -q 2 -lowpass 17 -b 128
    Audio #2
    ID : 2
    Format : MPEG Audio
    Format version : Version 1
    Format profile : Layer 3
    Mode : Joint stereo
    Mode extension : MS Stereo
    Codec ID : 55
    Codec ID/Hint : MP3
    Duration : 1 h 42 min
    Bit rate mode : Constant
    Bit rate : 128 kb/s
    Channel(s) : 2 channels
    Sampling rate : 48.0 kHz
    Compression mode : Lossy
    Stream size : 93.9 MiB (9%)
    Alignment : Aligned on interleaves
    Interleave, duration : 80 ms (2.00 video frames)
    Interleave, preload duration : 504 ms
    Writing library : LAME3.98r
    Encoding settings : -m j -V 4 -q 2 -lowpass 17 -b 128

    Rejtett tartalom:
    **Rejtett tartalom: A tartalom megjelenítéséhez kattints a 'Tetszik' gombra.**
    vagy free
    Rejtett tartalom:
    **Rejtett tartalom: A tartalom megjelenítéséhez kattints a 'Tetszik' gombra.**
     
  4. papadi

    papadi Állandó Tag

    [​IMG]

    44. (hatodik évad - 3.) rész

    Az ijedt szemű lány
    (Murder on the Links)
    Rendezte: Andrew Grieve
    Bemutató: 1996. február 11.
    Hang: magyar, angol
    Felirat: magyar, angol

    A fogadás tétje óriási: vajon elveszti Poirot kackiás bajuszát, vagy a helyi rendőrfőnök kénytelen megválni elmaradhatatlan pipájától? Aki előbb fejti meg a Deauville-ben történt rejtélyes gyilkosság titkát, az nyer.
    Poirot szokásos nyári szabadságát tölti Hastings kapitánnyal a gyönyörű Deauville tengerpartján. Attól persze most sem kell félni, hogy Poirot agytekervényei elsorvadnának az unalomtól és a semmittevéstől. Noha a környéken az egyetlen normális szórakozásnak számító golfozás Hasting-szel ellentétben teljesen hidegen hagyja őt, mégis épp a golfpályán éri a nagy meglepetés: itt bukkannak rá Paul Reanuld, a híres drágakő-kereskedő holttestére, aki még pár napja épp tőle kért segítséget, mert attól félt, hogy valaki meg akarja ölni. Hastings fejét pedig teljesen elcsavarja egy titokzatos hölgy, bizonyos Bella Duveen, aki sportot űz az átverésekből és a tárgyi bizonyítékok eltüntetéséből. Poirotnak muszáj előállnia a megoldással, különben búcsút mondhat bajuszkájának...
    (a borítóról)

    Média információ:
    Video:
    Kodek: MPEG-1/2 Video (mpgv)
    Felbontás: 720x576
    Képkockasebesség: 25
    Hang:
    Kodek: A52 Audio (aka AC3) (a52)
    Csatornák: Sztereó
    Mintavételi frekvencia: 48000 Hz
    Bitsebesség: 192 kb/mp
    Formátum: iso
    Méret: 4,32 GB
    Műsoridő: 1:42:36
    (prémium)
    Rejtett tartalom:
    **Rejtett tartalom: A tartalom megjelenítéséhez kattints a 'Tetszik' gombra.**
    [​IMG]

    Formátum: dvdrip/avi
    Méret: 1,00 GB
    Felbontás: 720x544
    Mintavételi frekvencia: 48000 Hz
    Bitsebesség: 128 kbps
    Műsoridő: 1:42:35
    Részletes média információ:
    Show Spoiler

    J:\44 - Az ijedt szemü lány.avi
    General
    Complete name : J:\44 - Az ijedt szemü lány.avi
    Format : AVI
    Format/Info : Audio Video Interleave
    File size : 1.00 GiB
    Duration : 1 h 42 min
    Overall bit rate : 1 397 kb/s
    Writing application : VirtualDubMod 1.5.4.1 (build 2178/release)
    Writing library : VirtualDubMod build 2178/release
    Video #0
    ID : 0
    Format : MPEG-4 Visual
    Format profile : Advanced [email protected]
    Format settings, BVOP : 1
    Format settings, QPel : No
    Format settings, GMC : No warppoints
    Format settings, Matrix : Custom
    Codec ID : XVID
    Codec ID/Hint : XviD
    Duration : 1 h 42 min
    Bit rate : 1 131 kb/s
    Width : 720 pixels
    Height : 544 pixels
    Display aspect ratio : 4:3
    Frame rate : 25.000 FPS
    Color space : YUV
    Chroma subsampling : 4:2:0
    Bit depth : 8 bits
    Scan type : Progressive
    Compression mode : Lossy
    Bits/(Pixel*Frame) : 0.116
    Stream size : 830 MiB (81%)
    Writing library : XviD 1.2.1 (UTC 2008-12-04)
    Audio #1
    ID : 1
    Format : MPEG Audio
    Format version : Version 1
    Format profile : Layer 3
    Mode : Joint stereo
    Mode extension : MS Stereo
    Codec ID : 55
    Codec ID/Hint : MP3
    Duration : 1 h 42 min
    Bit rate mode : Constant
    Bit rate : 128 kb/s
    Channel(s) : 2 channels
    Sampling rate : 48.0 kHz
    Compression mode : Lossy
    Stream size : 93.9 MiB (9%)
    Alignment : Aligned on interleaves
    Interleave, duration : 80 ms (2.00 video frames)
    Interleave, preload duration : 504 ms
    Writing library : LAME3.98r
    Encoding settings : -m j -V 4 -q 2 -lowpass 17 -b 128
    Audio #2
    ID : 2
    Format : MPEG Audio
    Format version : Version 1
    Format profile : Layer 3
    Mode : Joint stereo
    Mode extension : MS Stereo
    Codec ID : 55
    Codec ID/Hint : MP3
    Duration : 1 h 42 min
    Bit rate mode : Constant
    Bit rate : 128 kb/s
    Channel(s) : 2 channels
    Sampling rate : 48.0 kHz
    Compression mode : Lossy
    Stream size : 93.9 MiB (9%)
    Alignment : Aligned on interleaves
    Interleave, duration : 80 ms (2.00 video frames)
    Interleave, preload duration : 504 ms
    Writing library : LAME3.98r
    Encoding settings : -m j -V 4 -q 2 -lowpass 17 -b 128

    Rejtett tartalom:
    **Rejtett tartalom: A tartalom megjelenítéséhez kattints a 'Tetszik' gombra.**
    vagy free
    Rejtett tartalom:
    **Rejtett tartalom: A tartalom megjelenítéséhez kattints a 'Tetszik' gombra.**
     
    őrszem, dadusk, Kultatukka és 1 másik tag kedveli ezt.
  5. papadi

    papadi Állandó Tag

    [​IMG]

    45. (hatodik évad - 4.) rész

    A kutya se látta
    (Dumb Witness)
    Rendezte: Edward Bennett
    Bemutató: 1996. március 16.
    Hang: magyar, angol
    Felirat: magyar, angol

    Monsieur Bob, Poirot "legjobb barátja" és segítőtársa mindent látott, mindent hallott. Csak éppen nem tudja szavakkal elmondani, vajon ki ölte meg gazdáját, Emily nénit, akinek örökségére az egész család számított. Monsieur Bob ugyanis egy fox terrier, aki pontosan tudja, ki a gyilkos. Az Arundel házban ugyanis az utóbbi időben sorjáztak a furcsa események. A Tripps ikerpár szellemeket idézett meg egy spiritiszta szeánszon, nem sokkal később Emily Arundel lezuhant a lépcsőházban, de túlélte. Miután Poirot tanácsára megváltoztatta végrendeletét, hátborzongató körülmények között került a másvilágra. Mivel Poirot sosem szerette a természetfeletti magyarázatokat, egyetlen szemtanúja, Bob kutya segítségével derít fényt az igazságra. (a borítóról)

    Média információ:
    Video:
    Kodek: MPEG-1/2 Video (mpgv)
    Felbontás: 720x576
    Képkockasebesség: 25
    Hang:
    Kodek: A52 Audio (aka AC3) (a52)
    Csatornák: Sztereó
    Mintavételi frekvencia: 48000 Hz
    Bitsebesség: 192 kb/mp
    Formátum: iso
    Méret: 3,67 GB
    Műsoridő: 1:42:13
    (prémium)
    Rejtett tartalom:
    **Rejtett tartalom: A tartalom megjelenítéséhez kattints a 'Tetszik' gombra.**
    [​IMG]

    Formátum: dvdrip/avi
    Méret: 1,00 GB
    Felbontás: 720x544
    Mintavételi frekvencia: 48000 Hz
    Bitsebesség: 128 kbps
    Műsoridő: 1:42:13
    Részletes média információ:
    Show Spoiler

    J:\45 - A kutya se látta.avi
    General
    Complete name : J:\45 - A kutya se látta.avi
    Format : AVI
    Format/Info : Audio Video Interleave
    File size : 1 022 MiB
    Duration : 1 h 42 min
    Overall bit rate : 1 398 kb/s
    Writing application : VirtualDubMod 1.5.4.1 (build 2178/release)
    Writing library : VirtualDubMod build 2178/release
    Video #0
    ID : 0
    Format : MPEG-4 Visual
    Format profile : Advanced [email protected]
    Format settings, BVOP : 1
    Format settings, QPel : No
    Format settings, GMC : No warppoints
    Format settings, Matrix : Custom
    Codec ID : XVID
    Codec ID/Hint : XviD
    Duration : 1 h 42 min
    Bit rate : 1 132 kb/s
    Width : 720 pixels
    Height : 544 pixels
    Display aspect ratio : 4:3
    Frame rate : 25.000 FPS
    Color space : YUV
    Chroma subsampling : 4:2:0
    Bit depth : 8 bits
    Scan type : Progressive
    Compression mode : Lossy
    Bits/(Pixel*Frame) : 0.116
    Stream size : 828 MiB (81%)
    Writing library : XviD 1.2.1 (UTC 2008-12-04)
    Audio #1
    ID : 1
    Format : MPEG Audio
    Format version : Version 1
    Format profile : Layer 3
    Mode : Joint stereo
    Mode extension : MS Stereo
    Codec ID : 55
    Codec ID/Hint : MP3
    Duration : 1 h 42 min
    Bit rate mode : Constant
    Bit rate : 128 kb/s
    Channel(s) : 2 channels
    Sampling rate : 48.0 kHz
    Compression mode : Lossy
    Stream size : 93.6 MiB (9%)
    Alignment : Aligned on interleaves
    Interleave, duration : 80 ms (2.00 video frames)
    Interleave, preload duration : 504 ms
    Writing library : LAME3.98r
    Encoding settings : -m j -V 4 -q 2 -lowpass 17 -b 128
    Audio #2
    ID : 2
    Format : MPEG Audio
    Format version : Version 1
    Format profile : Layer 3
    Mode : Joint stereo
    Mode extension : MS Stereo
    Codec ID : 55
    Codec ID/Hint : MP3
    Duration : 1 h 42 min
    Bit rate mode : Constant
    Bit rate : 128 kb/s
    Channel(s) : 2 channels
    Sampling rate : 48.0 kHz
    Compression mode : Lossy
    Stream size : 93.6 MiB (9%)
    Alignment : Aligned on interleaves
    Interleave, duration : 80 ms (2.00 video frames)
    Interleave, preload duration : 504 ms
    Writing library : LAME3.98r
    Encoding settings : -m j -V 4 -q 2 -lowpass 17 -b 128

    Rejtett tartalom:
    **Rejtett tartalom: A tartalom megjelenítéséhez kattints a 'Tetszik' gombra.**
    vagy free
    Rejtett tartalom:
    **Rejtett tartalom: A tartalom megjelenítéséhez kattints a 'Tetszik' gombra.**
     
    őrszem, dadusk, Kultatukka és 1 másik tag kedveli ezt.
  6. papadi

    papadi Állandó Tag

    [​IMG]

    46. (hetedik évad - 1.) rész

    Az Ackroyd-gyilkosság
    (The Murder of Roger Ackroyd)
    Rendezte: Andrew Grieve
    Bemutató: 2000. január 2.
    Hang: magyar, angol
    Felirat: magyar, angol

    "Engem nem kínzol tovább! Inkább megöllek!" Rémesek ezek a szavak. Főleg azért, mert a rejtélyes bűnügyek megoldásáról híres furfangos mesterdetektív, Hercule Poirot szájából hangoznak el, aki a város bűnös fertőjéből kiköltözött Kings Abbottba, a nyugalmas éss szürke angol kisvárosba, hogy visszavonuljon. A halálos fenygetést kertészkedés közben egy jókora úritöknek szánta, amely hatalmas bosszúságot okozott neki. Ebből is látszik, hogy a vidéki élet nem Poirotnak való. Persze, az elsőre unalmasnak tűnő kisvárosban a felszín alatt több gonoszság, féltékenység és viszály lapul, mint az ókori Rómában. Amikor rejtélyes módon meggyilkolják Roger Ackroydot, a környék leggazdagabb iparmágnását, Poirot "kénytelen" ismét munkába állni. Gyanúsított akad bőven, de sajnos újabb áldozatok is, akik a mesteri tervet kidolgozó gyilkos útjában álltak... (a borítóról)

    Média információ:
    Video:
    Kodek: MPEG-1/2 Video (mpgv)
    Felbontás: 720x576
    Képkockasebesség: 25
    Hang:
    Kodek: A52 Audio (aka AC3) (a52)
    Csatornák: Sztereó
    Mintavételi frekvencia: 48000 Hz
    Bitsebesség: 192 kb/mp
    Formátum: iso
    Méret: 4,25 GB
    Műsoridő: 1:39:13
    (prémium)
    Rejtett tartalom:
    **Rejtett tartalom: A tartalom megjelenítéséhez kattints a 'Tetszik' gombra.**
    [​IMG]

    Formátum: dvdrip/avi
    Méret: 995 MB
    Felbontás: 720x400
    Mintavételi frekvencia: 48000 Hz
    Bitsebesség: 128 kbps
    Műsoridő: 1:39:13
    Részletes média információ:
    Show Spoiler

    J:\46 - Az Ackroyd gyilkosság.avi
    General
    Complete name : J:\46 - Az Ackroyd gyilkosság.avi
    Format : AVI
    Format/Info : Audio Video Interleave
    File size : 993 MiB
    Duration : 1 h 39 min
    Overall bit rate : 1 399 kb/s
    Writing application : VirtualDubMod 1.5.4.1 (build 2178/release)
    Writing library : VirtualDubMod build 2178/release
    Video #0
    ID : 0
    Format : MPEG-4 Visual
    Format profile : Advanced [email protected]
    Format settings, BVOP : 1
    Format settings, QPel : No
    Format settings, GMC : No warppoints
    Format settings, Matrix : Custom
    Codec ID : XVID
    Codec ID/Hint : XviD
    Duration : 1 h 39 min
    Bit rate : 1 133 kb/s
    Width : 720 pixels
    Height : 400 pixels
    Display aspect ratio : 16:9
    Frame rate : 25.000 FPS
    Color space : YUV
    Chroma subsampling : 4:2:0
    Bit depth : 8 bits
    Scan type : Progressive
    Compression mode : Lossy
    Bits/(Pixel*Frame) : 0.157
    Stream size : 804 MiB (81%)
    Writing library : XviD 1.2.1 (UTC 2008-12-04)
    Audio #1
    ID : 1
    Format : MPEG Audio
    Format version : Version 1
    Format profile : Layer 3
    Mode : Joint stereo
    Mode extension : MS Stereo
    Codec ID : 55
    Codec ID/Hint : MP3
    Duration : 1 h 39 min
    Bit rate mode : Constant
    Bit rate : 128 kb/s
    Channel(s) : 2 channels
    Sampling rate : 48.0 kHz
    Compression mode : Lossy
    Stream size : 90.9 MiB (9%)
    Alignment : Aligned on interleaves
    Interleave, duration : 80 ms (2.00 video frames)
    Interleave, preload duration : 504 ms
    Writing library : LAME3.98r
    Encoding settings : -m j -V 4 -q 2 -lowpass 17 -b 128
    Audio #2
    ID : 2
    Format : MPEG Audio
    Format version : Version 1
    Format profile : Layer 3
    Mode : Joint stereo
    Mode extension : MS Stereo
    Codec ID : 55
    Codec ID/Hint : MP3
    Duration : 1 h 39 min
    Bit rate mode : Constant
    Bit rate : 128 kb/s
    Channel(s) : 2 channels
    Sampling rate : 48.0 kHz
    Compression mode : Lossy
    Stream size : 90.9 MiB (9%)
    Alignment : Aligned on interleaves
    Interleave, duration : 80 ms (2.00 video frames)
    Interleave, preload duration : 504 ms
    Writing library : LAME3.98r
    Encoding settings : -m j -V 4 -q 2 -lowpass 17 -b 128

    Rejtett tartalom:
    **Rejtett tartalom: A tartalom megjelenítéséhez kattints a 'Tetszik' gombra.**
    vagy free
    Rejtett tartalom:
    **Rejtett tartalom: A tartalom megjelenítéséhez kattints a 'Tetszik' gombra.**
     
    őrszem, dadusk, Kultatukka és 1 másik tag kedveli ezt.
  7. papadi

    papadi Állandó Tag

    [​IMG]

    47. (hetedik évad - 2.) rész

    Lord Edgware halála
    (Lord Edgware Dies)
    Rendezte: Brian Farnham
    Bemutató: 2000. február 19.
    Hang: magyar, angol
    Felirat: magyar, angol

    Hercule Poirot végre visszatér a nyüzsgő London városába, miután a "nyugalmas vidéki élet" teljesen kimerítette. Boldog, hiszen ott van mellette ismét Japp főfelügyelő, Hastings kapitány és Miss lemon, a tökéletes titkárnő. És persze újabb gyilkosság történik, Carlotta Adams, a népszerű amerikai parodista estélyén Poirot megismerkedik Jane Wilkinsonnal, a híres színésznővel, aki teljesen rabul ejti őt. Olyannyira, hogy beleegyezik: felkeresi Lord Edgware-t, Jane férjét és rábeszéli őt a válásra, hisz feleségével már rég kihűlt a kapcsolatuk. Legnagyobb meglepetésére Edgware közli, hogy már régóta megegyeztek a válásban, de alig 24 órával Poirot látogatása után az idős urat holtan találják... (a borítóról)

    Média információ:
    Video:
    Kodek: MPEG-1/2 Video (mpgv)
    Felbontás: 720x576
    Képkockasebesség: 25
    Hang:
    Kodek: A52 Audio (aka AC3) (a52)
    Csatornák: Sztereó
    Mintavételi frekvencia: 48000 Hz
    Bitsebesség: 192 kb/mp
    Formátum: iso
    Méret: 3,92 GB
    Műsoridő: 1:39:19
    (prémium)
    Rejtett tartalom:
    **Rejtett tartalom: A tartalom megjelenítéséhez kattints a 'Tetszik' gombra.**
    [​IMG]

    Formátum: dvdrip/avi
    Méret: 997 MB
    Felbontás: 720x416
    Mintavételi frekvencia: 48000 Hz
    Bitsebesség: 128 kbps
    Műsoridő: 1:39:19
    Részletes média információ:
    Show Spoiler

    J:\47 - Lord Edgware halála.avi
    General
    Complete name : J:\47 - Lord Edgware halála.avi
    Format : AVI
    Format/Info : Audio Video Interleave
    File size : 994 MiB
    Duration : 1 h 39 min
    Overall bit rate : 1 399 kb/s
    Writing application : VirtualDubMod 1.5.4.1 (build 2178/release)
    Writing library : VirtualDubMod build 2178/release
    Video #0
    ID : 0
    Format : MPEG-4 Visual
    Format profile : Advanced [email protected]
    Format settings, BVOP : 1
    Format settings, QPel : No
    Format settings, GMC : No warppoints
    Format settings, Matrix : Custom
    Codec ID : XVID
    Codec ID/Hint : XviD
    Duration : 1 h 39 min
    Bit rate : 1 133 kb/s
    Width : 720 pixels
    Height : 416 pixels
    Display aspect ratio : 1.731
    Frame rate : 25.000 FPS
    Color space : YUV
    Chroma subsampling : 4:2:0
    Bit depth : 8 bits
    Scan type : Progressive
    Compression mode : Lossy
    Bits/(Pixel*Frame) : 0.151
    Stream size : 805 MiB (81%)
    Writing library : XviD 1.2.1 (UTC 2008-12-04)
    Audio #1
    ID : 1
    Format : MPEG Audio
    Format version : Version 1
    Format profile : Layer 3
    Mode : Joint stereo
    Mode extension : MS Stereo
    Codec ID : 55
    Codec ID/Hint : MP3
    Duration : 1 h 39 min
    Bit rate mode : Constant
    Bit rate : 128 kb/s
    Channel(s) : 2 channels
    Sampling rate : 48.0 kHz
    Compression mode : Lossy
    Stream size : 90.9 MiB (9%)
    Alignment : Aligned on interleaves
    Interleave, duration : 80 ms (2.00 video frames)
    Interleave, preload duration : 504 ms
    Writing library : LAME3.98r
    Encoding settings : -m j -V 4 -q 2 -lowpass 17 -b 128
    Audio #2
    ID : 2
    Format : MPEG Audio
    Format version : Version 1
    Format profile : Layer 3
    Mode : Joint stereo
    Mode extension : MS Stereo
    Codec ID : 55
    Codec ID/Hint : MP3
    Duration : 1 h 39 min
    Bit rate mode : Constant
    Bit rate : 128 kb/s
    Channel(s) : 2 channels
    Sampling rate : 48.0 kHz
    Compression mode : Lossy
    Stream size : 90.9 MiB (9%)
    Alignment : Aligned on interleaves
    Interleave, duration : 80 ms (2.00 video frames)
    Interleave, preload duration : 504 ms
    Writing library : LAME3.98r
    Encoding settings : -m j -V 4 -q 2 -lowpass 17 -b 128

    Rejtett tartalom:
    **Rejtett tartalom: A tartalom megjelenítéséhez kattints a 'Tetszik' gombra.**
    vagy free
    Rejtett tartalom:
    **Rejtett tartalom: A tartalom megjelenítéséhez kattints a 'Tetszik' gombra.**
     
  8. papadi

    papadi Állandó Tag

    [​IMG]

    48. (nyolcadik évad - 1.) rész

    Nyaraló gyilkosok
    (Evil Under the Sun)
    Rendezte: Brian Farnham
    Bemutató: 2001. április 20.
    Hang: magyar, angol
    Felirat: magyar, angol

    Ki hitte volna, hogy a festői szigeten álló gyógyszállóban Hercule Poirot "életére törnek", aki súlyfeleslege miatt érkezett ide egészségügyi gyógykezelésre? A galád tett közvetett elkövetője nem más, mint Miss Lemon, Poirot titkárnője, aki szigorú diétára és egy középkori kínzással felérő gőzterápiára utalja be főnökét, ráadásul Hastings kapitányt is a nyakába varrja. A hotelbe érkező illusztris vendégek között van a hírhedt férfifaló ex-színésznő, Arlena Stuart is, akit látványos megvetéssel fogad az úri társaság. Mint kiderül, a vendégek többsége nem csak hírből ismeri a hölgyet, akit nem sokkal később, egy verőfényes napon holtan találnak a parton. Poirot nyugalmasnak eddig sem mondható "nyaralása" egyszeriben izgalmas nyomozássá alakul át... (a borítóról)

    Média információ:
    Video:
    Kodek: MPEG-1/2 Video (mpgv)
    Felbontás: 720x576
    Képkockasebesség: 25
    Hang:
    Kodek: A52 Audio (aka AC3) (a52)
    Csatornák: Sztereó
    Mintavételi frekvencia: 48000 Hz
    Bitsebesség: 192 kb/mp
    Formátum: iso
    Méret: 4,24 GB
    Műsoridő: 1:38:50
    (prémium)
    Rejtett tartalom:
    **Rejtett tartalom: A tartalom megjelenítéséhez kattints a 'Tetszik' gombra.**
    [​IMG]

    Formátum: dvdrip/avi
    Méret: 990 MB
    Felbontás: 720x400
    Mintavételi frekvencia: 48000 Hz
    Bitsebesség: 128 kbps
    Műsoridő: 1:38:50
    Részletes média információ:
    Show Spoiler

    J:\48 - Nyaraló gyilkosok.avi
    General
    Complete name : J:\48 - Nyaraló gyilkosok.avi
    Format : AVI
    Format/Info : Audio Video Interleave
    File size : 988 MiB
    Duration : 1 h 38 min
    Overall bit rate : 1 397 kb/s
    Writing application : VirtualDubMod 1.5.4.1 (build 2178/release)
    Writing library : VirtualDubMod build 2178/release
    Video #0
    ID : 0
    Format : MPEG-4 Visual
    Format profile : Advanced [email protected]
    Format settings, BVOP : 1
    Format settings, QPel : No
    Format settings, GMC : No warppoints
    Format settings, Matrix : Custom
    Codec ID : XVID
    Codec ID/Hint : XviD
    Duration : 1 h 38 min
    Bit rate : 1 132 kb/s
    Width : 720 pixels
    Height : 400 pixels
    Display aspect ratio : 16:9
    Frame rate : 25.000 FPS
    Color space : YUV
    Chroma subsampling : 4:2:0
    Bit depth : 8 bits
    Scan type : Progressive
    Compression mode : Lossy
    Bits/(Pixel*Frame) : 0.157
    Stream size : 800 MiB (81%)
    Writing library : XviD 1.2.1 (UTC 2008-12-04)
    Audio #1
    ID : 1
    Format : MPEG Audio
    Format version : Version 1
    Format profile : Layer 3
    Mode : Joint stereo
    Mode extension : MS Stereo
    Codec ID : 55
    Codec ID/Hint : MP3
    Duration : 1 h 38 min
    Bit rate mode : Constant
    Bit rate : 128 kb/s
    Channel(s) : 2 channels
    Sampling rate : 48.0 kHz
    Compression mode : Lossy
    Stream size : 90.5 MiB (9%)
    Alignment : Aligned on interleaves
    Interleave, duration : 80 ms (2.00 video frames)
    Interleave, preload duration : 504 ms
    Writing library : LAME3.98r
    Encoding settings : -m j -V 4 -q 2 -lowpass 17 -b 128
    Audio #2
    ID : 2
    Format : MPEG Audio
    Format version : Version 1
    Format profile : Layer 3
    Mode : Joint stereo
    Mode extension : MS Stereo
    Codec ID : 55
    Codec ID/Hint : MP3
    Duration : 1 h 38 min
    Bit rate mode : Constant
    Bit rate : 128 kb/s
    Channel(s) : 2 channels
    Sampling rate : 48.0 kHz
    Compression mode : Lossy
    Stream size : 90.5 MiB (9%)
    Alignment : Aligned on interleaves
    Interleave, duration : 80 ms (2.00 video frames)
    Interleave, preload duration : 504 ms
    Writing library : LAME3.98r
    Encoding settings : -m j -V 4 -q 2 -lowpass 17 -b 128

    Rejtett tartalom:
    **Rejtett tartalom: A tartalom megjelenítéséhez kattints a 'Tetszik' gombra.**
    vagy free
    Rejtett tartalom:
    **Rejtett tartalom: A tartalom megjelenítéséhez kattints a 'Tetszik' gombra.**
     
  9. papadi

    papadi Állandó Tag

    [​IMG]

    49. (nyolcadik évad - 2.) rész

    Gyilkosság Mezopotámiában
    (Murder in Mesopotamia)
    Rendezte: Tom Clegg
    Bemutató: 2002. június 2.
    Hang: magyar, angol
    Felirat: magyar, angol

    Furcsa véletlen, hogy Poirot egy mezopotámiai régészeti ásatás főhadiszállásán fut össze régi barátjával, Hastings kapitánnyal. Baljós előjel, hogy pont ezen a helyen találtak rá nemrégiben egy meggyilkolt arab munkás holttestére. Az iraki sivatag közepén folyó ásatásokat az ismert amerikai archeológus, Dr. Leidner vezeti, aki maga köré gyűjtötte legjobb barátait és munkatársait. Egyik éjjel Dr. Leidner ifjú és gyönyörű felesége sikoltozva ébred: furcsa zajokról és egy titokzatos arcról mesél, amely megjelent az ablakában. Az asszony bevallja Poirotnak, hogy évek óta félelemben él halottnak hitt férje fenyegető levelei miatt. Sajnos a félelmek nem is alaptalanok: Madame Leidnert nem sokkal később holtan találják a hálószobájában. Az ásatáson részt vevők mindegyike potenciális gyanúsított és most Poiroton a sor, hogy ásatást végezzen a lelkek mélyén, ahol csak féltékenységet, rivalizálást és a múlt sötét titkait találja. (a borítóról)

    Média információ:
    Video:
    Kodek: MPEG-1/2 Video (mpgv)
    Felbontás: 720x576
    Képkockasebesség: 25
    Hang:
    Kodek: A52 Audio (aka AC3) (a52)
    Csatornák: Sztereó
    Mintavételi frekvencia: 48000 Hz
    Bitsebesség: 192 kb/mp
    Formátum: iso
    Méret: 4,24 GB
    Műsoridő: 1:38:35
    (prémium)
    Rejtett tartalom:
    **Rejtett tartalom: A tartalom megjelenítéséhez kattints a 'Tetszik' gombra.**
    [​IMG]

    Formátum: dvdrip/avi
    Méret: 976 MB
    Felbontás: 720x400
    Mintavételi frekvencia: 48000 Hz
    Bitsebesség: 128 kbps
    Műsoridő: 1:38:35
    Részletes média információ:
    Show Spoiler

    J:\49 - Gyilkosság Mezopotámiában.avi
    General
    Complete name : J:\49 - Gyilkosság Mezopotámiában.avi
    Format : AVI
    Format/Info : Audio Video Interleave
    File size : 974 MiB
    Duration : 1 h 38 min
    Overall bit rate : 1 381 kb/s
    Writing application : VirtualDubMod 1.5.4.1 (build 2178/release)
    Writing library : VirtualDubMod build 2178/release
    Video #0
    ID : 0
    Format : MPEG-4 Visual
    Format profile : Advanced [email protected]
    Format settings, BVOP : 1
    Format settings, QPel : No
    Format settings, GMC : No warppoints
    Format settings, Matrix : Custom
    Codec ID : XVID
    Codec ID/Hint : XviD
    Duration : 1 h 38 min
    Bit rate : 1 115 kb/s
    Width : 720 pixels
    Height : 400 pixels
    Display aspect ratio : 16:9
    Frame rate : 25.000 FPS
    Color space : YUV
    Chroma subsampling : 4:2:0
    Bit depth : 8 bits
    Scan type : Progressive
    Compression mode : Lossy
    Bits/(Pixel*Frame) : 0.155
    Stream size : 786 MiB (81%)
    Writing library : XviD 1.2.1 (UTC 2008-12-04)
    Audio #1
    ID : 1
    Format : MPEG Audio
    Format version : Version 1
    Format profile : Layer 3
    Mode : Joint stereo
    Mode extension : MS Stereo
    Codec ID : 55
    Codec ID/Hint : MP3
    Duration : 1 h 38 min
    Bit rate mode : Constant
    Bit rate : 128 kb/s
    Channel(s) : 2 channels
    Sampling rate : 48.0 kHz
    Compression mode : Lossy
    Stream size : 90.3 MiB (9%)
    Alignment : Aligned on interleaves
    Interleave, duration : 80 ms (2.00 video frames)
    Interleave, preload duration : 504 ms
    Writing library : LAME3.98r
    Encoding settings : -m j -V 4 -q 2 -lowpass 17 -b 128
    Audio #2
    ID : 2
    Format : MPEG Audio
    Format version : Version 1
    Format profile : Layer 3
    Mode : Joint stereo
    Mode extension : MS Stereo
    Codec ID : 55
    Codec ID/Hint : MP3
    Duration : 1 h 38 min
    Bit rate mode : Constant
    Bit rate : 128 kb/s
    Channel(s) : 2 channels
    Sampling rate : 48.0 kHz
    Compression mode : Lossy
    Stream size : 90.3 MiB (9%)
    Alignment : Aligned on interleaves
    Interleave, duration : 80 ms (2.00 video frames)
    Interleave, preload duration : 504 ms
    Writing library : LAME3.98r
    Encoding settings : -m j -V 4 -q 2 -lowpass 17 -b 128

    Rejtett tartalom:
    **Rejtett tartalom: A tartalom megjelenítéséhez kattints a 'Tetszik' gombra.**
    vagy free
    Rejtett tartalom:
    **Rejtett tartalom: A tartalom megjelenítéséhez kattints a 'Tetszik' gombra.**
     
  10. papadi

    papadi Állandó Tag

    [​IMG]

    50. (kilencedik évad - 1.) rész

    Öt kismalac
    (Five Little Pigs)
    Rendezte: Peter Unwin
    Bemutató: 2003. december 14.
    Hang: magyar, angol
    Felirat: magyar, angol

    Amyas Crale, az ismert festőművész gyilkosság áldozata lett: a közvélemény szerint felesége mérgezte meg, mert férje szerelmi viszonyba bonyolódott egyik modelljével. 14 évvel később 1938-ban azóta felnőtt lánygyermekük, Lucy Kanadából egy új bizonyítékkal - a levelet édesanyja küldte a kivégzése előtti éjszakán, melyben megírta ártatlanságát. Hercule Poirot, a belga mesterdetektív elvállalja, hogy felgöngyölíti a több mint egy évtizede történt gyilkosság fonalait, de figyelmezteti a lányt: olyan dolgok kerülhetnek napvilágra, melyeket talán sosem szeretett volna megtudni.
    De az igazság mindennél fontosabb!
    (a borítóról)

    Extrák: (magyar felirattal) (csak a dvd-n)
    Interjúk (29:00)
    Margaret Mitchell (producer),
    David Suchet

    Média információ:
    Video:
    Kodek: MPEG-1/2 Video (mpgv)
    Felbontás: 720x576
    Képkockasebesség: 25
    Hang:
    Kodek: A52 Audio (aka AC3) (a52)
    Csatornák: Sztereó
    Mintavételi frekvencia: 48000 Hz
    Bitsebesség: 192 kb/mp
    Formátum: iso
    Méret: 4,67 GB
    Műsoridő: 1:33:20 (2:02:20)
    (prémium)
    Rejtett tartalom:
    **Rejtett tartalom: A tartalom megjelenítéséhez kattints a 'Tetszik' gombra.**
    [​IMG]

    Formátum: dvdrip/avi
    Méret: 935 MB
    Felbontás: 720x416
    Mintavételi frekvencia: 48000 Hz
    Bitsebesség: 128 kbps
    Műsoridő: 1:33:20
    Részletes média információ:
    Show Spoiler

    J:\50 - Öt kismalac.avi
    General
    Complete name : J:\50 - Öt kismalac.avi
    Format : AVI
    Format/Info : Audio Video Interleave
    File size : 934 MiB
    Duration : 1 h 33 min
    Overall bit rate : 1 398 kb/s
    Writing application : VirtualDubMod 1.5.4.1 (build 2178/release)
    Writing library : VirtualDubMod build 2178/release
    Video #0
    ID : 0
    Format : MPEG-4 Visual
    Format profile : Advanced [email protected]
    Format settings, BVOP : 1
    Format settings, QPel : No
    Format settings, GMC : No warppoints
    Format settings, Matrix : Custom
    Codec ID : XVID
    Codec ID/Hint : XviD
    Duration : 1 h 33 min
    Bit rate : 1 133 kb/s
    Width : 720 pixels
    Height : 416 pixels
    Display aspect ratio : 1.731
    Frame rate : 25.000 FPS
    Color space : YUV
    Chroma subsampling : 4:2:0
    Bit depth : 8 bits
    Scan type : Progressive
    Compression mode : Lossy
    Bits/(Pixel*Frame) : 0.151
    Stream size : 756 MiB (81%)
    Writing library : XviD 1.2.1 (UTC 2008-12-04)
    Audio #1
    ID : 1
    Format : MPEG Audio
    Format version : Version 1
    Format profile : Layer 3
    Mode : Joint stereo
    Mode extension : MS Stereo
    Codec ID : 55
    Codec ID/Hint : MP3
    Duration : 1 h 33 min
    Bit rate mode : Constant
    Bit rate : 128 kb/s
    Channel(s) : 2 channels
    Sampling rate : 48.0 kHz
    Compression mode : Lossy
    Stream size : 85.5 MiB (9%)
    Alignment : Aligned on interleaves
    Interleave, duration : 80 ms (2.00 video frames)
    Interleave, preload duration : 504 ms
    Writing library : LAME3.98r
    Encoding settings : -m j -V 4 -q 2 -lowpass 17 -b 128
    Audio #2
    ID : 2
    Format : MPEG Audio
    Format version : Version 1
    Format profile : Layer 3
    Mode : Joint stereo
    Mode extension : MS Stereo
    Codec ID : 55
    Codec ID/Hint : MP3
    Duration : 1 h 33 min
    Bit rate mode : Constant
    Bit rate : 128 kb/s
    Channel(s) : 2 channels
    Sampling rate : 48.0 kHz
    Compression mode : Lossy
    Stream size : 85.5 MiB (9%)
    Alignment : Aligned on interleaves
    Interleave, duration : 80 ms (2.00 video frames)
    Interleave, preload duration : 504 ms
    Writing library : LAME3.98r
    Encoding settings : -m j -V 4 -q 2 -lowpass 17 -b 128

    Rejtett tartalom:
    **Rejtett tartalom: A tartalom megjelenítéséhez kattints a 'Tetszik' gombra.**
    vagy free
    Rejtett tartalom:
    **Rejtett tartalom: A tartalom megjelenítéséhez kattints a 'Tetszik' gombra.**
     
    Utoljára módosítva: 2018 Október 29
    őrszem, dadusk, Kultatukka és 1 másik tag kedveli ezt.
  11. papadi

    papadi Állandó Tag

    [​IMG]

    51. (kilencedik évad - 2.) rész

    Cipruskoporsó
    (Sad Cypress )
    Alternatív cím: A szomorú ciprusfa
    Rendezte: David Moore
    Bemutató: 2003. december 26.
    Hang: magyar, angol
    Felirat: magyar, angol

    A gyönyörű ifjú hölgy, Elinor Carlisle kettős gyilkosság vádjával áll a bíróság előtt. A vád szerint méreggel meggyilkolta gazdag nagynénjét, Laura Welmant és szerelme csábítóját, Mary Gerrardot. A bizonyítékok még Poirot szerint is cáfolhatatlanok, de mégis elkezd benne mocorogni a kétség és agyában elkezdi összeállítani a gyilkosság egy egészen más verzióját. Sok ideje nincs, hogy megtalálja az igazi gyilkost, mert Elinorra már vár az akasztófa... (a borítóról)

    Extrák: (magyar felirattal) (csak a dvd-n)
    Így készült a film (13:27)

    Média információ:
    Video:
    Kodek: MPEG-1/2 Video (mpgv)
    Felbontás: 720x576
    Képkockasebesség: 25
    Hang:
    Kodek: A52 Audio (aka AC3) (a52)
    Csatornák: Sztereó
    Mintavételi frekvencia: 48000 Hz
    Bitsebesség: 192 kb/mp
    Formátum: iso
    Méret: 4,06 GB
    Műsoridő: 1:33:13 (1:46:40)
    (prémium)
    Rejtett tartalom:
    **Rejtett tartalom: A tartalom megjelenítéséhez kattints a 'Tetszik' gombra.**
    [​IMG]

    Formátum: dvdrip/avi
    Méret: 935 MB
    Felbontás: 720x416
    Mintavételi frekvencia: 48000 Hz
    Bitsebesség: 128 kbps
    Műsoridő: 1:33:13
    Részletes média információ:
    Show Spoiler

    J:\51 - Cipruskoporsó.avi
    General
    Complete name : J:\51 - Cipruskoporsó.avi
    Format : AVI
    Format/Info : Audio Video Interleave
    File size : 933 MiB
    Duration : 1 h 33 min
    Overall bit rate : 1 399 kb/s
    Writing application : VirtualDubMod 1.5.4.1 (build 2178/release)
    Writing library : VirtualDubMod build 2178/release
    Video #0
    ID : 0
    Format : MPEG-4 Visual
    Format profile : Advanced [email protected]
    Format settings, BVOP : 1
    Format settings, QPel : No
    Format settings, GMC : No warppoints
    Format settings, Matrix : Custom
    Codec ID : XVID
    Codec ID/Hint : XviD
    Duration : 1 h 33 min
    Bit rate : 1 134 kb/s
    Width : 720 pixels
    Height : 416 pixels
    Display aspect ratio : 1.731
    Frame rate : 25.000 FPS
    Color space : YUV
    Chroma subsampling : 4:2:0
    Bit depth : 8 bits
    Scan type : Progressive
    Compression mode : Lossy
    Bits/(Pixel*Frame) : 0.151
    Stream size : 756 MiB (81%)
    Writing library : XviD 1.2.1 (UTC 2008-12-04)
    Audio #1
    ID : 1
    Format : MPEG Audio
    Format version : Version 1
    Format profile : Layer 3
    Mode : Joint stereo
    Mode extension : MS Stereo
    Codec ID : 55
    Codec ID/Hint : MP3
    Duration : 1 h 33 min
    Bit rate mode : Constant
    Bit rate : 128 kb/s
    Channel(s) : 2 channels
    Sampling rate : 48.0 kHz
    Compression mode : Lossy
    Stream size : 85.3 MiB (9%)
    Alignment : Aligned on interleaves
    Interleave, duration : 80 ms (2.00 video frames)
    Interleave, preload duration : 504 ms
    Writing library : LAME3.98r
    Encoding settings : -m j -V 4 -q 2 -lowpass 17 -b 128
    Audio #2
    ID : 2
    Format : MPEG Audio
    Format version : Version 1
    Format profile : Layer 3
    Mode : Joint stereo
    Mode extension : MS Stereo
    Codec ID : 55
    Codec ID/Hint : MP3
    Duration : 1 h 33 min
    Bit rate mode : Constant
    Bit rate : 128 kb/s
    Channel(s) : 2 channels
    Sampling rate : 48.0 kHz
    Compression mode : Lossy
    Stream size : 85.3 MiB (9%)
    Alignment : Aligned on interleaves
    Interleave, duration : 80 ms (2.00 video frames)
    Interleave, preload duration : 504 ms
    Writing library : LAME3.98r
    Encoding settings : -m j -V 4 -q 2 -lowpass 17 -b 128

    Rejtett tartalom:
    **Rejtett tartalom: A tartalom megjelenítéséhez kattints a 'Tetszik' gombra.**
    vagy free
    Rejtett tartalom:
    **Rejtett tartalom: A tartalom megjelenítéséhez kattints a 'Tetszik' gombra.**
     
  12. papadi

    papadi Állandó Tag

    [​IMG]

    52. (kilencedik évad - 3.) rész

    Halál a Níluson
    (Death on the Nile)
    Rendezte: Andy Wilson
    Bemutató: 2004. április 12.
    Hang: magyar, angol
    Felirat: magyar, angol

    Linnet Ridgeway Anglia leggazdagabb és legszebb örökösnője. Vajon ki irigyelhette gazdagságáért és szépségéért? Mindenki. És kinek állhatott szándékában megölni egy nílusi hajóút során, sőt további gyilkosságokat elkövetnie? A hajón szinte mindenkinek. A rejtély megoldása ismét a "véletlenül" ott tartózkodó híres belga mesterdetektívre, Hercule Poirot-ra hárul, aki ugyan csak nyaralni jött a piramisok és szfinxek hazájába, mégis élete egyik legbonyolultabb ügyét kell régészeti alapossággal feltárnia…
    A népszerű Poirot-sorozat legújabb darabja Agatha Christie, a bűnügyi történetek királynője egyik legismertebb történetét dolgozza fel.
    (a borítóról)

    Extrák: (magyar felirattal) (csak a dvd-n)
    Így készült a film (14:44)

    Média információ:
    Video:
    Kodek: MPEG-1/2 Video (mpgv)
    Felbontás: 720x576
    Képkockasebesség: 25
    Hang:
    Kodek: A52 Audio (aka AC3) (a52)
    Csatornák: Sztereó
    Mintavételi frekvencia: 48000 Hz
    Bitsebesség: 192 kb/mp
    Formátum: iso
    Méret: 4,36 GB
    Műsoridő: 1:37:24 (1:52:08)
    (prémium)
    Rejtett tartalom:
    **Rejtett tartalom: A tartalom megjelenítéséhez kattints a 'Tetszik' gombra.**
    [​IMG]

    Formátum: dvdrip/avi
    Méret: 975 MB
    Felbontás: 720x416
    Mintavételi frekvencia: 48000 Hz
    Bitsebesség: 128 kbps
    Műsoridő: 1:37:24
    Részletes média információ:
    Show Spoiler

    J:\52 - Halál a Niluson.avi
    General
    Complete name : J:\52 - Halál a Niluson.avi
    Format : AVI
    Format/Info : Audio Video Interleave
    File size : 973 MiB
    Duration : 1 h 37 min
    Overall bit rate : 1 397 kb/s
    Writing application : VirtualDubMod 1.5.4.1 (build 2178/release)
    Writing library : VirtualDubMod build 2178/release
    Video #0
    ID : 0
    Format : MPEG-4 Visual
    Format profile : Advanced [email protected]
    Format settings, BVOP : 1
    Format settings, QPel : No
    Format settings, GMC : No warppoints
    Format settings, Matrix : Custom
    Codec ID : XVID
    Codec ID/Hint : XviD
    Duration : 1 h 37 min
    Bit rate : 1 132 kb/s
    Width : 720 pixels
    Height : 416 pixels
    Display aspect ratio : 1.731
    Frame rate : 25.000 FPS
    Color space : YUV
    Chroma subsampling : 4:2:0
    Bit depth : 8 bits
    Scan type : Progressive
    Compression mode : Lossy
    Bits/(Pixel*Frame) : 0.151
    Stream size : 788 MiB (81%)
    Writing library : XviD 1.2.1 (UTC 2008-12-04)
    Audio #1
    ID : 1
    Format : MPEG Audio
    Format version : Version 1
    Format profile : Layer 3
    Mode : Joint stereo
    Codec ID : 55
    Codec ID/Hint : MP3
    Duration : 1 h 37 min
    Bit rate mode : Constant
    Bit rate : 128 kb/s
    Channel(s) : 2 channels
    Sampling rate : 48.0 kHz
    Compression mode : Lossy
    Stream size : 89.2 MiB (9%)
    Alignment : Aligned on interleaves
    Interleave, duration : 80 ms (2.00 video frames)
    Interleave, preload duration : 504 ms
    Writing library : LAME3.98r
    Encoding settings : -m j -V 4 -q 2 -lowpass 17 -b 128
    Audio #2
    ID : 2
    Format : MPEG Audio
    Format version : Version 1
    Format profile : Layer 3
    Mode : Joint stereo
    Mode extension : MS Stereo
    Codec ID : 55
    Codec ID/Hint : MP3
    Duration : 1 h 37 min
    Bit rate mode : Constant
    Bit rate : 128 kb/s
    Channel(s) : 2 channels
    Sampling rate : 48.0 kHz
    Compression mode : Lossy
    Stream size : 89.2 MiB (9%)
    Alignment : Aligned on interleaves
    Interleave, duration : 80 ms (2.00 video frames)
    Interleave, preload duration : 504 ms
    Writing library : LAME3.98r
    Encoding settings : -m j -V 4 -q 2 -lowpass 17 -b 128

    Rejtett tartalom:
    **Rejtett tartalom: A tartalom megjelenítéséhez kattints a 'Tetszik' gombra.**
    vagy free
    Rejtett tartalom:
    **Rejtett tartalom: A tartalom megjelenítéséhez kattints a 'Tetszik' gombra.**
     
    őrszem, dadusk, Kultatukka és 1 másik tag kedveli ezt.
  13. papadi

    papadi Állandó Tag

    [​IMG]

    53. (kilencedik évad - 4.) rész

    Hétvégi gyilkosság
    (The Hollow)
    Rendezte: Simon Langton
    Bemutató: 2004. április 26.
    Hang: magyar, angol
    Felirat: magyar, angol

    Egy gyilkos számára nincs hétvége, akkor is dolgozik, így szegény Hercule Poirotnak alaposan meg kell tornásztatnia agytekervényeit, pedig eredetileg csak vendégségbe indult Sir Henry Angkatell vidéki birtokára. Persze a belga mesterdetektív imádja a kihívásokat. A rejtély most is (majdnem) megfejthetetlen. A vendégek között ott van John Cristow, a jóképű orvos a kissé naív és bugyuta feleségével, Gerdával. Amikor a férjre holtan találnak, felmerül a kérdés, hogy vajon miféle kapcsolat lehetett John és Henrietta, a csinos és vonzó színésznő között? Poirot hamar felfedi a szerelmi háromszög rejtélyét, de vajon egy féltékenységből elkövetett bűntényről lehet szó, vagy ismét szövevényes hazugságok hálójába Keveredett? Az úszómedence, egy doboz gyufa és mindenféle lőfegyverek fura halmazából végül mégis kikerekedik az igazság... (a borítóról)

    Extrák: (magyar felirattal) (csak a dvd-n)
    Így készült a film (14:47)

    Média információ:
    Video:
    Kodek: MPEG-1/2 Video (mpgv)
    Felbontás: 720x576
    Képkockasebesség: 25
    Hang:
    Kodek: A52 Audio (aka AC3) (a52)
    Csatornák: Sztereó
    Mintavételi frekvencia: 48000 Hz
    Bitsebesség: 192 kb/mp
    Formátum: iso
    Méret: 4,31 GB
    Műsoridő: 1:33:18 (1:48:05)
    (prémium)
    Rejtett tartalom:
    **Rejtett tartalom: A tartalom megjelenítéséhez kattints a 'Tetszik' gombra.**
    [​IMG]

    Formátum: dvdrip/avi
    Méret: 935 MB
    Felbontás: 720x416
    Mintavételi frekvencia: 48000 Hz
    Bitsebesség: 128 kbps
    Műsoridő: 1:33:18
    Részletes média információ:
    Show Spoiler

    J:\53 - Hétvégi gyilkosság.avi
    General
    Complete name : J:\53 - Hétvégi gyilkosság.avi
    Format : AVI
    Format/Info : Audio Video Interleave
    File size : 933 MiB
    Duration : 1 h 33 min
    Overall bit rate : 1 397 kb/s
    Writing application : VirtualDubMod 1.5.4.1 (build 2178/release)
    Writing library : VirtualDubMod build 2178/release
    Video #0
    ID : 0
    Format : MPEG-4 Visual
    Format profile : Advanced [email protected]
    Format settings, BVOP : 1
    Format settings, QPel : No
    Format settings, GMC : No warppoints
    Format settings, Matrix : Custom
    Codec ID : XVID
    Codec ID/Hint : XviD
    Duration : 1 h 33 min
    Bit rate : 1 132 kb/s
    Width : 720 pixels
    Height : 416 pixels
    Display aspect ratio : 1.731
    Frame rate : 25.000 FPS
    Color space : YUV
    Chroma subsampling : 4:2:0
    Bit depth : 8 bits
    Scan type : Progressive
    Compression mode : Lossy
    Bits/(Pixel*Frame) : 0.151
    Stream size : 755 MiB (81%)
    Writing library : XviD 1.2.1 (UTC 2008-12-04)
    Audio #1
    ID : 1
    Format : MPEG Audio
    Format version : Version 1
    Format profile : Layer 3
    Mode : Joint stereo
    Mode extension : MS Stereo
    Codec ID : 55
    Codec ID/Hint : MP3
    Duration : 1 h 33 min
    Bit rate mode : Constant
    Bit rate : 128 kb/s
    Channel(s) : 2 channels
    Sampling rate : 48.0 kHz
    Compression mode : Lossy
    Stream size : 85.4 MiB (9%)
    Alignment : Aligned on interleaves
    Interleave, duration : 80 ms (2.00 video frames)
    Interleave, preload duration : 504 ms
    Writing library : LAME3.98r
    Encoding settings : -m j -V 4 -q 2 -lowpass 17 -b 128
    Audio #2
    ID : 2
    Format : MPEG Audio
    Format version : Version 1
    Format profile : Layer 3
    Mode : Joint stereo
    Mode extension : MS Stereo
    Codec ID : 55
    Codec ID/Hint : MP3
    Duration : 1 h 33 min
    Bit rate mode : Constant
    Bit rate : 128 kb/s
    Channel(s) : 2 channels
    Sampling rate : 48.0 kHz
    Compression mode : Lossy
    Stream size : 85.4 MiB (9%)
    Alignment : Aligned on interleaves
    Interleave, duration : 80 ms (2.00 video frames)
    Interleave, preload duration : 504 ms
    Writing library : LAME3.98r
    Encoding settings : -m j -V 4 -q 2 -lowpass 17 -b 128

    Rejtett tartalom:
    **Rejtett tartalom: A tartalom megjelenítéséhez kattints a 'Tetszik' gombra.**
    vagy free
    Rejtett tartalom:
    **Rejtett tartalom: A tartalom megjelenítéséhez kattints a 'Tetszik' gombra.**
     
  14. papadi

    papadi Állandó Tag

    [​IMG]

    54. (tizedik évad - 1.) rész

    A titokzatos Kék Vonat
    (The Mystery of the Blue Train)
    Rendezte: Hettie MacDonald
    Bemutató: 2006. január 1.
    Hang: magyar, angol
    Felirat: magyar, angol

    Mr. Van Aldin az amerikai milliomosokról élő ellenszenves kép igazi megtestesítője. A lánya sem éppen szent. Az elkényeztetett Ruth éppen válófélben van, szeretője pedig egy hamiskártyás gróf. Ráadásul a fiatal nő felelőtlenül magával viszi a világ egyik legértékesebb drágakövét, amikor a fényűző Kék Vonatra száll. A franciaországi luxusutazás során nem csak a rubint rabolják el, de Ruthot is megölik, méghozzá nem mindennapi kegyetlenséggel. A nyomozás során kiderül, hogy a vonat előkelő utasai közül szinte senki nem az, akinek látszik. Csakis Poirot képes kibogozni a kusza szálakat, és fényt deríteni rá, ki a háborodott elme, aki képes volt erre a szomorú, értelmetlen és brutális bűncselekményre. (a borítóról)

    Extrák: (magyar felirattal) (csak a dvd-n)
    Így készült a film (15:46)

    Média információ:
    Video:
    Kodek: MPEG-1/2 Video (mpgv)
    Felbontás: 720x576
    Képkockasebesség: 25
    Hang:
    Kodek: A52 Audio (aka AC3) (a52)
    Csatornák: 3F2R/LFE
    Mintavételi frekvencia: 48000 Hz
    Bitsebesség: 192/448 kb/mp
    Formátum: iso
    Méret: 4,36 GB
    Műsoridő: 1:33:55 (1:49:41)
    (prémium)
    Rejtett tartalom:
    **Rejtett tartalom: A tartalom megjelenítéséhez kattints a 'Tetszik' gombra.**
    [​IMG]

    Formátum: dvdrip/avi
    Méret: 940 MB
    Felbontás: 720x416
    Mintavételi frekvencia: 48000 Hz
    Bitsebesség: 128 kbps
    Műsoridő: 1:33:55
    Részletes média információ:
    Show Spoiler

    J:\54 - A titokzatos Kék Vonat.avi
    General
    Complete name : J:\54 - A titokzatos Kék Vonat.avi
    Format : AVI
    Format/Info : Audio Video Interleave
    File size : 939 MiB
    Duration : 1 h 33 min
    Overall bit rate : 1 398 kb/s
    Writing application : VirtualDubMod 1.5.4.1 (build 2178/release)
    Writing library : VirtualDubMod build 2178/release
    Video #0
    ID : 0
    Format : MPEG-4 Visual
    Format profile : Advanced [email protected]
    Format settings, BVOP : 1
    Format settings, QPel : No
    Format settings, GMC : No warppoints
    Format settings, Matrix : Custom
    Codec ID : XVID
    Codec ID/Hint : XviD
    Duration : 1 h 33 min
    Bit rate : 1 132 kb/s
    Width : 720 pixels
    Height : 416 pixels
    Display aspect ratio : 1.731
    Frame rate : 25.000 FPS
    Color space : YUV
    Chroma subsampling : 4:2:0
    Bit depth : 8 bits
    Scan type : Progressive
    Compression mode : Lossy
    Bits/(Pixel*Frame) : 0.151
    Stream size : 761 MiB (81%)
    Writing library : XviD 1.2.1 (UTC 2008-12-04)
    Audio #1
    ID : 1
    Format : MPEG Audio
    Format version : Version 1
    Format profile : Layer 3
    Mode : Joint stereo
    Mode extension : MS Stereo
    Codec ID : 55
    Codec ID/Hint : MP3
    Duration : 1 h 33 min
    Bit rate mode : Constant
    Bit rate : 128 kb/s
    Channel(s) : 2 channels
    Sampling rate : 48.0 kHz
    Compression mode : Lossy
    Stream size : 86.0 MiB (9%)
    Alignment : Aligned on interleaves
    Interleave, duration : 80 ms (2.00 video frames)
    Interleave, preload duration : 504 ms
    Writing library : LAME3.98r
    Encoding settings : -m j -V 4 -q 2 -lowpass 17 -b 128
    Audio #2
    ID : 2
    Format : MPEG Audio
    Format version : Version 1
    Format profile : Layer 3
    Mode : Joint stereo
    Mode extension : MS Stereo
    Codec ID : 55
    Codec ID/Hint : MP3
    Duration : 1 h 33 min
    Bit rate mode : Constant
    Bit rate : 128 kb/s
    Channel(s) : 2 channels
    Sampling rate : 48.0 kHz
    Compression mode : Lossy
    Stream size : 86.0 MiB (9%)
    Alignment : Aligned on interleaves
    Interleave, duration : 80 ms (2.00 video frames)
    Interleave, preload duration : 504 ms
    Writing library : LAME3.98r
    Encoding settings : -m j -V 4 -q 2 -lowpass 17 -b 128

    Rejtett tartalom:
    **Rejtett tartalom: A tartalom megjelenítéséhez kattints a 'Tetszik' gombra.**
    vagy free
    Rejtett tartalom:
    **Rejtett tartalom: A tartalom megjelenítéséhez kattints a 'Tetszik' gombra.**
     
  15. papadi

    papadi Állandó Tag

    [​IMG]

    55. (tizedik évad - 2.) rész

    Nyílt kártyákkal
    (Cards on the Table)
    Rendezte: Sarah Harding
    Bemutató: 2006. március 19.
    Hang: magyar, angol
    Felirat: magyar, angol

    A különc és perverz milliomos, Mr Shaitana vacsorázni hív nyolc igen különböző embert, akiknek fogalmuk sincs, miért ülnek egy asztalnál. A pazar lakoma után a házigazda a bridzsasztal köré tereli vendégeit, ő maga pedig elalszik a kandalló mellett. A kártyaparti végén a meghívottak távozni készülnek, ám döbbenten tapasztalják, hogy vendéglátójukat szíven szúrták. Ekkor szembesülnek az ördögi játékkal, melyet Shaitana űzött velük. A meghívottak fele ugyanis nyomozó, a másik fele pedig olyasvalaki, aki már ölt embert életében. De melyikük az, aki újra a kísértésbe esett? És mi vitte rá, hogy végezzen a külföldi férfival? A nyereségvágy? A szégyen? Vagy valami titok a múltból? A bridzslapok többet elárulnak minderről Poirot számára, mint bármiféle kihallgatás. (a borítóról)

    Extrák: (magyar felirattal) (csak a dvd-n)
    Így készült a film (8:37)

    Média információ:
    Video:
    Kodek: MPEG-1/2 Video (mpgv)
    Felbontás: 720x576
    Képkockasebesség: 25
    Hang:
    Kodek: A52 Audio (aka AC3) (a52)
    Csatornák: 3F2R/LFE
    Mintavételi frekvencia: 48000 Hz
    Bitsebesség: 192/448 kb/mp
    Formátum: iso
    Méret: 4,37 GB
    Műsoridő: 1:32:58 (1:41:35)
    (prémium)
    Rejtett tartalom:
    **Rejtett tartalom: A tartalom megjelenítéséhez kattints a 'Tetszik' gombra.**
    [​IMG]

    Formátum: dvdrip/avi
    Méret: 929 MB
    Felbontás: 720x416
    Mintavételi frekvencia: 48000 Hz
    Bitsebesség: 128 kbps
    Műsoridő: 1:32:58
    Részletes média információ:
    Show Spoiler

    J:\55 - Nyilt kártyákkal.avi
    General
    Complete name : J:\55 - Nyilt kártyákkal.avi
    Format : AVI
    Format/Info : Audio Video Interleave
    File size : 928 MiB
    Duration : 1 h 32 min
    Overall bit rate : 1 395 kb/s
    Writing application : VirtualDubMod 1.5.4.1 (build 2178/release)
    Writing library : VirtualDubMod build 2178/release
    Video #0
    ID : 0
    Format : MPEG-4 Visual
    Format profile : Advanced [email protected]
    Format settings, BVOP : 1
    Format settings, QPel : No
    Format settings, GMC : No warppoints
    Format settings, Matrix : Custom
    Codec ID : XVID
    Codec ID/Hint : XviD
    Duration : 1 h 32 min
    Bit rate : 1 130 kb/s
    Width : 720 pixels
    Height : 416 pixels
    Display aspect ratio : 1.731
    Frame rate : 25.000 FPS
    Color space : YUV
    Chroma subsampling : 4:2:0
    Bit depth : 8 bits
    Scan type : Progressive
    Compression mode : Lossy
    Bits/(Pixel*Frame) : 0.151
    Stream size : 751 MiB (81%)
    Writing library : XviD 1.2.1 (UTC 2008-12-04)
    Audio #1
    ID : 1
    Format : MPEG Audio
    Format version : Version 1
    Format profile : Layer 3
    Mode : Joint stereo
    Mode extension : MS Stereo
    Codec ID : 55
    Codec ID/Hint : MP3
    Duration : 1 h 32 min
    Bit rate mode : Constant
    Bit rate : 128 kb/s
    Channel(s) : 2 channels
    Sampling rate : 48.0 kHz
    Compression mode : Lossy
    Stream size : 85.1 MiB (9%)
    Alignment : Aligned on interleaves
    Interleave, duration : 80 ms (2.00 video frames)
    Interleave, preload duration : 504 ms
    Writing library : LAME3.98r
    Encoding settings : -m j -V 4 -q 2 -lowpass 17 -b 128
    Audio #2
    ID : 2
    Format : MPEG Audio
    Format version : Version 1
    Format profile : Layer 3
    Mode : Joint stereo
    Mode extension : MS Stereo
    Codec ID : 55
    Codec ID/Hint : MP3
    Duration : 1 h 32 min
    Bit rate mode : Constant
    Bit rate : 128 kb/s
    Channel(s) : 2 channels
    Sampling rate : 48.0 kHz
    Compression mode : Lossy
    Stream size : 85.1 MiB (9%)
    Alignment : Aligned on interleaves
    Interleave, duration : 80 ms (2.00 video frames)
    Interleave, preload duration : 504 ms
    Writing library : LAME3.98r
    Encoding settings : -m j -V 4 -q 2 -lowpass 17 -b 128

    Rejtett tartalom:
    **Rejtett tartalom: A tartalom megjelenítéséhez kattints a 'Tetszik' gombra.**
    vagy free
    Rejtett tartalom:
    **Rejtett tartalom: A tartalom megjelenítéséhez kattints a 'Tetszik' gombra.**
     
  16. papadi

    papadi Állandó Tag

    [​IMG]

    56. (tizedik évad - 3.) rész

    Temetni veszélyes
    (After the Funeral)
    Rendezte: Maurice Phillips
    Bemutató: 2006. március 26.
    Hang: magyar, angol
    Felirat: magyar, angol

    Az Abernethie-család tagjai talán abban különböznek egy átlagos angol famíliától, hogy mindegyiküknek van valami rejtegetni valója. Pedig nagyon fontos lenne, hogy megmondják az igazat. Ugyanis rövid idő alatt két gyilkosság is történik a családban. A gazdag Richard bácsinak a végrendeletét is meghamisították, a félkegyelmű Cora néni meggyilkolásának idejére pedig különös módon egyik Abernethie-nek sincs tisztességes alibije. Ilyen körülmények között a nyomozónak roppant nehéz a dolga, hiszen mindenki gyanús. Létezik azonban egy bevált módszer: ha a családtagokat egy házba terelik, és hagyják, hogy szabadon csevegjenek, előbb-utóbb felszínre kerülnek a régi konfliktusok - és velük az árulkodó titkok. (a borítóról)

    Extrák: (magyar felirattal) (csak a dvd-n)
    Így készült a film (6:15)

    Média információ:
    Video:
    Kodek: MPEG-1/2 Video (mpgv)
    Felbontás: 720x576
    Képkockasebesség: 25
    Hang:
    Kodek: A52 Audio (aka AC3) (a52)
    Csatornák: 3F2R/LFE
    Mintavételi frekvencia: 48000 Hz
    Bitsebesség: 192/448 kb/mp
    Formátum: iso
    Méret: 4,30 GB
    Műsoridő: 1:33:16 (1:39:31)
    (prémium)
    Rejtett tartalom:
    **Rejtett tartalom: A tartalom megjelenítéséhez kattints a 'Tetszik' gombra.**
    [​IMG]

    Formátum: dvdrip/avi
    Méret: 932 MB
    Felbontás: 720x416
    Mintavételi frekvencia: 48000 Hz
    Bitsebesség: 128 kbps
    Műsoridő: 1:33:16
    Részletes média információ:
    Show Spoiler

    J:\56 - Temetni veszélyes.avi
    General
    Complete name : J:\56 - Temetni veszélyes.avi
    Format : AVI
    Format/Info : Audio Video Interleave
    File size : 931 MiB
    Duration : 1 h 33 min
    Overall bit rate : 1 395 kb/s
    Writing application : VirtualDubMod 1.5.4.1 (build 2178/release)
    Writing library : VirtualDubMod build 2178/release
    Video #0
    ID : 0
    Format : MPEG-4 Visual
    Format profile : Advanced [email protected]
    Format settings, BVOP : 1
    Format settings, QPel : No
    Format settings, GMC : No warppoints
    Format settings, Matrix : Custom
    Codec ID : XVID
    Codec ID/Hint : XviD
    Duration : 1 h 33 min
    Bit rate : 1 129 kb/s
    Width : 720 pixels
    Height : 416 pixels
    Display aspect ratio : 1.731
    Frame rate : 25.000 FPS
    Color space : YUV
    Chroma subsampling : 4:2:0
    Bit depth : 8 bits
    Scan type : Progressive
    Compression mode : Lossy
    Bits/(Pixel*Frame) : 0.151
    Stream size : 753 MiB (81%)
    Writing library : XviD 1.2.1 (UTC 2008-12-04)
    Audio #1
    ID : 1
    Format : MPEG Audio
    Format version : Version 1
    Format profile : Layer 3
    Mode : Joint stereo
    Mode extension : MS Stereo
    Codec ID : 55
    Codec ID/Hint : MP3
    Duration : 1 h 33 min
    Bit rate mode : Constant
    Bit rate : 128 kb/s
    Channel(s) : 2 channels
    Sampling rate : 48.0 kHz
    Compression mode : Lossy
    Stream size : 85.4 MiB (9%)
    Alignment : Aligned on interleaves
    Interleave, duration : 80 ms (2.00 video frames)
    Interleave, preload duration : 504 ms
    Writing library : LAME3.98r
    Encoding settings : -m j -V 4 -q 2 -lowpass 17 -b 128
    Audio #2
    ID : 2
    Format : MPEG Audio
    Format version : Version 1
    Format profile : Layer 3
    Mode : Joint stereo
    Mode extension : MS Stereo
    Codec ID : 55
    Codec ID/Hint : MP3
    Duration : 1 h 33 min
    Bit rate mode : Constant
    Bit rate : 128 kb/s
    Channel(s) : 2 channels
    Sampling rate : 48.0 kHz
    Compression mode : Lossy
    Stream size : 85.4 MiB (9%)
    Alignment : Aligned on interleaves
    Interleave, duration : 80 ms (2.00 video frames)
    Interleave, preload duration : 504 ms
    Writing library : LAME3.98r
    Encoding settings : -m j -V 4 -q 2 -lowpass 17 -b 128

    Rejtett tartalom:
    **Rejtett tartalom: A tartalom megjelenítéséhez kattints a 'Tetszik' gombra.**
    vagy free
    Rejtett tartalom:
    **Rejtett tartalom: A tartalom megjelenítéséhez kattints a 'Tetszik' gombra.**
     
    őrszem, dadusk, Kultatukka és 1 másik tag kedveli ezt.
  17. papadi

    papadi Állandó Tag

    [​IMG]

    57. (tizedik évad - 4.) rész

    Zátonyok közt
    (Taken at the Flood)
    Rendezte: Andy Wilson
    Bemutató: 2006. április 2.
    Hang: magyar, angol
    Felirat: magyar, angol

    A Fény Gyermeke nem hiába híres médium: képes kapcsolatot teremteni elhunyt személyekkel, és azt is tudni véli, hogy Rosaleen Hunter első férje nem tartózkodik a holtak birodalmában. Ez igen fontos információ a Cloade-család számára. Ugyanis ha Rosaleen első férje él, akkor a nő törvényellenesen örökölte meg Gordon Cloade vagyonát. Rosaleen egyébként rendes lány: hajlandó lenne kifizetni a mohó családtagokat. Bátyja, David azonban cerberusként őrzi a pénztárcát, és csúnyán elbánik a kunyerálókkal. Mindezek után a Cloade-család egy ifjú hölgytagja, Lynn szenvedélyes, olthatatlan szerelemre lobban a könyörtelen és zseniális David iránt. Hiába bizonygatja neki a férfi: jobb, ha örökre elfelejti a végzetes csókot, melyet a kertben váltottak, mert ő mindenkire csak pusztulást hoz... (a borítóról)

    Extrák: (magyar felirattal) (csak a dvd-n)
    Így készült a film (6:42)

    Média információ:
    Video:
    Kodek: MPEG-1/2 Video (mpgv)
    Felbontás: 720x576
    Képkockasebesség: 25
    Hang:
    Kodek: A52 Audio (aka AC3) (a52)
    Csatornák: 3F2R/LFE
    Mintavételi frekvencia: 48000 Hz
    Bitsebesség: 192/448 kb/mp
    Formátum: iso
    Méret: 4,33 GB
    Műsoridő: 1:33:45 (1:40:27)
    (prémium)
    Rejtett tartalom:
    **Rejtett tartalom: A tartalom megjelenítéséhez kattints a 'Tetszik' gombra.**
    [​IMG]

    Formátum: dvdrip/avi
    Méret: 937 MB
    Felbontás: 720x416
    Mintavételi frekvencia: 48000 Hz
    Bitsebesség: 128 kbps
    Műsoridő: 1:33:45
    Részletes média információ:
    Show Spoiler

    J:\57 - Zátonyok közt.avi
    General
    Complete name : J:\57 - Zátonyok közt.avi
    Format : AVI
    Format/Info : Audio Video Interleave
    File size : 936 MiB
    Duration : 1 h 33 min
    Overall bit rate : 1 395 kb/s
    Writing application : VirtualDubMod 1.5.4.1 (build 2178/release)
    Writing library : VirtualDubMod build 2178/release
    Video #0
    ID : 0
    Format : MPEG-4 Visual
    Format profile : Advanced [email protected]
    Format settings, BVOP : 1
    Format settings, QPel : No
    Format settings, GMC : No warppoints
    Format settings, Matrix : Custom
    Codec ID : XVID
    Codec ID/Hint : XviD
    Duration : 1 h 33 min
    Bit rate : 1 130 kb/s
    Width : 720 pixels
    Height : 416 pixels
    Display aspect ratio : 1.731
    Frame rate : 25.000 FPS
    Color space : YUV
    Chroma subsampling : 4:2:0
    Bit depth : 8 bits
    Scan type : Progressive
    Compression mode : Lossy
    Bits/(Pixel*Frame) : 0.151
    Stream size : 757 MiB (81%)
    Writing library : XviD 1.2.1 (UTC 2008-12-04)
    Audio #1
    ID : 1
    Format : MPEG Audio
    Format version : Version 1
    Format profile : Layer 3
    Mode : Joint stereo
    Mode extension : MS Stereo
    Codec ID : 55
    Codec ID/Hint : MP3
    Duration : 1 h 33 min
    Bit rate mode : Constant
    Bit rate : 128 kb/s
    Channel(s) : 2 channels
    Sampling rate : 48.0 kHz
    Compression mode : Lossy
    Stream size : 85.8 MiB (9%)
    Alignment : Aligned on interleaves
    Interleave, duration : 80 ms (2.00 video frames)
    Interleave, preload duration : 504 ms
    Writing library : LAME3.98r
    Encoding settings : -m j -V 4 -q 2 -lowpass 17 -b 128
    Audio #2
    ID : 2
    Format : MPEG Audio
    Format version : Version 1
    Format profile : Layer 3
    Mode : Joint stereo
    Mode extension : MS Stereo
    Codec ID : 55
    Codec ID/Hint : MP3
    Duration : 1 h 33 min
    Bit rate mode : Constant
    Bit rate : 128 kb/s
    Channel(s) : 2 channels
    Sampling rate : 48.0 kHz
    Compression mode : Lossy
    Stream size : 85.8 MiB (9%)
    Alignment : Aligned on interleaves
    Interleave, duration : 80 ms (2.00 video frames)
    Interleave, preload duration : 504 ms
    Writing library : LAME3.98r
    Encoding settings : -m j -V 4 -q 2 -lowpass 17 -b 128

    Rejtett tartalom:
    **Rejtett tartalom: A tartalom megjelenítéséhez kattints a 'Tetszik' gombra.**
    vagy free
    Rejtett tartalom:
    **Rejtett tartalom: A tartalom megjelenítéséhez kattints a 'Tetszik' gombra.**
     
    őrszem, dadusk, Kultatukka és 1 másik tag kedveli ezt.
  18. papadi

    papadi Állandó Tag

    [​IMG] [​IMG]

    58. (tizenegyedik évad - 1.) rész

    Mrs. McGinty halott
    (Mrs McGinty's Dead)
    Rendezte: Ashley Pearce
    Bemutató: 2008. szeptember 14.
    Hang: magyar, angol
    Felirat: magyar, angol

    A korosodó Abigail McGuinty egyszerű takarítónő egy jelentéktelen angol falucskában. Amikor az asszony gyilkosság áldozata lesz, egyből az albérlőjét gyanúsítják, és hamar ki is mondják a fiatalember halálos ítéletét. Spence rendőrnyomozónak azonban azt súgja az ösztöne, hogy valami nincs rendben az ügy körül és a legjobb, ha Poirot segítségét kéri. A belga nyomozó pedig az ártatlan férfi megmentése érdekében beveti rendkívüli szürkeállományát. Sőt, hajlandó ideiglenesen lemondani a civilizáció áldásairól, leköltözni az isten háta mögötti Broadhinnybe... (a borítóról)

    Média információ:
    Video:
    Kodek: MPEG-1/2 Video (mpgv)
    Felbontás: 720x576
    Képkockasebesség: 25
    Hang:
    Kodek: A52 Audio (aka AC3) (a52)
    Csatornák: 3F2R/LFE
    Mintavételi frekvencia: 48000 Hz
    Bitsebesség: 192/448 kb/mp
    Formátum: iso
    Méret: 3,64 GB
    Műsoridő: 1:33:02
    (prémium)
    Rejtett tartalom:
    **Rejtett tartalom: A tartalom megjelenítéséhez kattints a 'Tetszik' gombra.**
    [​IMG]

    Formátum: dvdrip/avi
    Méret: 935 MB
    Felbontás: 720x400
    Mintavételi frekvencia: 48000 Hz
    Bitsebesség: 116/111 kbps
    Műsoridő: 1:33:02
    Részletes média információ:
    Show Spoiler

    J:\58 - Mrs McGinty halott.avi
    General
    Complete name : J:\58 - Mrs McGinty halott.avi
    Format : AVI
    Format/Info : Audio Video Interleave
    File size : 933 MiB
    Duration : 1 h 33 min
    Overall bit rate mode : Variable
    Overall bit rate : 1 402 kb/s
    Writing application : VirtualDubMod 1.5.4.1 (build 2178/release)
    Writing library : VirtualDubMod build 2178/release
    Video #0
    ID : 0
    Format : MPEG-4 Visual
    Format profile : Advanced [email protected]
    Format settings, BVOP : 1
    Format settings, QPel : No
    Format settings, GMC : No warppoints
    Format settings, Matrix : Custom
    Codec ID : XVID
    Codec ID/Hint : XviD
    Duration : 1 h 33 min
    Bit rate : 1 155 kb/s
    Width : 720 pixels
    Height : 400 pixels
    Display aspect ratio : 16:9
    Frame rate : 25.000 FPS
    Color space : YUV
    Chroma subsampling : 4:2:0
    Bit depth : 8 bits
    Scan type : Progressive
    Compression mode : Lossy
    Bits/(Pixel*Frame) : 0.160
    Stream size : 769 MiB (82%)
    Writing library : XviD 1.2.1 (UTC 2008-12-04)
    Audio #1
    ID : 1
    Format : MPEG Audio
    Format version : Version 1
    Format profile : Layer 3
    Mode : Joint stereo
    Mode extension : MS Stereo
    Codec ID : 55
    Codec ID/Hint : MP3
    Duration : 1 h 33 min
    Bit rate mode : Variable
    Bit rate : 116 kb/s
    Nominal bit rate : 128 kb/s
    Channel(s) : 2 channels
    Sampling rate : 48.0 kHz
    Compression mode : Lossy
    Stream size : 76.9 MiB (8%)
    Alignment : Aligned on interleaves
    Interleave, duration : 24 ms (0.60 video frame)
    Interleave, preload duration : 451 ms
    Writing library : LAME3.98r
    Encoding settings : -m j -V 4 -q 2 -lowpass 17 --abr 128
    Audio #2
    ID : 2
    Format : MPEG Audio
    Format version : Version 1
    Format profile : Layer 3
    Mode : Joint stereo
    Codec ID : 55
    Codec ID/Hint : MP3
    Duration : 1 h 33 min
    Bit rate mode : Variable
    Bit rate : 111 kb/s
    Nominal bit rate : 128 kb/s
    Channel(s) : 2 channels
    Sampling rate : 48.0 kHz
    Compression mode : Lossy
    Stream size : 73.6 MiB (8%)
    Alignment : Aligned on interleaves
    Interleave, duration : 24 ms (0.60 video frame)
    Interleave, preload duration : 429 ms
    Writing library : LAME3.98r
    Encoding settings : -m j -V 4 -q 2 -lowpass 17 --abr 128

    Rejtett tartalom:
    **Rejtett tartalom: A tartalom megjelenítéséhez kattints a 'Tetszik' gombra.**
    vagy free
    Rejtett tartalom:
    **Rejtett tartalom: A tartalom megjelenítéséhez kattints a 'Tetszik' gombra.**
     
    őrszem, dadusk, Kultatukka és 1 másik tag kedveli ezt.
  19. papadi

    papadi Állandó Tag

    [​IMG] [​IMG]

    59. (tizenegyedik évad - 2.) rész

    Macska a galambok között
    (Cat Among the Pigeons)
    Rendezte: James Kent
    Bemutató: 2008. szeptember 21.
    Hang: magyar, angol
    Felirat: magyar, angol

    Anglia legjobb leányiskolája csendes, nyugalmas környéken található. Az előkelő családok jól nevelt gyermekeinek elméjét válogatott tanári gárda pallérozza az évszázados falak között. Az igazgatónő mégsem tudja megóvni növendékeit a való világ borzalmaitól. Először a tornatanárnő szívét szúrják át egy gerellyel egy sötét éjszakán. Azután más tanárokat is brutális támadás ér. Nem kétséges többé: macska ólálkodik a galambok között! A szülők pánikszerűen menekítik ki gyerekeiket az iskolából, és az igazgatónőnek egyetlen reménye marad: Poirot. (a borítóról)

    Média információ:
    Video:
    Kodek: MPEG-1/2 Video (mpgv)
    Felbontás: 720x576
    Képkockasebesség: 25
    Hang:
    Kodek: A52 Audio (aka AC3) (a52)
    Csatornák: 3F2R/LFE
    Mintavételi frekvencia: 48000 Hz
    Bitsebesség: 192/448 kb/mp
    Formátum: iso
    Méret: 3,66 GB
    Műsoridő: 1:32:47
    (prémium)
    Rejtett tartalom:
    **Rejtett tartalom: A tartalom megjelenítéséhez kattints a 'Tetszik' gombra.**
    [​IMG]

    Formátum: dvdrip/avi
    Méret: 935 MB
    Felbontás: 720x416
    Mintavételi frekvencia: 48000 Hz
    Bitsebesség: 117/111 kbps
    Műsoridő: 1:32:47
    Részletes média információ:
    Show Spoiler

    J:\59 - Macska a galambok között.avi
    General
    Complete name : J:\59 - Macska a galambok között.avi
    Format : AVI
    Format/Info : Audio Video Interleave
    File size : 933 MiB
    Duration : 1 h 32 min
    Overall bit rate mode : Variable
    Overall bit rate : 1 406 kb/s
    Writing application : VirtualDubMod 1.5.4.1 (build 2178/release)
    Writing library : VirtualDubMod build 2178/release
    Video #0
    ID : 0
    Format : MPEG-4 Visual
    Format profile : Advanced [email protected]
    Format settings, BVOP : No
    Format settings, QPel : No
    Format settings, GMC : No warppoints
    Format settings, Matrix : Custom
    Codec ID : XVID
    Codec ID/Hint : XviD
    Duration : 1 h 32 min
    Bit rate : 1 157 kb/s
    Width : 720 pixels
    Height : 416 pixels
    Display aspect ratio : 1.731
    Frame rate : 25.000 FPS
    Color space : YUV
    Chroma subsampling : 4:2:0
    Bit depth : 8 bits
    Scan type : Progressive
    Compression mode : Lossy
    Bits/(Pixel*Frame) : 0.154
    Stream size : 768 MiB (82%)
    Writing library : XviD 1.2.1 (UTC 2008-12-04)
    Audio #1
    ID : 1
    Format : MPEG Audio
    Format version : Version 1
    Format profile : Layer 3
    Mode : Joint stereo
    Mode extension : MS Stereo
    Codec ID : 55
    Codec ID/Hint : MP3
    Duration : 1 h 32 min
    Bit rate mode : Variable
    Bit rate : 117 kb/s
    Nominal bit rate : 128 kb/s
    Channel(s) : 2 channels
    Sampling rate : 48.0 kHz
    Compression mode : Lossy
    Stream size : 77.7 MiB (8%)
    Alignment : Aligned on interleaves
    Interleave, duration : 24 ms (0.60 video frame)
    Interleave, preload duration : 454 ms
    Writing library : LAME3.98r
    Encoding settings : -m j -V 4 -q 2 -lowpass 17 --abr 128
    Audio #2
    ID : 2
    Format : MPEG Audio
    Format version : Version 1
    Format profile : Layer 3
    Mode : Joint stereo
    Mode extension : MS Stereo
    Codec ID : 55
    Codec ID/Hint : MP3
    Duration : 1 h 32 min
    Bit rate mode : Variable
    Bit rate : 111 kb/s
    Nominal bit rate : 128 kb/s
    Channel(s) : 2 channels
    Sampling rate : 48.0 kHz
    Compression mode : Lossy
    Stream size : 73.9 MiB (8%)
    Alignment : Aligned on interleaves
    Interleave, duration : 24 ms (0.60 video frame)
    Interleave, preload duration : 420 ms
    Writing library : LAME3.98r
    Encoding settings : -m j -V 4 -q 2 -lowpass 17 --abr 128

    Rejtett tartalom:
    **Rejtett tartalom: A tartalom megjelenítéséhez kattints a 'Tetszik' gombra.**
    vagy free
    Rejtett tartalom:
    **Rejtett tartalom: A tartalom megjelenítéséhez kattints a 'Tetszik' gombra.**
     
  20. papadi

    papadi Állandó Tag

    [​IMG] [​IMG]

    60. (tizenegyedik évad - 3.) rész

    A harmadik lány
    (Third Girl)
    Rendezte: Dan Reed
    Bemutató: 2008. szeptember 28.
    Hang: magyar, angol
    Felirat: magyar, angol

    Poirot számára néha meglepetést okoznak a nők. Váratlanul egy hisztérikus fiatal lány toppan be hozzá, közli, hogy megölt valakit, majd viharosan távozik. Poirot barátnője, a regényíró Ariadne pedig a fejébe veszi, hogy magánnyomozásba kezd a házában történt öngyilkosság ügyében. Először Poirot úgy véli, hogy Ariadnénak túl élénk a fantáziája, de mikor az írónőt kutatás közben ismeretlenek fejbe vágják, rá kell jönnie, hogy barátnője jó nyomon járt. Poirot maga veszi kézbe a két ügyet, melyekről hamarosan kiderül, hogy összefüggnek. (a borítóról)

    Média információ:
    Video:
    Kodek: MPEG-1/2 Video (mpgv)
    Felbontás: 720x576
    Képkockasebesség: 25
    Hang:
    Kodek: A52 Audio (aka AC3) (a52)
    Csatornák: 3F2R/LFE
    Mintavételi frekvencia: 48000 Hz
    Bitsebesség: 192/448 kb/mp
    Formátum: iso
    Méret: 3,65 GB
    Műsoridő: 1:33:01
    (prémium)
    Rejtett tartalom:
    **Rejtett tartalom: A tartalom megjelenítéséhez kattints a 'Tetszik' gombra.**
    [​IMG]

    Formátum: dvdrip/avi
    Méret: 934 MB
    Felbontás: 720x416
    Mintavételi frekvencia: 48000 Hz
    Bitsebesség: 119/112 kbps
    Műsoridő: 1:33:01
    Részletes média információ:
    Show Spoiler

    K:\60 - A harmadik lány.avi
    General
    Complete name : K:\60 - A harmadik lány.avi
    Format : AVI
    Format/Info : Audio Video Interleave
    File size : 933 MiB
    Duration : 1 h 33 min
    Overall bit rate mode : Variable
    Overall bit rate : 1 402 kb/s
    Writing application : VirtualDubMod 1.5.4.1 (build 2178/release)
    Writing library : VirtualDubMod build 2178/release
    Video #0
    ID : 0
    Format : MPEG-4 Visual
    Format profile : Advanced [email protected]
    Format settings, BVOP : 1
    Format settings, QPel : No
    Format settings, GMC : No warppoints
    Format settings, Matrix : Custom
    Codec ID : XVID
    Codec ID/Hint : XviD
    Duration : 1 h 33 min
    Bit rate : 1 150 kb/s
    Width : 720 pixels
    Height : 416 pixels
    Display aspect ratio : 1.731
    Frame rate : 25.000 FPS
    Color space : YUV
    Chroma subsampling : 4:2:0
    Bit depth : 8 bits
    Scan type : Progressive
    Compression mode : Lossy
    Bits/(Pixel*Frame) : 0.154
    Stream size : 765 MiB (82%)
    Writing library : XviD 1.2.1 (UTC 2008-12-04)
    Audio #1
    ID : 1
    Format : MPEG Audio
    Format version : Version 1
    Format profile : Layer 3
    Mode : Joint stereo
    Mode extension : MS Stereo
    Codec ID : 55
    Codec ID/Hint : MP3
    Duration : 1 h 33 min
    Bit rate mode : Variable
    Bit rate : 119 kb/s
    Nominal bit rate : 128 kb/s
    Channel(s) : 2 channels
    Sampling rate : 48.0 kHz
    Compression mode : Lossy
    Stream size : 79.0 MiB (8%)
    Alignment : Aligned on interleaves
    Interleave, duration : 24 ms (0.60 video frame)
    Interleave, preload duration : 441 ms
    Writing library : LAME3.98r
    Encoding settings : -m j -V 4 -q 2 -lowpass 17 --abr 128
    Audio #2
    ID : 2
    Format : MPEG Audio
    Format version : Version 1
    Format profile : Layer 3
    Mode : Joint stereo
    Codec ID : 55
    Codec ID/Hint : MP3
    Duration : 1 h 33 min
    Bit rate mode : Variable
    Bit rate : 112 kb/s
    Nominal bit rate : 128 kb/s
    Channel(s) : 2 channels
    Sampling rate : 48.0 kHz
    Compression mode : Lossy
    Stream size : 74.4 MiB (8%)
    Alignment : Aligned on interleaves
    Interleave, duration : 24 ms (0.60 video frame)
    Interleave, preload duration : 420 ms
    Writing library : LAME3.98r
    Encoding settings : -m j -V 4 -q 2 -lowpass 17 --abr 128

    Rejtett tartalom:
    **Rejtett tartalom: A tartalom megjelenítéséhez kattints a 'Tetszik' gombra.**
    vagy free
    Rejtett tartalom:
    **Rejtett tartalom: A tartalom megjelenítéséhez kattints a 'Tetszik' gombra.**
     

Megosztás